Welcome Guest ( Log In | Register )

История благодарностей участнику RADeus ::: Спасибо сказали: 14515 раз(а)
Дата поста: В теме: За сообщение: Спасибо сказали:
Yesterday, 19:15:42 Panzerfaust - The Cult Of Death [compilation] (2004)
Заменил ссылки в шапке на рип с собственной кассеты в 320 (+ сканы).
(1) Абигор,
Nov 2 2019, 21:16:38 The Deathtrip - Deep Drone Master (2014)
В ожидании нового альбома переслушал этот. Шикарный блек. Превосходный!
(1) Абигор,
Oct 21 2019, 20:53:35 Mayhem - Daemon (2019)


*Artist: Mayhem
*Album: Daemon
*Year: 2019
*Genre: Black Metal
*Country: Norway
*Format: mp3@CBR320kbps
*Size: 136MB

Tracklist:
1. The Dying False King 03:45
2. Agenda Ignis 04:34
3. Bad Blood 04:58
4. Malum 05:05
5. Falsified and Hated 05:48
6. Aeon Daemonium 06:03
7. Worthless Abominations Destroyed 03:48
8. Daemon Spawn 06:02
9. Of Worms and Ruins 03:48
10. Invoke the Oath 05:33
11. Everlasting Dying Flame (Bonus Track) 05:52
12. Black Glass Communion (Bonus Track) 04:25
******************************
Total playing time: 59:41



[more=Extended info]Century Media Records, October 25th.
Bonus tracks available on the Ltd. CD Mediabook and in the Ltd. Deluxe LP Box Set as well as on streaming platforms.
Exclusively for metalarea.

Отличный альбом![/more]

[more=Technical info]
Input File: 01 - The Dying False King.mp3
Channels : 2
Sample Rate : 44100
Precision : 16-bit
Duration : 00:03:46.60 = 9993104 samples = 16995.1 CDDA sectors
File Size : 9.06M
Bit Rate : 320k
Sample Encoding: MPEG audio (layer I, II or III)
Comments :
Title=The Dying False King
Artist=Mayhem
Album=Daemon
Tracknumber=1

[/more]

Register


Register
(222) 17Nostcide, 1968_janeart, 6666666, 666days, A.L.Rapsod, abob, acerbus, AHAB99, ahp, Alexis The Best, andeimon, andivi, AndreFrancis, Anhra Mainyu, Antichrist696, Aresson, arkaik, artscald, as71, babanguida, Ballisargon, Baudolino, Beazth, beherit1972, Bergthron, berserkr, BERZERK, biroutios, Blacktron, cancer1974, cenzored, Chasm, cist, craP_cillA, crestfallen999, dan22, DarkHorde, dead4, deadterror, delgard, Demonologist, DenisKov, desekrator, Devourer, disney666, djsema4, Dmitry1977, doomTemplar, dsp, dulak, Eisbar, Esophagus, EvgeniusLongus, Evilded, Extreme Brutal, eye, Faust_Vulkan_16, Femto, Fess, ForzaMinardi1977, Frozenkult, Fryz, FUDEDOR, fuoco, garmonbozia, gena, ghaaran, GloomyDeath, Golodomor, GorAtheist, Guns, heinz88, hellbibber, helvetesrike, helvetestoner, Henmik, igore2911, IndeXR, Infidel, infiltrator, JD666Hellion, Joey_73, JohnnyBravo, judaz, kamikadzeeeii, kauyumari, Kehl05, khestanow3001, kim666, kimkayoung, Korpse, Krosis, Lafii, lafuma, Lamby90, Lanceatum, Legacy100, LEGION69, lekram, Lord Noctua, lordbathor, Lux, Magged, Mannard, maochen, marilin, metala, Metalass, metaljosue, mikkah, mirotvorets, MMMMM, Moonshtook, multizwilling, nadin85, Narasimha, necrofag, nemx, nikolay81, NOMIDIMON, nsk2008, nugorod, obituarydark, obscenity, Occultas, Ogneslov, Old Vyaine, Olethros, Orgasmik, Pentium.Disel, peppuzzo, Phlebotomized, plfan93, popen13, QuadenThyrane, rabiasocial, rammmirez, recber, Reverend, ripper33, robertho777, Rosen, Rover, RUSP73, russianextreme, sabr, SadistikSlayer, Samaritianin, SameMan, Samogon, sandr666, sarcophagus, satanist666, Satyr, Scuns, Semargl2010, sepultura39, serg1349, sethurius, Shadechaser, Shadowman, Sheogorath, sidharda, SilentNidhogg, Slavas, smes, sonicavocado, soulskinner681, spazm, sperminator, SS2998, StabWound, stub888, supremo, Swastika, SyncestrA, Taragorm, terron, thenecromancer, the_metalist, Thiarnan, THROWER666, tim47, Tino, toly1917, tOmV, Torlof, trabantfan, troll_swamp, tschunioronbeer, Typhoid, Tyrone, Vakhangya, valafar, VALERY, vasiljev_sergej, Vidder242, vov7609, vovenom, VVP123, vyacheslav, Wail, WarmasterChorus, Winter Funeral, Wolfera, wolverine, wrath082, wtk.412, xax, Xron, xska, yuratroll, ZA670, ZloY_GreY, zotyo1975, Абигор, Варяг, дивин, Козлотролль, Луч, металлист, Сварог Барг,
Oct 18 2019, 09:57:02 Teitanblood - The Baneful Choir (2019)
FLAC (321 MB):
Register
(16) Andr, AndreFrancis, artscald, CRUNCH, dad, garmonbozia, infiltrator, Olethros, Premature_Devotion, rockwell666, sacredserenity, sacrut, SAPOGi, sonicavocado, vosmidesijatye, wtk.412,
Sep 19 2019, 18:19:15 Blut Aus Nord - Hallucinogen (2019)


*Artist: Blut Aus Nord
*Album: Hallucinogen
*Year: 2019
*Genre: Atmospheric Black Metal
*Country: France
*Format: mp3@CBR320kbps
*Size: 113MB

Tracklist:
1. Nomos Nebuleam 08:28
2. Nebeleste 06:19
3. Sybelius 06:27
4. Anthosmos 07:20
5. Mahagma 06:21
6. Haallucinählia 06:51
7. Cosma Procyiris 07:10
******************************
Total playing time: 48:56



[more=Extended info]Debemur Morti Productions, October 11th.
Exclusively for metalarea.[/more]

[more=Technical info]
Input File: 02. Nebeleste.mp3
Channels : 2
Sample Rate : 44100
Precision : 16-bit
Duration : 00:06:19.19 = 16722323 samples = 28439.3 CDDA sectors
File Size : 15.2M
Bit Rate : 321k
Sample Encoding: MPEG audio (layer I, II or III)
Comments :
Title=Nebeleste
Artist=BLUT AUS NORD
Album=Hallucinogen
Tracknumber=2
Year=2019

[/more]

Register


Register
(158) -=Hass=-, 1968_janeart, 666days, A.L.Rapsod, acerbus, ahp, Alexis The Best, Ambercandle, AndreFrancis, Aresson, artscald, Atreides, autumnwood, BandR75, Baudolino, Beazth, berserkr, BERZERK, biroutios, blacky66, bloodwind, boby9052, Boozer, Branis, celestial_keeper, chipsgott, Daale, dalek, Demonologist, dermarsoran, dimpa, Dirt_ORFEY, djin94, Dmitry1977, doomTemplar, Doooomed, DowntownGsus, El_Chibo, ENDSMOUTH, Evgen79, Evilded, Faust2016, Femto, Fess, ForzaMinardi1977, Fryz, fylopaloma, garmonbozia, gena, GFW, Guns, Haunting, hellbibber, helvetesrike, Henmik, Hipgnosis, infernallord, Infidel, infiltrator, Irimias, Johnix, judaz, kalmametallinen, Kalnasra, kauyumari, Kazoth, kimkayoung, kolar666, Krosis, KVRT, LazarShadow, LEGION69, lestllk, lucifix, Ludwig Hagen, Lux, M0ns1gn0r, Malzus, marilin, MEmethuselah, metala, MetalAreola, Metalass, metaljosue, milosdjor, mirotvorets, Mist13Signifier, MMMMM, Moonlover, Morgoth, nadin85, NappyRob, Narasimha, nemx, Nerevar, Nhmrath, nikolay81, noctu, NOMIDIMON, nsmetalhead, Occultas, Old Vyaine, older68, Olethros, Ostinato, peppuzzo, pgarlinski, Phlebotomized, plfan93, Radek, RedMoloch, respect, Reverend, ripper33, Rosen, sacrut, Samogon, Sanctus, sandr666, satanist666, scorn33, sethurius, Shadechaser, snorr, sonicavocado, spiritualdecay666, squall8fr, Sternennacht, stub888, supremo, svartrest, system36, TDM, TeamatSE, the_cleanser, tim47, Tino, tOmV, trabantfan, Trelledorn, troll_swamp, unas.slayer.of.gods, VALERY, vasiljev_sergej, Velmi, Vidder242, wolverine, wtk.412, xska, yuratroll, zdcaixao, Zoloft, Абигор, Авел, дивин, Луч, металлист, Нигилист,
Sep 15 2019, 09:35:27 Ifernach - Skin Stone Blood Bone (2019)
The links were replaced with the better version.
(4) garmonbozia, nemx, Razorbladeswaltz, stub888,
Sep 10 2019, 18:58:42 Ifernach - Skin Stone Blood Bone (2019)


*Artist: Ifernach
*Album: Skin Stone Blood Bone
*Year: 2019
*Genre: Black Metal
*Country: Canada
*Format: mp3@CBR320kbps
*Size: 90MB

Tracklist:
1. Manifestation of the Horned Beast at Dusk 4:21
2. Following Elk Blood 1:44
3. Death of the Son (Akaia) 3:27
4. Gutfeast under a Blood Moon 5:05
5. Gespegewagi Matnaggewinu 2:47
6. I Shall Reborn from the Cremated Bone Ashes 2:44
7. Daincing in the Skyworld 4:15
8. Infernal Journeys of the Medecine Man 1:37
9. Cosmic Pillars in Algonkian Darkness 4:19
10. The Dark Diviner 9:03
******************************
Total playing time: 39:22



[more=Extended info]Tour de Garde, August 2019
https://t-d-g.net/products/ifernach-skin-st...ood-bone-pro-mc[/more]

[more=Technical info]
Input File: 03. Death of the Son (Akaia).mp3
Channels : 2
Sample Rate : 44100
Precision : 16-bit
Duration : 00:03:27.29 = 9141621 samples = 15547 CDDA sectors
File Size : 8.30M
Bit Rate : 320k
Sample Encoding: MPEG audio (layer I, II or III)
Comments :
Title=Death of the Son (Akaia)
Artist=Ifernach
Album=Skin Stone Blood Bone
Tracknumber=03/10
Year=2019
Genre=Black Metal

[/more]

Register
(30) 1968_janeart, acerbus, artscald, atavist, dan22, EvilPiet, garmonbozia, gena, Hell_Is_Here, Ildjarn, infiltrator, kim666, Legacy100, lestllk, metaljosue, MMMMM, nemx, Olethros, Ostinato, rammmirez, rimfrost, Rosen, satanist666, SilentNidhogg, stub888, VALERY, vasiljev_sergej, Vraithee, wreak, Абигор,
Aug 2 2019, 17:58:00 Vothana - Không Bao Giờ Nộp/Never To Submit (2019)


*Artist: Vothana
*Album: Không Bao Giờ Nộp/Never To Submit
*Year: 2019
*Genre: Black Metal
*Country: Vietnam | United States
*Format: mp3@CBR320kbps
*Size: 159MB

Tracklist:
1. Death Before Dishonour 09:14
2. Sau Khi Khói Tan / After the Smoke Dissipates 09:56
3. Trong Chiến Thắng Hay Trong Cái Chết / In Victory or in Death 09:03
4. Tớ Quốc. Danh Dự. Trách Nhiệm / Fatherland. Honour. Duty 09:38
5. Không Bao Giờ Nộp / Never to Submit 07:16
6. Vinh Quang / Glory 11:56
7. Nghe Tiếng Còi Báo / Hear the Sirens Echo 12:22
******************************
Total playing time: 1:09:25



[more=Extended info]Darker than Black Records, April 18th
2 × Vinyl, LP

Превью не с этого альбома, в сети пока не было.[/more]

[more=Technical info]
Input File: 02 - Sau Khi Khói Tan - After the Smoke Dissipates.mp3
Channels : 2
Sample Rate : 44100
Precision : 16-bit
Duration : 00:09:55.73 = 26271781 samples = 44679.9 CDDA sectors
File Size : 23.8M
Bit Rate : 320k
Sample Encoding: MPEG audio (layer I, II or III)
Comments :
Title=Sau Khi Khói Tan / After the Smoke Dissipates
Artist=Vothana
Album=Không Bao Giờ Nộp / Never To Submit
Tracknumber=02/7
Year=2019
Genre=Black Metal

[/more]

Register
(53) -=Hass=-, 1968_janeart, 666days, acerbus, Ainar, aleon, alikkon, artscald, Borderline1991, cancer1974, ChaosArcana, craP_cillA, dsp, Fess, Forrrrest, garmonbozia, Ildjarn, infiltrator, judaz, Kazoth, kim666, lestllk, mizantrophist, MMMMM, Moonshtook, murian, Olethros, Ostinato, Pinhead666, raaf, randumbum, RENыч, ripper33, Rosen, Sangreal, satanist666, savatage13, senecazm, SilentNidhogg, thenecromancer, the_cleanser, Tino, toly1917, Torlof, VALERY, vasiljev_sergej, Vidder242, vov7609, vovenom, Vraithee, wreak, Абигор, Волос,
Jun 15 2019, 18:57:13 Yellow Eyes - Rare Field Ceiling (2019)


*Artist: Yellow Eyes
*Album: Rare Field Ceiling
*Year: 2019
*Genre: Black Metal
*Country: United States
*Format: mp3@CBR320kbps
*Size: 105MB

Tracklist:
1. Warmth Trance Reversal 08:06
2. No Dust 07:48
3. Light Delusion Curtain 07:10
4. Nutrient Painting 08:27
5. Rare Field Ceiling 07:48
6. Maritime Flare 06:31
******************************
Total playing time: 45:50



[more=Extended info]Gilead Media, June 28[/more]

[more=Technical info]
Input File: 02 - No Dust.mp3
Channels : 2
Sample Rate : 44100
Precision : 16-bit
Duration : 00:07:47.67 = 20624379 samples = 35075.5 CDDA sectors
File Size : 18.9M
Bit Rate : 324k
Sample Encoding: MPEG audio (layer I, II or III)
Comments :
Title=No Dust
Artist=Yellow Eyes
Album=Rare Field Ceiling
Tracknumber=2/6
Year=2019
Genre=Atmospheric Black Metal

[/more]

Register
(58) -=Hass=-, 1968_janeart, acerbus, ahp, andivi, arkaik, artscald, BandR75, dagger666, deadwater, Dmitry1977, Fess, fishish, Fryz, garmonbozia, gena, Groundzerocorpse1990, Guns, Indamage, Infidel, ingram, juand, judaz, kim666, Korpse, Krosis, krotovich, lestllk, LVXXVL, makarytch, metaljosue, MMMMM, nadin85, Namnlos, nemx, older68, Olethros, Ostinato, Panacea, peppuzzo, pfk505, Razorbladeswaltz, robertho777, Rosen, satanist666, Scuns, SilentNidhogg, smysl, stub888, toly1917, Tyrone, VALERY, vasiljev_sergej, Velmi, wreak, yuratroll, ZeroIISum, Абигор,
May 27 2019, 22:33:00 Esoctrilihum - The Telluric Ashes Of The Ö Vrth Immemorial Gods (2019)


*Artist: Esoctrilihum
*Album: The Telluric Ashes Of The Ö Vrth Immemorial Gods
*Year: 2019
*Genre: Black Metal
*Country: France
*Format: mp3@CBR320kbps
*Size: 173MB

Tracklist:
1. Kahlbas Mha 03:47
2. Kros Ö Vrth 06:29
3. Invisible Manifestation of Delirium God 07:39
4. Stone of Static Void 08:37
5. Thar-Voknargh 05:52
6. Listaël 07:37
7. Aborted Sun 05:58
8. Black Hole Entrance 06:21
9. Black Hole Exit 05:12
10. Inexorable Plague of Time 08:10
11. Torment of Death 09:27
******************************
Total playing time: 1:15:09



[more=Extended info]I, Voidhanger Records, May 24th.[/more]

[more=Technical info]
Input File: 04 Stone of Static Void.mp3
Channels : 2
Sample Rate : 44100
Precision : 16-bit
Duration : 00:08:37.12 = 22805080 samples = 38784.1 CDDA sectors
File Size : 20.9M
Bit Rate : 323k
Sample Encoding: MPEG audio (layer I, II or III)
Comments :
Title=Stone of Static Void
Artist=Esoctrilihum
Album=The Telluric Ashes of the Ö Vrth Immemorial Gods
Tracknumber=4
Year=2019
Genre=Black Metal

[/more]

Register
(60) -=Hass=-, 1968_janeart, acerbus, ahp, autumnwood, babanguida, Boozer, brth, burzum1983, Chasm, deadwater, dermarsoran, Dmitry1977, doomTemplar, Doooomed, Emhyr var Emreis, Evilded, Favnius, Fryz, garmonbozia, Hell_Is_Here, Infidel, isvili, judaz, kauyumari, kim666, LEGION69, lestllk, lucifix, marilin, metaljosue, mirotvorets, Mist13Signifier, MMMMM, nadin85, Namnlos, nsk2008, Occultas, Olethros, Ostinato, Precaria, raattent, Radek, ripper33, robertho777, Rosen, sacrut, satanist666, Scanneroid, sethurius, SilentNidhogg, snorr, stub888, toly1917, VALERY, vasiljev_sergej, wreak, yuratroll, Абигор, некрософ,
Apr 16 2019, 22:28:45 Armaggedon - The Satanic Kommandantur (2018)


*Artist: Armaggedon
*Album: The Satanic Kommandantur
*Year: 2018
*Genre: Black Metal
*Country: France
*Format: mp3@CBR320kbps
*Size: 82MB

Tracklist:
1. The Satanic Kommandantur 03:26
2. Frozen Spectre of Holocaust 04:00
3. Aaron Theory: Solution Injektion (Or the Mengele’s Experiement) 03:47
4. DeshumanisaZION 03:46
5. Bunker 666 (Schutzstaffel Crematory) 03:40
6. Kharon, Desecrating the Lambs over the Styx 03:52
7. Arbeit macht frei 04:20
8. Aktion T4 (IG Farben Sturm) 04:17
9. Black Sun Morbid Rites 03:37
10. Untitled 05:53
******************************
Total playing time: 40:38



[more=Extended info]Self-released.[/more]

[more=Technical info]
Input File: 05 Bunker 666 (Schutzstaffel Crematory).mp3
Channels : 2
Sample Rate : 44100
Precision : 16-bit
Duration : 00:03:39.75 = 9690799 samples = 16481 CDDA sectors
File Size : 8.79M
Bit Rate : 320k
Sample Encoding: MPEG audio (layer I, II or III)
Comments :
Title=Bunker 666 (Schutzstaffel Crematory)
Artist=Armaggedon
Album=The Satanic Kommandantur
Tracknumber=5
Year=2018
Genre=Metal & Hard Rock

[/more]

Register
(75) 1968_janeart, babanguida, BERZERK, biroutios, Boozer, bowelled, cancer1974, Corpse_Of_The_Christ, craP_cillA, DarkHorde, Darkthronefoad, death733, Emhyr var Emreis, Fess, Filosofem91, Fryz, garmonbozia, gena, goxther, Ildjarn, Kalnasra, Kazoth, kefka, kim666, KKK1488, Korpse, LastSupper, LEGION69, lestllk, lucifix, LVXXVL, MMMMM, morbidangelo, nsk2008, Occultas, Olethros, Ostinato, peppuzzo, Pinhead666, plagueofflies, Reverend, rimfrost, ripper33, Rodin, Rosen, Ruben, RUSP73, satanist666, sethurius, SilentNidhogg, skeletron215, Skog1349, stub888, Surt, Taragorm, targonium, thenecromancer, the_cleanser, Thunderbird, Tino, toly1917, Torlof, unas.slayer.of.gods, VALERY, varlam4, vasiljev_sergej, VECTOR, Vidder242, vovenom, warrr, wgs73, wolverine, wtk.412, ZambuL, Абигор,
Apr 5 2019, 20:44:46 Voqkrre - Wariwulf [demo] (2019)
ЦИТАТА(Alucarda @ Apr 5 2019, 22:35:12) *
На МА пишут что 2 стороны у кассеты, а тут всего 4 трека. Где истина?

У любой кассеты 2 стороны. В этом демо 4 трека.
(1) Абигор,
Mar 17 2019, 20:18:23 Vircolac - Masque (2019)


*Artist: Vircolac
*Album: Masque
*Year: 2019
*Genre: Black/Death Metal
*Country: Ireland
*Format: mp3@CBR320kbps
*Size: 85MB

Tracklist:
1. Titan 06:01
2. Tether & Wane 04:49
3. So I Hang from a Wretched Tree 06:37
4. Masque of Obsequious Venality 06:36
5. Snake Among Man 04:33
6. The Long Trail 05:31
7. End of a Beginning 02:24
******************************
Total playing time: 36:31



[more=Extended info]Dark Descent Records / Sepulchral Voice Records, March 8th.[/more]

[more=Technical info]
Input File: 02 - Tether & Wane.mp3
Channels : 2
Sample Rate : 44100
Precision : 16-bit
Duration : 00:04:48.59 = 12726951 samples = 21644.5 CDDA sectors
File Size : 11.7M
Bit Rate : 323k
Sample Encoding: MPEG audio (layer I, II or III)
Comments :
Title=Tether & Wane
Artist=Vircolac
Album=Masque
Tracknumber=2
Year=2019

[/more]

Register
(46) -=Hass=-, acerbus, AHBAnep, andreikun, artscald, Boozer, cryptal, DarkHorde, deftones, Dmitry1977, Evilded, Foneg, garmonbozia, Hell_Is_Here, helvetestoner, judaz, kim666, kvetak, marilin, metal73, metala, METALHUNTER, milosdjor, Mist13Signifier, nsk2008, Occultas, older68, Olethros, Ostinato, ripper33, robertho777, Rosen, satanist666, sethurius, Shadechaser, SilentNidhogg, Tino, tOmV, Torlof, VALERY, vasiljev_sergej, wreak, wtk.412, yuratroll, zhol, Абигор,
Mar 8 2019, 11:45:15 Voqkrre - Wariwulf [demo] (2019)


*Artist: Voqkrre
*Album: Wariwulf [demo]
*Year: 2019
*Genre: Black Metal
*Country: France
*Format: mp3@CBR320kbps
*Size: 70MB

Tracklist:
1. I 10:39
2. II 6:55
3. III 5:19
4. IV 7:33
******************************
Total playing time: 30:26



[more=Extended info]Final Agony Records,
limited to 100 copies.

Demo I from 2006[/more]

[more=Technical info]
Input File: 01. I.mp3
Channels : 2
Sample Rate : 48000
Precision : 16-bit
Duration : 00:10:38.67 = 30656016 samples ~ 47900 CDDA sectors
File Size : 25.5M
Bit Rate : 320k
Sample Encoding: MPEG audio (layer I, II or III)
Comments :
Title=I
Artist=Voqkrre
Album=Wariwulf
Tracknumber=1/4
Year=2019
Genre=Black Metal
Discnumber=1/1

[/more]

Register
(36) 1968_janeart, acerbus, ambre, andivi, Aphrax, artscald, Borderline1991, featb, Forrrrest, garmonbozia, igore2911, Ildjarn, kim666, lestllk, LordHaart, Moonshtook, murian, nemx, Olethros, Ostinato, Ramcheg1981, Rosen, RUSP73, satanist666, sethurius, SilentNidhogg, stub888, SyncestrA, targonium, thenecromancer, VALERY, varg-38ru, varlam4, vasiljev_sergej, wreak, Абигор,
Mar 1 2019, 19:54:23 Sinmara - Hvísl Stjarnanna (2019)


*Artist: Sinmara
*Album: Hvísl Stjarnanna
*Year: 2019
*Genre: Black Metal
*Country: Iceland
*Format: mp3@CBR320kbps
*Size: 98MB

Tracklist:
1. Apparitions 07:25
2. Mephitic Haze 07:31
3. The Arteries of Withered Earth 05:50
4. Crimson Stars 06:58
5. Úr kaleik martraða 07:23
6. Hvísl stjarnanna 07:14
******************************
Total playing time: 42:21



[more=Extended info]Ván Records,
March 8th.[/more]

[more=Technical info]
Input File: Sinmara - Hvísl Stjarnanna - 01 Apparitions.mp3
Channels : 2
Sample Rate : 44100
Precision : 16-bit
Duration : 00:07:24.58 = 19605802 samples = 33343.2 CDDA sectors
File Size : 17.8M
Bit Rate : 321k
Sample Encoding: MPEG audio (layer I, II or III)
Comments :
Title=Apparitions
Artist=Sinmara
Album=Hvísl Stjarnanna
Tracknumber=1
Year=2019

[/more]

Register
(102) 1968_janeart, abob, acerbus, artscald, as71, BERZERK, blackness, Bolitho, Boozer, burzum1983, cancer1974, Corpse_Of_The_Christ, cryptal, Daale, Daemoniacvs, dalek, Darkwood, deadterror, Dmitry1977, Doooomed, El_Chibo, Emhyr var Emreis, Evgundel, Evilded, Femto, Fess, Filosofem91, garmonbozia, gena, Hell_Is_Here, helvetestoner, Henmik, igorzz, Indamage, Infidel, Irimias, Isildur, jpvalentim, judaz, khestanow3001, kim666, Korpse, Krosis, LEGION69, lestllk, LordHaart, LordOvDarkness, lucifix, MercurioRojo, milosdjor, MMMMM, Moonshtook, Mortuusinfernus, murian, nadin85, Namnlos, Narasimha, nemx, nikolay81, Occultas, Olethros, Orgasmik, orgondnor, Ostinato, peppuzzo, perrin, Premature_Devotion, QuadenThyrane, Radek, Razorbladeswaltz, rimfrost, robertho777, Rosen, sabr, sandr666, satanist666, sethurius, SilentNidhogg, smysl, soulskinner681, stub888, Surt, svartrest, Taragorm, the_cleanser, toly1917, tOmV, Torlof, unas.slayer.of.gods, VALERY, Vardlokkur, varlam4, vasiljev_sergej, Vidder242, wreak, xska, yuratroll, zhol, ZloY_GreY, Абигор, Авел, Нигилист,
Feb 18 2019, 15:40:05 Полуврак - Тътени Огласят Тишината (2018)
Scans (18 MB):
Register
(1) Абигор,
Feb 15 2019, 18:43:24 Funereal Presence - Achatius (2019)
Мне альбом не зашёл, пустой. Самое запоминающееся тут - взгляды "лучи из глаз" на обложке.
(1) biroutios,
Feb 6 2019, 18:54:16 Blue Hummingbird On The Left - Atl Tlachinolli (2019)


*Artist: Blue Hummingbird On The Left
*Album: Atl Tlachinolli
*Year: 2019
*Genre: Black Metal
*Country: United States
*Format: mp3@CBR320kbps
*Size: 84MB

Tracklist:
1. Sun / War Club 04:42
2. Blood Flower 02:55
3. Precious Death 04:30
4. Hail Huitzilopochtli 03:51
5. Rain Campaign 05:45
6. Life Death Rebirth 04:41
7. Tenochtitlan 03:03
8. Storm 03:11
9. Southern Rules Supreme - Moon 03:46
******************************
Total playing time: 36:24



[more=Extended info]LP/CD by Nuclear War Now! / Iron Bonehead Productions,
Tape by Crepúsculo Negro.
February 8th.

Black Twilight Circle.[/more]

[more=Technical info]
Input File: 04 Hail Huitzilopochtli.mp3
Channels : 2
Sample Rate : 44100
Precision : 16-bit
Duration : 00:03:51.17 = 10194729 samples = 17338 CDDA sectors
File Size : 9.30M
Bit Rate : 322k
Sample Encoding: MPEG audio (layer I, II or III)
Comments :
Title=Hail Huitzilopochtli
Artist=Blue Hummingbird On The Left
Album=Atl Tlachinolli
Tracknumber=4
Genre=Black Metal

[/more]

Register
(68) acerbus, Alexis The Best, Amsterdam, Anhra Mainyu, artscald, BandR75, Boozer, cryptal, CryptOn, dagger666, Dima8806, Doooomed, dsp, El_Chibo, Emhyr var Emreis, fishish, FUDEDOR, Fulijine, garmonbozia, Hell_Is_Here, helvetestoner, Hummingbard, Indamage, judaz, kauyumari, Kazoth, Kehl05, kim666, LordHaart, lunaraurora, marilin, MetalAreola, milosdjor, Mist13Signifier, MMMMM, morbidangelo, nemx, nikolay81, Occultas, Olethros, Ostinato, pfk505, plugawy, Pollo, raattent, realnspace, ripper33, Rosen, RUSP73, satanist666, sethurius, SilentNidhogg, skeletron215, stub888, the_cleanser, THROWER666, Tino, toly1917, tOmV, VALERY, varlam4, vasiljev_sergej, Vidder242, Winter Funeral, WX419, xska, yuratroll, Абигор,
Feb 2 2019, 19:28:44 Abigor - Black Icarus/Metamorphosis [ep] (2018)
FLAC:
Register

А инструментальную версию альбома скоро оформлю.

UPDATE: ссылки на инструментальную версию добавлены в шапку Abigor - Höllenzwang (Chronicles Of Perdition) (2018)
(15) Alexis The Best, Beazth, Borderline1991, cavanaghbg, Daale, Emhyr var Emreis, MetalAreola, milosdjor, Occultas, Olethros, pvlad666, thenecromancer, varlam4, vosmidesijatye, Абигор,
Feb 2 2019, 18:01:23 Blackdeath - Phantasmhassgorie (2019)
Лично мне альбом очень понравился, один из лучших у Blackdeath. Исписались ли музыканты или просто слушатели уже "исслушались", вопрос риторический.
(5) Chasm, FullofHate, infiltrator, Sickrites, Абигор,
Feb 2 2019, 17:57:57 Abigor - Black Icarus/Metamorphosis [ep] (2018)


*Artist: Abigor
*Album: Black Icarus/Metamorphosis [ep]
*Year: 2018
*Genre: Black Metal
*Country: Austria
*Format: mp3@CBR320kbps
*Size: 15MB

Tracklist:
Side A
1. Black Icarus 4:30
Side B
2. Metamorphosis 2:07
******************************
Total playing time: 6:37

[more=Extended info]Avantgarde Music, April 2018.

10" vinyl, limited to 333 copies.

Exclusively for metalarea.[/more]

[more=Technical info]
Input File: 02 - Metamorphosis.mp3
Channels : 2
Sample Rate : 44100
Precision : 16-bit
Duration : 00:02:07.54 = 5624514 samples = 9565.5 CDDA sectors
File Size : 5.10M
Bit Rate : 320k
Sample Encoding: MPEG audio (layer I, II or III)
Comments :
Title=Metamorphosis
Artist=Abigor
Album=Black Icarus / Metamorphosis
Tracknumber=2
Genre=Black Metal

[/more]

Register
(49) acerbus, Angeldemon617, Aresson, artscald, babanguida, BERZERK, Boozer, Borderline1991, cancer1974, Coroner, Daale, Demonologist, FUDEDOR, Infidel, Kazoth, Krosis, lestllk, lucifix, Maximvs, metal73, milosdjor, NachtWulf, Narasimha, Nerevar, nikolay81, Occultas, Olethros, Ostinato, peppuzzo, Pinhead666, recber, Rosen, RUSP73, sacrut, SadistikSlayer, satanist666, SilentNidhogg, spiritualdecay666, stub888, SyncestrA, VALERY, varlam4, vasiljev_sergej, Vidder242, vov7609, Wail, wtk.412, yuratroll, Абигор,
Feb 1 2019, 19:50:39 Blackdeath - Phantasmhassgorie (2019)


*Artist: Blackdeath
*Album: Phantasmhassgorie
*Year: 2019
*Genre: Black Metal
*Country: Russian Federation
*Format: mp3@CBR320kbps
*Size: 108MB

Tracklist:
1. Hass aus dem Himmel 06:21
2. ...ist Hass 05:03
3. Phantasmhassgorie 06:02
4. Der Engelhass 05:58
5. Gott Ist Mein Hass 04:10
6. Hass in den Adern der Erde 08:13
7. Durch den Wirbel des Hasses 04:49
8. Der Hass der Toten 05:03
******************************
Total playing time: 45:39



[more=Extended info]Heidens Hart Records,
February 1st.[/more]

[more=Technical info]
Input File: Blackdeath - Phantasmhassgorie - 01 Hass aus dem Himmel.mp3
Channels : 2
Sample Rate : 44100
Precision : 16-bit
Duration : 00:06:22.32 = 16860444 samples = 28674.2 CDDA sectors
File Size : 15.5M
Bit Rate : 324k
Sample Encoding: MPEG audio (layer I, II or III)
Comments :
Title=Hass aus dem Himmel
Artist=Blackdeath
Album=Phantasmhassgorie
Tracknumber=1
Year=2019

[/more]

Register
(85) 1968_janeart, acerbus, AndreFrancis, Anhra Mainyu, Aresson, artscald, BERZERK, boby9052, Boozer, bowelled, cesar, Chasm, CultMetalSerge, Daale, DarkHorde, Demonologist, DMIYUR, dsp, dvlz, Emhyr var Emreis, Evilded, Fess, garmonbozia, gena, Guns, Hell_Is_Here, HMHamster, igore2911, Ildjarn, Indamage, Infidel, infiltrator, iteration666, judaz, kim666, Krosis, lestllk, Lord Noctua, LORDSEITAN, lucifix, Mist13Signifier, MMMMM, nadin85, Namnlos, oldvarg, Olethros, Ostinato, pfk505, Pinhead666, rammstein888, Razorbladeswaltz, Reverend, ripper33, Rosen, RUDACHUR, RUSP73, sacrut, Sangreal, satanist666, scorn33, senecazm, sethurius, Shadechaser, SilentNidhogg, skeletron215, SSWolf88, stub888, the_cleanser, Thunderbird, Tino, toly1917, Torlof, VALERY, varg-38ru, varlam4, vasiljev_sergej, VECTOR, vovenom, Wail, Winter Funeral, wtk.412, xska, yuratroll, Абигор, Келебрин,
Jan 25 2019, 17:02:04 Perverticon - Wounds Of Divinity (2019)
Крутецкий альбом! Запоминающиеся риффы, грамотные переходы. Приятно слушать!
Короче, налетаем, забираем!
(2) sacrut, Абигор,
Jan 25 2019, 06:43:59 Perverticon - Wounds Of Divinity (2019)


*Artist: Perverticon
*Album: Wounds Of Divinity
*Year: 2019
*Genre: Black Metal
*Country: Sweden
*Format: mp3@CBR320kbps
*Size: 113MB

Tracklist:
1. Thirsting for Rain 05:22
2. An Absence of All but Ashes 06:14
3. Cold Embrace of Sanctity 05:33
4. The Cease of Absolution 06:35
5. Divine Amusement for Pitiless God 04:35
6. The Apostate's Communion 04:46
7. Breath of Sulphur (Aura of Flies) 03:29
8. Extracorporeal Climax 04:46
9. Holy Gifts from Skinless Hands 07:06
******************************
Total playing time: 48:26



[more=Extended info]Iron Bonehead Productions,
January 25th.[/more]

[more=Technical info]
Input File: 01 - Thirsting for Ruin.mp3
Channels : 2
Sample Rate : 44100
Precision : 16-bit
Duration : 00:05:21.59 = 14181899 samples = 24118.9 CDDA sectors
File Size : 12.9M
Bit Rate : 320k
Sample Encoding: MPEG audio (layer I, II or III)
Comments :
Title=Thirsting for Ruin
Artist=Perverticon
Album=Wounds of Divinity
Tracknumber=1
Year=2019
Genre=Black Metal

[/more]

Register
(50) 1968_janeart, acerbus, Alexis The Best, andivi, Andr, brth, Corpse_Of_The_Christ, cryptal, CultMetalSerge, Daale, Dmitry1977, Emhyr var Emreis, garmonbozia, Hell_Is_Here, Ildjarn, Indamage, isvili, judaz, kim666, kipelov999, Korpse, marilin, MMMMM, Namnlos, Narasimha, nemx, older68, Olethros, Ostinato, peppuzzo, rammmirez, rimfrost, ripper33, Rosen, sacrut, satanist666, sethurius, SilentNidhogg, Sjelekval, spiritualdecay666, stub888, Tino, toly1917, VALERY, varlam4, vasiljev_sergej, vovenom, yuratroll, zorn666, Абигор,
Jan 23 2019, 17:49:16 Warloghe - Lucifer Ascends [ep] (2017)
Заменил ссылки в шапке на собственный CD-Rip.
По сравнению с винилом тут три бонус-трека (записаны живьём).
(4) andivi, garmonbozia, rimfrost, Абигор,

20 Pages V   1 2 3 > » 
- Lo-Fi Version Support form
Copyrights and abuse reports form
Time is now: 13th November 2019 - 05:22:41