Welcome Guest ( Log In | Register )

История благодарностей участнику RADeus ::: Спасибо сказали: 15306 раз(а)
Дата поста: В теме: За сообщение: Спасибо сказали:
Yesterday, 06:04:45 Black Funeral - Scourge Of Lamashtu (2020)


*Artist: Black Funeral
*Album: Scourge Of Lamashtu
*Year: 2020
*Genre: Black Metal
*Country: United States
*Format: mp3@CBR320kbps
*Size: 89MB

Tracklist:
1. Kassaptu Lemuttu 6:45
2. The Vampyric Rabisu at the Threshold 5:12
3. Nergal (Lord Who Prowls by Night) 4:25
4. Seven Udug-Hul 5:00
5. Scourge of Lamashtu (She Who Strangles the Lamb) 6:31
6. Gidim Hul (Bloodthirst of the Demonic Dead) 7:01
7. Pazuzu King of the Lilu-Demons 3:20
******************************
Total playing time: 38:14



[more=Extended info]Iron Bonehead Productions, July 3rd[/more]

[more=Technical info]
Input File: 02 The Vampyric Rabisu at the Threshold.mp3
Channels : 2
Sample Rate : 44100
Precision : 16-bit
Duration : 00:05:12.86 = 13797082 samples = 23464.4 CDDA sectors
File Size : 12.6M
Bit Rate : 323k
Sample Encoding: MPEG audio (layer I, II or III)
Comments :
Title=The Vampyric Rabisu at the Threshold
Artist=Black Funeral
Album=Scourge of Lamashtu
Tracknumber=2
Year=2020

[/more]

Register
(59) -=Hass=-, 1968_janeart, acerbus, ahp, Alexis The Best, alikkon, andivi, atavist, boby9052, Bzth, caro, DarkHorde, DeamonRed, dermarsoran, Dirt_ORFEY, Femto, garmonbozia, gena, grimoir, Gylve, Hell_Is_Here, igore2911, infiltrator, judaz, Kazoth, kim666, Krosis, Lamby90, legion01, Lord Noctua, Lukittaz, Luminous, metal73, multizwilling, nadin85, Necromag, nekro2007, Occultas, Olethros, Pinhead666, sacrut, Sathana, Slavas, smes, snorr, stub888, thenecromancer, Tino, toly1917, VALERY, varlam4, vasiljev_sergej, Velmi, Vidder242, Wail, wolverine, wtk.412, yuratroll, Абигор,
Jun 27 2020, 20:06:04 Bekhira - L' Elu Du Mal (2005)
Отличный релиз, отличное время. Такого сейчас не делают.
(1) Абигор,
Jun 7 2020, 14:55:51 Burshtyn - Чортория (2020)
Хеллоу! Неадекватный Радеус на связи. В той теме были перманентные сплошные холивары. Сначала она просто чистилась, затем раздавались баны, но всё это не давало результата. И продолжалось это не одну неделю или месяц. После очередного такого cpача я её просто закрыл. Мне без разницы, у кого где и от чего подгорает, а также нравятся ли кому-то мои действия или мнение.
Впрочем, прошло достаточно времени, и я открою тему. 5 лет уже прошло, во дела. Я надеюсь, что всем понятно, чего не нужно делать в этой теме. Покедова.
(1) BrutalHero,
Apr 24 2020, 20:42:18 Bâ'a - Deus Qui Non Mentitur (2020)
Сначала включили интро, потом что-то затрещало, и я решил пока не выключать, хотя звучало всё стандартно и пластмассово. Но вдруг послышался ваш чудо вокалист, которого тут обсуждают, откуда же он, из ласкового ли мая. И понял, что время выключить настало.
(2) ingram, Абигор,
Apr 18 2020, 16:40:17 Prevalent Resistance - Eternal Return (2008)
FLAC + scans:
Register
(1) Абигор,
Apr 11 2020, 18:24:35 Malus Votum - Tradition (2020)


*Artist: Malus Votum
*Album: Tradition
*Year: 2020
*Genre: Black Metal
*Country: United States
*Format: mp3@CBR320kbps
*Size: 77MB

Tracklist:
1. The Feast on the Mountain 09:25
2. Prince of the Culling Tide 10:14
3. Ritual of Cessation of Forms 05:58
4. Wolf Age 07:31
******************************
Total playing time: 33:08



[more=Extended info]Не транскод (купил на бандкампе).

Достойный альбом.[/more]

[more=Technical info]
Input File: 01 The Feast on the Mountain.mp3
Channels : 2
Sample Rate : 44100
Precision : 16-bit
Duration : 00:09:25.50 = 24938682 samples = 42412.7 CDDA sectors
File Size : 22.8M
Bit Rate : 322k
Sample Encoding: MPEG audio (layer I, II or III)
Comments :
Title=The Feast on the Mountain
Artist=Malus Votum
Album=Tradition
Tracknumber=1
Year=2020

[/more]

Register
(40) 1968_janeart, ahp, alikkon, Anhra Mainyu, atavist, Boozer, CultMetalSerge, Daale, Doooomed, dsp, garmonbozia, Hell_Is_Here, Ildjarn, infiltrator, kim666, lestllk, maxapero, MMMMM, morbidangelo, multizwilling, nadin85, Occultas, Olethros, raaf, raattent, randumbum, rimfrost, robertho777, sacrut, Sangreal, satanist666, SilentNidhogg, stub888, Surt, Torlof, VALERY, varlam4, vasiljev_sergej, Velmi, Абигор,
Apr 11 2020, 18:09:02 Múspellzheimr - Múspellzheimr (2020)


*Artist: Múspellzheimr
*Album: Múspellzheimr
*Year: 2020
*Genre: Black Metal
*Country: Denmark
*Format: mp3@CBR320kbps
*Size: 99MB

Tracklist:
1. Søkkdalir 08:08
2. Selvæder 10:29
3. Drømme Om Sten, Om Storm, Om Ild 07:08
4. Gabet Og Tordenklang 08:16
5. Draugen 06:00
******************************
Total playing time: 40:01



[more=Extended info]Новьё[/more]

[more=Technical info]
Input File: 01 Søkkdalir.mp3
Channels : 2
Sample Rate : 44100
Precision : 16-bit
Duration : 00:08:08.13 = 21526313 samples = 36609.4 CDDA sectors
File Size : 19.9M
Bit Rate : 326k
Sample Encoding: MPEG audio (layer I, II or III)
Comments :
Title=Søkkdalir
Artist=Múspellzheimr
Album=Múspellzheimr
Tracknumber=1
Year=2020

[/more]

Register
(52) 666days, acerbus, alikkon, ambre, Andr, atavist, Boozer, Borderline1991, Bzth, Chasm, CultMetalSerge, Dmitry1977, dsp, Evilded, Fryz, Hefir, Hell_Is_Here, helvetestoner, HMHamster, Ildjarn, infiltrator, judaz, kim666, lestllk, maxapero, morbidangelo, multizwilling, murian, nikolay81, nsk2008, Olethros, raattent, rammmirez, randumbum, rauhnacht, robertho777, sabr, sandr666, satanist666, SilentNidhogg, Sjelekval, stub888, Surt, Tankard, Vaesel, VALERY, vasiljev_sergej, Woosad, yuratroll, zhol, Абигор, Вальфар,
Apr 11 2020, 17:45:57 Новости Black-направления
ЦИТАТА(acerbus @ Apr 11 2020, 03:40:55) *
Múspellzheimr разродился:

Отлично. Скоро выложу.
(2) infiltrator, Velmi,
Mar 31 2020, 17:03:23 Anguished - Cold (2010)
FLAC:
Register
(4) acerbus, Alexis The Best, Veggr, Абигор,
Mar 27 2020, 23:08:12 Arcada - Projections (2020)
Вроде и ниче, но слишком мелодично и нигде на засело.
(2) garmonbozia, infiltrator,
Mar 27 2020, 22:55:02 Korgonthurus - Kuolleestasyntynyt (2020)
Включил
Завяли уши
Выключил скорее
(1) Абигор,
Mar 20 2020, 15:25:51 Grift - Arvet (2017)
FLAC:
Register
(1) Andr,
Mar 10 2020, 18:11:34 Warloghe - Lucifer Ascends [ep] (2017)
ЦИТАТА(Farbauti @ Feb 20 2020, 17:35:05) *
залей в lossless CD-Rip, плиз

CD-Rip FLAC (5 tracks):
Register
(2) Farbauti, Skog1349,
Feb 4 2020, 18:59:50 Circle Of Ouroborus - Eleven Fingers (2011)
FLAC + scans:
Register
(1) garmonbozia,
Feb 1 2020, 19:54:59 Darvulia - Mysticisme Macabre (2010)
FLAC:
Register
(1) thenecromancer,
Feb 1 2020, 19:32:08 Lurker Of Chalice - Tellurian Slaked Furnace [compilation] (2020)


*Artist: Lurker Of Chalice
*Album: Tellurian Slaked Furnace [compilation]
*Year: 2020
*Genre: Dark Ambient/Deathrock/Post-Punk
*Country: United States
*Format: mp3@CBR320kbps
*Size: 153MB

Tracklist:
1. I 04:08
2. II 06:25
3. III 06:00
4. IV 06:21
5. V 02:44
6. VI 04:10
7. VII 04:12
8. VIII 08:00
9. IX 05:34
10. X 05:32
11. XI 09:39
12. XII 06:10
******************************
Total playing time: 1:08:55



[more=Extended info]Nuclear War Now! Productions, January 21st.[/more]

[more=Technical info]
Input File: 02 II.mp3
Channels : 2
Sample Rate : 44100
Precision : 16-bit
Duration : 00:06:25.10 = 16982690 samples = 28882.1 CDDA sectors
File Size : 15.5M
Bit Rate : 322k
Sample Encoding: MPEG audio (layer I, II or III)
Comments :
Title=02 II
Artist=Lurker of Chalice
Album=Tellurian Slaked Furnace
Tracknumber=2
Year=2020

[/more]

Register


Register
(35) abob, acerbus, Arkwulf, as71, canadaspaceman, Daale, Demonologist, Dmitry1977, eternald, FUDEDOR, garmonbozia, gena, HA7tur, Hell_Is_Here, HviteGuden, Infidel, infiltrator, Irimias, Kazoth, marilin, metala, nemx, nikolay81, Olethros, Ostinato, pahail, Premature_Devotion, SadistikSlayer, stone88, supremo, visionare, xander_spades, xska, zavhoz, Абигор,
Jan 31 2020, 21:07:11 Dom Dracul - Attack On The Crucified (2005)
FLAC:
Register
(1) thenecromancer,
Jan 31 2020, 17:20:47 Bölzer - Hero (2016)
FLAC:
Register
Jan 31 2020, 16:47:19 Saturnian Mist - Gnostikoi Ha-Shaitan (2011)
FLAC:
Register
(1) thenecromancer,
Jan 31 2020, 16:45:32 Darvulia - L'Alliance Des Venins (2006)
FLAC:
Register
(1) thenecromancer,
Jan 26 2020, 18:35:27 Mysticum - Planet Satan (2014)
FLAC + scans:
Register
(4) FullofHate, milosdjor, thenecromancer, Абигор,
Jan 26 2020, 18:01:17 Departure Chandelier - Antichrist Rise To Power (2019)
FLAC:
Register
(2) Moonshtook, Абигор,
Jan 26 2020, 17:47:12 Reverence - The Asthenic Ascension (2012)
FLAC:
Register
(1) Абигор,
Jan 26 2020, 17:30:26 Medico Peste - א: Tremendum Et Fascinatio (2012)
FLAC:
Register
(2) acerbus, Alexis The Best,
Jan 26 2020, 17:10:35 Thou Art Lord - The Regal Pulse Of Lucifer (2013)
FLAC:
Register
(2) FlammenTod666, thenecromancer,

22 Pages V   1 2 3 > » 
- Lo-Fi Version Support form
Copyrights and abuse reports form
Time is now: 4th July 2020 - 22:10:18