Welcome Guest ( Log In | Register )

История благодарностей участнику RADeus ::: Спасибо сказали: 15710 раз(а)
Дата поста: В теме: За сообщение: Спасибо сказали:
Nov 27 2020, 06:26:38 Ondskapt - Grimoire Ordo Devus (2020)
Купил сейчас альбом на бандкампе, добавил FLAC.
А сам альбом норм, хорошо зашёл вчера.
(8) Chasm, Daale, Daemoniacvs, Dmitry1977, Infidel, infiltrator, kipelov999, milosdjor,
Nov 26 2020, 14:57:22 Funeral Winds - Essence (2021)


*Artist: Funeral Winds
*Album: Essence
*Year: 2021
*Genre: Black Metal
*Country: Netherlands
*Format: mp3@CBR320kbps
*Size: 80MB

Tracklist:
1. Towards the Glorious Triumph of Satans Empire 04:19
2. Of Black Tongues and Sulphuric Breath 03:51
3. The Liberating Rays of Death 03:37
4. The Heart of Darkness 03:25
5. Rise of the Dark Imperium 02:42
6. Essence 04:51
7. The Bowls of Wrath and Ancient Hate 03:59
8. The Worm God 02:38
9. Aeon of Darkness 05:22
******************************
Total playing time: 34:44



[more=Extended info]Avantgarde Music, December 11 2020 (Digital), January 8th 2021 (Official release date, CD, LP)[/more]

[more=Technical info]
Input File: 07 The Bowls of Wrath and Ancient Hate.mp3
Channels : 2
Sample Rate : 44100
Precision : 16-bit
Duration : 00:03:59.58 = 10565566 samples = 17968.6 CDDA sectors
File Size : 9.59M
Bit Rate : 320k
Sample Encoding: MPEG audio (layer I, II or III)
Comments :
Title=The Bowls Of Wrath And Ancient Hate
Artist=Funeral Winds
Album=Essence
Tracknumber=7
Year=2020
Genre=Black Metal

[/more]

Register
(69) 1968_janeart, acerbus, Ainar, Alexis The Best, alikkon, Anhra Mainyu, Bzth, canadaspaceman, Chasm, craP_cillA, Daale, desekrator, Dirt_ORFEY, El_Chibo, Evilded, Firefrost, garmonbozia, gena, IncendiaryMight, Infidel, infiltrator, ITNOR, judaz, kim666, kipelov999, kkrrizzzzz, Legacy100, Lord Noctua, Lucju, mardak666, Marek, milosdjor, MMMMM, Moonshtook, multizwilling, nadin85, Narasimha, NathanSS, nsk2008, Olethros, Premature_Devotion, randumbum, rimfrost, ripper33, robertho777, Rosen, RUSP73, sacrut, SaintVitus, satanist666, SilentNidhogg, skeletron215, smes, SSWolf88, StabWound, stub888, supremo, thenecromancer, Tino, toly1917, troll_swamp, VALERY, varlam4, vasiljev_sergej, Vidder242, wolverine, wreak, zhol, Абигор,
Nov 26 2020, 13:48:16 Ondskapt - Grimoire Ordo Devus (2020)


*Artist: Ondskapt
*Album: Grimoire Ordo Devus
*Year: 2020
*Genre: Black Metal
*Country: Sweden
*Format: mp3@CBR320kbps
*Size: 135MB

Tracklist:
1. Prelude 02:25
2. Semita Sinistram 06:29
3. Ascension 06:19
4. Devotum in Legione 05:23
5. Animam Malum Daemonium 08:01
6. Opposites 05:20
7. Paragon Belial 05:01
8. Possession 07:24
9. Old and Hideous 04:41
10. Excision 07:18
******************************
Total playing time: 58:21



[more=Extended info]Osmose Productions, November 27th[/more]

[more=Technical info]
Input File: 02 - Semita Sinistram.mp3
Channels : 2
Sample Rate : 44100
Precision : 16-bit
Duration : 00:06:29.00 = 17154900 samples = 29175 CDDA sectors
File Size : 15.7M
Bit Rate : 324k
Sample Encoding: MPEG audio (layer I, II or III)
Comments :
Title=Semita Sinistram
Artist=Ondskapt
Album=Grimoire Ordo Devus
Tracknumber=1
Year=2020-27-11
Discnumber=1

[/more]

Register


Register
(71) 1968_janeart, acerbus, aedicksucker, alikkon, andivi, BERZERK, BlaspherionFLUL, Chasm, Clitoriduss, Daale, Daemoniacvs, DarkHorde, dermarsoran, El_Chibo, ENDSMOUTH, Femto, Firefrost, garmonbozia, gena, Golodomor, Infidel, infiltrator, Irimias, judaz, Kazoth, kim666, kipelov999, Lamby90, Lord Noctua, Marek, milosdjor, Moonshtook, MortSathynr, Mortuusinfernus, multizwilling, nadin85, Namnlos, nemx, nikolay81, NOMIDIMON, Nostra, noxspiritus, nsk2008, older68, Olethros, Phlebotomized, ripper33, Rosen, sacrut, satanist666, Slavas, smes, SS2998, SSWolf88, Strid, Strygaldwir, supremo, thenecromancer, Tino, troll_swamp, varlam4, vasiljev_sergej, Vitald, vov7609, wolverine, wtk.412, xska, yuratroll, zhol, Абигор, Варяг,
Aug 6 2020, 16:51:38 Пламень - Анабасис Духа (Anabasis Ov Spirit) (2020)


*Artist: Пламень
*Album: Анабасис Духа (Anabasis Ov Spirit)
*Year: 2020
*Genre: Black Metal
*Country: Russian Federation
*Format: mp3@CBR320kbps
*Size: 80MB

Tracklist:
1. Север (Воззвание) 05:18
2. Ночь (Откровение) 04:22
3. Мистерия (Постижение) 05:25
4. Исход (Прощание) 04:11
5. Пламя (Квинтэссенция) 05:11
6. Жертва (Отречение) 05:43
7. Цикл (Преодоление) 05:01
******************************
Total playing time: 35:11




[more=Extended info]Thou Shalt Kill! Records, July 11th[/more]

[more=Technical info]
Input File: 02. Ночь (Откровение).mp3
Channels : 2
Sample Rate : 48000
Precision : 16-bit
Duration : 00:04:22.92 = 12620304 samples ~ 19719.2 CDDA sectors
File Size : 10.7M
Bit Rate : 326k
Sample Encoding: MPEG audio (layer I, II or III)
Comments :
Title=Ночь (Откровение)
Artist=Пламень
Album=Анабасис Духа
Tracknumber=2
Year=2020
Genre=Black Metal

[/more]

Register
(55) 1968_janeart, acerbus, Ainar, alikkon, Aresson, Bloodn Lord, Boozer, Bregon, caro, cesar, Daale, DarkHorde, deadterror, dsp, Fryz, Ildjarn, infiltrator, judaz, kim666, Legacy100, milosdjor, Moonshtook, multizwilling, nadin85, Olethros, Qliphoth, rabindranad, randumbum, Requiescat, ripper33, robertho777, Rosen, SaintVitus, sandr666, SAPOGi, sethurius, Shadechaser, SilentNidhogg, Surt, tamerz, Thunderbird, toly1917, VALERY, varlam4, vasiljev_sergej, Velmi, VerminGhost, Wail, wreak, Xor, xska, ZambuL, Абигор, Авел, Сварог Барг,
Jul 17 2020, 13:41:50 Vothana - Biệt Động Quân/Commando (2020)


*Artist: Vothana
*Album: Biệt Động Quân/Commando
*Year: 2020
*Genre: Black Metal
*Country: Vietnam | United States
*Format: mp3@CBR320kbps
*Size: 177MB

Tracklist:
1. Trong Sức Nóng Của Trận Chiến / In the Heat of Battle 13:07
2. Con Dao Cắt Cổ Họng Của Bạn / The Knife that Slits Your Throat 9:46
3. Toàn Quyền Tối Cao / Total Supremacy 12:33
4. Khoảng Trống / Void 9:35
5. 30 Năm Chiến Tranh / 30 Year War 10:33
6. Bên Cạnh Hoặc Dưới Chân Chúng Ta / At Our Side or Beneath Our Feet 9:30
7. Bạo Chúa Đến / Black Tyrant 12:56
******************************
Total playing time: 1:18:00

[more=Extended info]Darker than Black Records, July 1st

Без превью, пока не было в сети.[/more]

[more=Technical info]
Input File: 04. Khoảng Trống , Void.mp3
Channels : 2
Sample Rate : 44100
Precision : 16-bit
Duration : 00:09:35.23 = 25367599 samples = 43142.2 CDDA sectors
File Size : 23.1M
Bit Rate : 321k
Sample Encoding: MPEG audio (layer I, II or III)
Comments :
Title=Khoảng Trống / Void
Artist=Vothana
Album=Biệt động quân / Commando
Tracknumber=4
Year=2020
Genre=Black Metal

[/more]

Register
(57) 1968_janeart, acerbus, ahp, Ainar, atavist, Borderline1991, ChaosArcana, craP_cillA, Daale, dsp, El_Chibo, Fess, FUDEDOR, fuoco, garmonbozia, gena, grimoir, guy_anachronism, HMHamster, infiltrator, judaz, kim666, Lamby90, lestllk, lordbathor, Lukittaz, mizantrophist, mondblut, Moonshtook, multizwilling, murian, Olethros, pahail, Pinhead666, randumbum, Reverend, robertho777, Rosen, satanist666, sethurius, SilentNidhogg, thenecromancer, the_cleanser, toly1917, VALERY, varlam4, vasiljev_sergej, Vidder242, Vraithee, Wail, wreak, Xor, yuratroll, Zaephar, Абигор, Авел, Сварог Барг,
Jul 3 2020, 06:04:45 Black Funeral - Scourge Of Lamashtu (2020)


*Artist: Black Funeral
*Album: Scourge Of Lamashtu
*Year: 2020
*Genre: Black Metal
*Country: United States
*Format: mp3@CBR320kbps
*Size: 89MB

Tracklist:
1. Kassaptu Lemuttu 6:45
2. The Vampyric Rabisu at the Threshold 5:12
3. Nergal (Lord Who Prowls by Night) 4:25
4. Seven Udug-Hul 5:00
5. Scourge of Lamashtu (She Who Strangles the Lamb) 6:31
6. Gidim Hul (Bloodthirst of the Demonic Dead) 7:01
7. Pazuzu King of the Lilu-Demons 3:20
******************************
Total playing time: 38:14



[more=Extended info]Iron Bonehead Productions, July 3rd[/more]

[more=Technical info]
Input File: 02 The Vampyric Rabisu at the Threshold.mp3
Channels : 2
Sample Rate : 44100
Precision : 16-bit
Duration : 00:05:12.86 = 13797082 samples = 23464.4 CDDA sectors
File Size : 12.6M
Bit Rate : 323k
Sample Encoding: MPEG audio (layer I, II or III)
Comments :
Title=The Vampyric Rabisu at the Threshold
Artist=Black Funeral
Album=Scourge of Lamashtu
Tracknumber=2
Year=2020

[/more]

Register
(85) -=Hass=-, 1968_janeart, acerbus, ahp, Alexis The Best, alikkon, andivi, Aresson, atavist, boby9052, Bzth, caro, cesar, Chasm, Daale, DarkHorde, DeamonRed, dermarsoran, Dirt_ORFEY, Femto, garmonbozia, gena, grimoir, Gylve, Hell_Is_Here, igore2911, infiltrator, judaz, Kazoth, kim666, kimkayoung, Korpse, kranger, Krosis, Lamby90, legion01, Lord Noctua, Lukittaz, Luminous, mardak666, metal73, metaljosue, MMMMM, multizwilling, nadin85, Narasimha, Necromag, nekro2007, Occultas, oldvarg, OldY, Olethros, Orgasmik, pahail, Pinhead666, randumbum, robertho777, Rosen, sacrut, satanist666, Sathana, Scuns, sethurius, SilentNidhogg, Slavas, smes, snorr, stub888, supremo, Taragorm, thenecromancer, Tino, toly1917, VALERY, varlam4, vasiljev_sergej, Velmi, Vidder242, Wail, wolverine, wreak, wtk.412, yuratroll, Абигор, Герб,
Jun 27 2020, 20:06:04 Bekhira - L' Elu Du Mal (2005)
Отличный релиз, отличное время. Такого сейчас не делают.
(1) Абигор,
Jun 7 2020, 14:55:51 Burshtyn - Чортория (2020)
Хеллоу! Неадекватный Радеус на связи. В той теме были перманентные сплошные холивары. Сначала она просто чистилась, затем раздавались баны, но всё это не давало результата. И продолжалось это не одну неделю или месяц. После очередного такого cpача я её просто закрыл. Мне без разницы, у кого где и от чего подгорает, а также нравятся ли кому-то мои действия или мнение.
Впрочем, прошло достаточно времени, и я открою тему. 5 лет уже прошло, во дела. Я надеюсь, что всем понятно, чего не нужно делать в этой теме. Покедова.
(1) BrutalHero,
Apr 24 2020, 20:42:18 Bâ'a - Deus Qui Non Mentitur (2020)
Сначала включили интро, потом что-то затрещало, и я решил пока не выключать, хотя звучало всё стандартно и пластмассово. Но вдруг послышался ваш чудо вокалист, которого тут обсуждают, откуда же он, из ласкового ли мая. И понял, что время выключить настало.
(2) ingram, Абигор,
Apr 18 2020, 16:40:17 Prevalent Resistance - Eternal Return (2008)
FLAC + scans:
Register
(2) hellbibber, Абигор,
Apr 11 2020, 18:24:35 Malus Votum - Tradition (2020)


*Artist: Malus Votum
*Album: Tradition
*Year: 2020
*Genre: Black Metal
*Country: United States
*Format: mp3@CBR320kbps
*Size: 77MB

Tracklist:
1. The Feast on the Mountain 09:25
2. Prince of the Culling Tide 10:14
3. Ritual of Cessation of Forms 05:58
4. Wolf Age 07:31
******************************
Total playing time: 33:08



[more=Extended info]Не транскод (купил на бандкампе).

Достойный альбом.[/more]

[more=Technical info]
Input File: 01 The Feast on the Mountain.mp3
Channels : 2
Sample Rate : 44100
Precision : 16-bit
Duration : 00:09:25.50 = 24938682 samples = 42412.7 CDDA sectors
File Size : 22.8M
Bit Rate : 322k
Sample Encoding: MPEG audio (layer I, II or III)
Comments :
Title=The Feast on the Mountain
Artist=Malus Votum
Album=Tradition
Tracknumber=1
Year=2020

[/more]

Register
(40) 1968_janeart, ahp, alikkon, Anhra Mainyu, atavist, Boozer, CultMetalSerge, Daale, Doooomed, dsp, garmonbozia, Hell_Is_Here, Ildjarn, infiltrator, kim666, lestllk, maxapero, MMMMM, morbidangelo, multizwilling, nadin85, Occultas, Olethros, raaf, raattent, randumbum, rimfrost, robertho777, sacrut, Sangreal, satanist666, SilentNidhogg, stub888, Surt, Torlof, VALERY, varlam4, vasiljev_sergej, Velmi, Абигор,
Apr 11 2020, 18:09:02 Múspellzheimr - Múspellzheimr (2020)


*Artist: Múspellzheimr
*Album: Múspellzheimr
*Year: 2020
*Genre: Black Metal
*Country: Denmark
*Format: mp3@CBR320kbps
*Size: 99MB

Tracklist:
1. Søkkdalir 08:08
2. Selvæder 10:29
3. Drømme Om Sten, Om Storm, Om Ild 07:08
4. Gabet Og Tordenklang 08:16
5. Draugen 06:00
******************************
Total playing time: 40:01



[more=Extended info]Новьё[/more]

[more=Technical info]
Input File: 01 Søkkdalir.mp3
Channels : 2
Sample Rate : 44100
Precision : 16-bit
Duration : 00:08:08.13 = 21526313 samples = 36609.4 CDDA sectors
File Size : 19.9M
Bit Rate : 326k
Sample Encoding: MPEG audio (layer I, II or III)
Comments :
Title=Søkkdalir
Artist=Múspellzheimr
Album=Múspellzheimr
Tracknumber=1
Year=2020

[/more]

Register
(59) 1968_janeart, 666days, acerbus, alikkon, ambre, Andr, atavist, Boozer, Borderline1991, Bzth, Chasm, CultMetalSerge, Dmitry1977, Doooomed, dsp, Evilded, Froze, Fryz, Hefir, hellbibber, Hell_Is_Here, helvetestoner, HMHamster, Ildjarn, infiltrator, judaz, kim666, lestllk, maxapero, metaljosue, morbidangelo, multizwilling, murian, nadin85, nikolay81, nsk2008, Olethros, raattent, rammmirez, randumbum, rauhnacht, robertho777, sabr, sandr666, satanist666, SilentNidhogg, Sjelekval, stub888, Surt, Tankard, Vaesel, VALERY, varlam4, vasiljev_sergej, Woosad, yuratroll, zhol, Абигор, Вальфар,
Apr 11 2020, 17:45:57 Новости Black-направления
ЦИТАТА(acerbus @ Apr 11 2020, 03:40:55) *
Múspellzheimr разродился:

Отлично. Скоро выложу.
(2) infiltrator, Velmi,
Mar 31 2020, 17:03:23 Anguished - Cold (2010)
FLAC:
Register
(4) acerbus, Alexis The Best, Veggr, Абигор,
Mar 27 2020, 23:08:12 Arcada - Projections (2020)
Вроде и ниче, но слишком мелодично и нигде на засело.
(2) garmonbozia, infiltrator,
Mar 27 2020, 22:55:02 Korgonthurus - Kuolleestasyntynyt (2020)
Включил
Завяли уши
Выключил скорее
(1) Абигор,
Mar 20 2020, 15:25:51 Grift - Arvet (2017)
FLAC:
Register
(5) Andr, Mencae77, NecroDeath, tabaka_S, Абигор,
Mar 10 2020, 18:11:34 Warloghe - Lucifer Ascends [ep] (2017)
ЦИТАТА(Farbauti @ Feb 20 2020, 17:35:05) *
залей в lossless CD-Rip, плиз

CD-Rip FLAC (5 tracks):
Register
(2) Farbauti, Skog1349,
Feb 4 2020, 18:59:50 Circle Of Ouroborus - Eleven Fingers (2011)
FLAC + scans:
Register
(1) garmonbozia,
Feb 1 2020, 19:54:59 Darvulia - Mysticisme Macabre (2010)
FLAC:
Register
(2) metalfanatic666, thenecromancer,
Feb 1 2020, 19:32:08 Lurker Of Chalice - Tellurian Slaked Furnace [compilation] (2020)


*Artist: Lurker Of Chalice
*Album: Tellurian Slaked Furnace [compilation]
*Year: 2020
*Genre: Dark Ambient/Deathrock/Post-Punk
*Country: United States
*Format: mp3@CBR320kbps
*Size: 153MB

Tracklist:
1. I 04:08
2. II 06:25
3. III 06:00
4. IV 06:21
5. V 02:44
6. VI 04:10
7. VII 04:12
8. VIII 08:00
9. IX 05:34
10. X 05:32
11. XI 09:39
12. XII 06:10
******************************
Total playing time: 1:08:55



[more=Extended info]Nuclear War Now! Productions, January 21st.[/more]

[more=Technical info]
Input File: 02 II.mp3
Channels : 2
Sample Rate : 44100
Precision : 16-bit
Duration : 00:06:25.10 = 16982690 samples = 28882.1 CDDA sectors
File Size : 15.5M
Bit Rate : 322k
Sample Encoding: MPEG audio (layer I, II or III)
Comments :
Title=02 II
Artist=Lurker of Chalice
Album=Tellurian Slaked Furnace
Tracknumber=2
Year=2020

[/more]

Register


Register
(39) abob, acerbus, Arkwulf, as71, canadaspaceman, Daale, Demonologist, Dmitry1977, eternald, Femto, FUDEDOR, garmonbozia, gena, HA7tur, Hell_Is_Here, HviteGuden, Impaled, Infidel, infiltrator, Irimias, Kazoth, marilin, metala, metaljosue, nemx, nikolay81, Olethros, Ostinato, pahail, Premature_Devotion, SadistikSlayer, stone88, supremo, trabantfan, visionare, xander_spades, xska, zavhoz, Абигор,
Jan 31 2020, 21:07:11 Dom Dracul - Attack On The Crucified (2005)
FLAC:
Register
(1) thenecromancer,
Jan 31 2020, 17:20:47 Bölzer - Hero (2016)
FLAC:
Register
Jan 31 2020, 16:47:19 Saturnian Mist - Gnostikoi Ha-Shaitan (2011)
FLAC:
Register
(1) thenecromancer,
Jan 31 2020, 16:45:32 Darvulia - L'Alliance Des Venins (2006)
FLAC:
Register
(2) metalfanatic666, thenecromancer,

22 Pages V   1 2 3 > » 
- Lo-Fi Version Support form
Copyrights and abuse reports form
Time is now: 5th December 2020 - 09:23:38