Welcome Guest ( Log In | Register )

История благодарностей участнику RADeus ::: Спасибо сказали: 14863 раз(а)
Дата поста: В теме: За сообщение: Спасибо сказали:
Jan 11 2020, 12:36:46 [FILLED] Gratzug - Zeitgeist (2019) (2) Borderline1991, craP_cillA,
Jan 11 2020, 12:35:40 Gratzug - Zeitgeist (2019)


*Artist: Gratzug
*Album: Zeitgeist
*Year: 2019
*Genre: Black Metal
*Country: Germany
*Format: mp3@CBR320kbps
*Size: 101MB

Tracklist:
1. Hinein 2:46
2. Zeitgeist 5:04
3. Fern dem Licht 4:47
4. Verlust der Vernunft 6:03
5. Social Decay 6:59
6. Wahn & Sinn 5:22
7. Der weiteste Steig 7:30
8. Der letzte Schritt 6:34
******************************
Total playing time: 45:05



[more=Extended info]Hammerbund, September 2nd.
Limited to 300 copies.

Последняя песенка особенно хороша.[/more]

[more=Technical info]
Input File: 02 Zeitgeist.mp3
Channels : 2
Sample Rate : 44100
Precision : 16-bit
Duration : 00:05:04.14 = 13412442 samples = 22810.3 CDDA sectors
File Size : 12.9M
Bit Rate : 340k
Sample Encoding: MPEG audio (layer I, II or III)
Comments :
Title=Zeitgeist
Artist=Gratzug
Album=Zeitgeist
Tracknumber=2/8
Year=2019
Genre=Black Metal

[/more]

Register
(65) -=Hass=-, 1968_janeart, acerbus, andivi, ASkyThatBurns, atavist, caro, comradEnemy, Constantinus I, craP_cillA, demonosz, DevilSign, Druidir, El_Chibo, Fess, Frozenkult, Fryz, garmonbozia, gena, GorAtheist, helvetesrike, Ildjarn, Indamage, infiltrator, Kazoth, kim666, Korpse, krotovich, Lamby90, LEGION69, Morgoth, multizwilling, murian, norther1998, nsk2008, oldvarg, Olethros, orgondnor, pfk505, Raw1488, rimfrost, ripper33, robertho777, Rosen, russ777, SaintVitus, sandr666, Sathana, Sergei78, SilentNidhogg, smysl, sok, stub888, tim47, VALERY, varlam4, vasiljev_sergej, Velmi, vovenom, wreak, xska, zargonath, Авел, дивин, некрософ,
Jan 11 2020, 11:20:07 Domini Inferi - Devil Cult (2006)
FLAC (319 MB):
Register
(1) morbidangelo,
Jan 11 2020, 10:25:23 LVTHN - Eradication Of Nescience (2016)
FLAC (350 MB):
Register
(1) Cruor,
Jan 10 2020, 19:35:18 Proclamation - Execration Of Cruel Bestiality (2009)
FLAC + scans (202 MB):
Register
(1) wolverine,
Jan 10 2020, 19:19:34 Proclamation - The Advent Of The Black Omen (2006)
FLAC + scans (217 MB):
Register
(1) wolverine,
Jan 7 2020, 07:54:10 The Ruins Of Beverast - Blood Vaults - The Blazing Gospel Of Heinrich Kramer (Cryptae Sanguinum – Evangelium Flagrans Henrici Institoris) (2013)
FLAC (563 MB):
Register
(1) Leshiy666,
Jan 6 2020, 14:04:30 Полуврак - Тътени Огласят Тишината (2018)
FLAC + scans (306 MB)
Register
(2) -=Hass=-, Velmi,
Jan 6 2020, 11:36:42 Proclamation - Nether Tombs Of Abaddon (2012)
FLAC (220 MB):
Register
(3) -=Hass=-, babanguida, wolverine,
Jan 6 2020, 11:23:59 Alraune - The Process Of Self-Immolation (2014)
FLAC (298 MB):
Register
(1) -=Hass=-,
Jan 6 2020, 11:08:15 Ravencult - Force Of Profanation (2016)
FLAC (300 MB):
Register
(1) -=Hass=-,
Jan 6 2020, 10:29:10 Knokkelklang - Jeg Begraver (2018)
FLAC (243 MB):
Register
(3) -=Hass=-, acerbus, thenecromancer,
Jan 6 2020, 09:59:09 Profanatica - The Curling Flame Of Blasphemy (2016)
FLAC (270 MB):
Register
(2) thenecromancer, wolverine,
Jan 6 2020, 06:50:40 Cénotaphe & Circle Of Ouroborus - Cénotaphe/Circle Of Ouroborus [split] (2018)
Добавил в шапку FLAC и заменил mp3 с VBR260 на CBR320.

ЦИТАТА(garmonbozia @ Jan 13 2019, 16:58:19) *
у циркулей в первом треке на 1:36 диск прыгнул что ли, сбивка как на затертой пластинке.

в новом рипе этого нет.
(1) Borderline1991,
Jan 5 2020, 17:47:37 Yellow Eyes - Rare Field Ceiling (2019)
FLAC (326 MB):
Register
(2) sonicavocado, varg-38ru,
Jan 5 2020, 17:29:40 Sinmara - Hvísl Stjarnanna (2019)
FLAC (297 MB):
Register
(3) -=Hass=-, varg-38ru, wolverine,
Jan 5 2020, 11:59:40 Sortilegia - Arcane Death Ritual (2014)
FLAC (365 MB):
Register
(1) varg-38ru,
Jan 5 2020, 11:38:08 Vemod - Venter På Stormene (2012)
FLAC (232 MB):
Register

(1) varg-38ru,
Dec 2 2019, 13:44:46 Saligia - Vesaevus (2019)


*Artist: Saligia
*Album: Vesaevus
*Year: 2019
*Genre: Black Metal
*Country: Norway
*Format: mp3@CBR320kbps
*Size: 101MB

Tracklist:
1. Ashes 06:17
2. Malach Ahzari 07:40
3. Poison Wine 06:32
4. The Feather of Ma'at 03:54
5. Draining the Well 05:39
6. A Nuisance 05:58
7. Vesaevus 07:22
******************************
Total playing time: 43:22



[more=Extended info]Ván Records, November 30th.
Exclusively for metalarea.[/more]

[more=Technical info]
Input File: 01 Ashes.mp3
Channels : 2
Sample Rate : 44100
Precision : 16-bit
Duration : 00:06:17.41 = 16643825 samples = 28305.8 CDDA sectors
File Size : 15.3M
Bit Rate : 325k
Sample Encoding: MPEG audio (layer I, II or III)
Comments :
Title=Ashes
Artist=Saligia
Album=Vesaevus
Tracknumber=1
Year=2019

[/more]

Register
(81) -=Hass=-, 1968_janeart, 666kolobok666, acerbus, alikkon, andivi, arkaik, atavist, Beazth, Boozer, cancer1974, caro, DarkHorde, Dmitry1977, Evilded, Fess, garmonbozia, gena, Golodomor, Hell_Is_Here, Ildjarn, judaz, Kazoth, Kehl05, kim666, lestllk, lucifix, marilin, milosdjor, Misanthrope@, MMMMM, Moonshtook, morbidangelo, multizwilling, murian, nadin85, nemx, NOMIDIMON, nsk2008, Occultas, older68, oldvarg, Olethros, Ostinato, Premature_Devotion, rabindranad, rammmirez, robertho777, Rosen, sandr666, satanist666, Satyr, Scuns, senecazm, SilentNidhogg, Sjelekval, skeletron215, smes, SSorcerer, stone88, stub888, thenecromancer, Thunderbird, tim47, Tino, toly1917, Torlof, undeadlich, VALERY, vasiljev_sergej, Velmi, vov7609, wreak, wtk.412, xska, yuratroll, ZambuL, Абигор, Авел, Нигилист, Сварог Барг,
Nov 23 2019, 20:49:59 Deathspell Omega - Drought [ep] (2012)
Как по мне, то после Параклетуса можно было прикрывать лавочку.
(1) Kazoth,
Nov 13 2019, 17:35:44 Mayhem - Daemon (2019)
Limited Deluxe Edition Bonuses (320kbps, 20MB):

13. Evil Dead (Death cover) 02:56
14. The Truth (Death Strike cover) 03:02
15. Disgusting Semla (Morbid cover) 03:04

Register
(16) Aresson, cancer1974, CryptOn, Golodomor, IndeXR, infiltrator, kimkayoung, Lucifer, Lux, nadin85, Occultas, Old Vyaine, SAPOGi, sarcophagus, thenecromancer, Абигор,
Nov 12 2019, 19:15:42 Panzerfaust - The Cult Of Death [compilation] (2004)
Заменил ссылки в шапке на рип с собственной кассеты в 320 (+ сканы).
(1) Абигор,
Nov 2 2019, 21:16:38 The Deathtrip - Deep Drone Master (2014)
В ожидании нового альбома переслушал этот. Шикарный блек. Превосходный!
(2) Sanctus, Абигор,
Oct 21 2019, 20:53:35 Mayhem - Daemon (2019)


*Artist: Mayhem
*Album: Daemon
*Year: 2019
*Genre: Black Metal
*Country: Norway
*Format: mp3@CBR320kbps
*Size: 136MB

Tracklist:
1. The Dying False King 03:45
2. Agenda Ignis 04:34
3. Bad Blood 04:58
4. Malum 05:05
5. Falsified and Hated 05:48
6. Aeon Daemonium 06:03
7. Worthless Abominations Destroyed 03:48
8. Daemon Spawn 06:02
9. Of Worms and Ruins 03:48
10. Invoke the Oath 05:33
11. Everlasting Dying Flame (Bonus Track) 05:52
12. Black Glass Communion (Bonus Track) 04:25
******************************
Total playing time: 59:41



[more=Extended info]Century Media Records, October 25th.
Bonus tracks available on the Ltd. CD Mediabook and in the Ltd. Deluxe LP Box Set as well as on streaming platforms.
Exclusively for metalarea.

Отличный альбом![/more]

[more=Technical info]
Input File: 01 - The Dying False King.mp3
Channels : 2
Sample Rate : 44100
Precision : 16-bit
Duration : 00:03:46.60 = 9993104 samples = 16995.1 CDDA sectors
File Size : 9.06M
Bit Rate : 320k
Sample Encoding: MPEG audio (layer I, II or III)
Comments :
Title=The Dying False King
Artist=Mayhem
Album=Daemon
Tracknumber=1

[/more]

Register


Register


Register
(249) -=Hass=-, 17Nostcide, 1968_janeart, 6666666, 666days, A.L.Rapsod, abob, acerbus, AHAB99, ahp, Alexis The Best, andeimon, andivi, AndreFrancis, Anhra Mainyu, Antichrist696, Aresson, arkaik, artscald, as71, babanguida, Ballisargon, Baudolino, Beazth, beherit1972, Bergthron, berserkr, BERZERK, biroutios, Blacktron, blacky66, Brann, cancer1974, cenzored, cesar, Chasm, cist, craP_cillA, crestfallen999, dan22, DarkHorde, dead4, deadterror, delgard, Demonologist, demonosz, DenisKov, desekrator, Devastator, Devourer, disney666, djsema4, Dmitry1977, doomTemplar, dsp, dulak, dvlz, Eisbar, Emhyr var Emreis, Esophagus, EvgeniusLongus, Evilded, Extreme Brutal, eye, Faust_Vulkan_16, Femto, Fess, fishish, ForzaMinardi1977, Frozenkult, Fryz, FUDEDOR, fuoco, garmonbozia, Geisteswaffe, gena, ghaaran, GloomyDeath, Golodomor, GorAtheist, Guns, heinz88, hellbibber, Hell_Is_Here, helvetesrike, helvetestoner, Henmik, igore2911, Indamage, IndeXR, Infidel, infiltrator, JD666Hellion, Joey_73, JohnnyBravo, judaz, kamikadzeeeii, kauyumari, Kazoth, Kehl05, khestanow3001, kim666, kimkayoung, Korpse, Krosis, Lafii, lafuma, Lamby90, Lanceatum, Legacy100, legion01, LEGION69, lekram, let4ikmiha, lollol, Lord Noctua, lordbathor, lucifix, Luminous, Lux, Magged, Mannard, maochen, marilin, metala, Metalass, metaljosue, mikkah, mirotvorets, MMMMM, Moonshtook, multizwilling, nadin85, Narasimha, necrofag, nemx, nikolay81, NOMIDIMON, nsk2008, nugorod, obituarydark, obscenity, Occultas, Ogneslov, Old Vyaine, Olethros, Orgasmik, Pentium.Disel, peppuzzo, Phlebotomized, plfan93, popen13, Premature_Devotion, QuadenThyrane, rabiasocial, rammmirez, Razorbladeswaltz, recber, Reverend, ripper33, Rita, robertho777, Rosen, Rover, RUSP73, russianextreme, sabr, SadistikSlayer, Samaritianin, SameMan, Samogon, sandr666, sarcophagus, satanist666, Satyr, Scuns, Semargl2010, senecazm, sepultura39, serg1349, sethurius, Shadechaser, Shadowman, Sheogorath, sidharda, SilentNidhogg, Slavas, smes, sonicavocado, soulskinner681, spazm, sperminator, Spunkynut, SS2998, StabWound, stub888, supremo, Swastika, SyncestrA, Taragorm, TeamatSE, terron, thenecromancer, the_metalist, Thiarnan, thornfields, THROWER666, tim47, Tino, toly1917, tOmV, Torlof, trabantfan, troll_swamp, tschunioronbeer, Typhoid, Tyrone, undeadlich, Vakhangya, valafar, VALERY, varlam4, vasiljev_sergej, Vidder242, vov7609, vovenom, VVP123, vyacheslav, Wail, WarmasterChorus, Winter Funeral, Wolfera, wolverine, wrath082, wtk.412, xax, Xron, xska, yuratroll, ZA670, ZloY_GreY, zotyo1975, Абигор, Варяг, дивин, Козлотролль, Луч, металлист, Сварог Барг,
Oct 18 2019, 09:57:02 Teitanblood - The Baneful Choir (2019)
FLAC (321 MB):
Register
(20) -=Hass=-, Andr, AndreFrancis, artscald, CRUNCH, dad, eternald, garmonbozia, infiltrator, makkara123, Olethros, Premature_Devotion, rockwell666, sacredserenity, sacrut, SAPOGi, senecazm, sonicavocado, vosmidesijatye, wtk.412,

21 Pages V   1 2 3 > » 
- Lo-Fi Version Support form
Copyrights and abuse reports form
Time is now: 25th January 2020 - 08:52:08