Welcome Guest ( Log In | Register )

История благодарностей участнику drbutcher ::: Спасибо сказали: 19753 раз(а)
Дата поста: В теме: За сообщение: Спасибо сказали:
May 23 2015, 05:10:22 The Third Eye Rapists - Hets Mot Allt [demo] (2014)


*Artist: The Third Eye Rapists
*Album: Hets Mot Allt [demo]
*Year: 2014
*Genre: Black/Death Metal
*Country: Sweden
*Format: mp3@VBR230kbps
*Size: 29MB

Tracklist:
1. Intro 02:44
2. Black Sphere Messiah 03:21
3. Worshiper of the Ultimate Funeral 03:08
4. Void Penetration 04:03
5. Outro 04:06
******************************
Total playing time: 17:22



Register
(19) Boozer, Doooomed, Evilded, fftn, morbidangelo, NachtWulf, Razorbladeswaltz, rebornflms95, rom666, Rosen, RUSP73, satanist666, sperminator, Spork, VALERY, varg-38ru, varlam4, VECTOR, Wolftribes,
May 22 2015, 12:46:24 Black Capricorn - Cult Of Black Friars (2014)


*Artist: Black Capricorn
*Album: Cult Of Black Friars
*Year: 2014
*Genre: Psychedelic Doom Metal
*Country: Italy
*Format: mp3@VBR288kbps
*Size: 113MB

Tracklist:
1. Atomium 04:21
2. Cult of Black Friars 07:26
3. Hammer of the Witches 07:17
4. Riding the Devil's Horses 03:19
5. Animula Vagula Blandula 05:33
6. Cat People 04:13
7. From the Abyss 09:43
8. Arcane Sorcerer 06:02
9. To the Shores of Distant Stars 07:37
******************************
Total playing time: 55:31




Register
(20) avkruchinin, Boozer, Borderline1991, Buregon, frwd, gena, krmu2, KVRT, Lightbringer, metala, Metropolis, randumbum, Rosen, s810ic1, Sabbathian, StabWound, VALERY, varlam4, Velkaarn, wreak,
May 21 2015, 21:10:11 Forever Winter - Demo 2002 [demo] (2002)
ЦИТАТА(thenecromancer @ May 21 2015, 19:58:10) *
file removed everywhere...
6.gif

Register
(4) aimtoknow, Ludwig Hagen, RunningWild_AT, thenecromancer,
May 8 2015, 05:12:14 Bogvalal - Bogvalal [demo] (2015)


*Artist: Bogvalal
*Album: Bogvalal [demo]
*Year: 2015
*Genre: Raw Black Metal
*Country: United States
*Format: mp3@CBR256kbps
*Size: 18MB

Tracklist:
1. Untitled 1:59
2. Untitled 1:11
3. Untitled 1:56
4. Untitled 1:50
5. Untitled 1:11
6. Untitled 1:32
******************************
Total playing time: 9:39

[more=Extended info]metallicimagery.blogspot.com[/more]

Register
(17) 1968_janeart, abob, ambre, ddarkthrone, Fryz, INDARKNESS, LordHaart, Orkkh, rom666, Rosen, satanist666, stub888, tont, varg-38ru, varlam4, vasiljev_sergej, Спектр,
May 7 2015, 19:38:29 Nachash - Conjuring The Red Death Eclipse [ep] (2015)


*Artist: Nachash
*Album: Conjuring The Red Death Eclipse [ep]
*Year: 2015
*Genre: Black Metal
*Country: Norway
*Format: mp3@VBR293kbps
*Size: 65MB

Tracklist:
1. Astride the Chasm's Depths 08:11
2. Crimson Monarch 07:26
3. Scale the Inferno 07:10
4. A Necromancer's Lament 07:34
******************************
Total playing time: 30:21




Register
(31) 0x13, 1968_janeart, Akatamus, An225, Buregon, ddarkthrone, Exxie, kim666, Koscheyushka, morbidangelo, NachtWulf, nannoblack, Ostinato, rockwell666, rom666, Rosen, RUSP73, satanist666, Sjelekval, skeletron215, sperminator, Spunkynut, stub888, tont, valafar, VALERY, varg-38ru, varlam4, vasiljev_sergej, vov7609, wreak,
May 4 2015, 19:59:30 Taphos Nomos - West Of Everything Lies Death (2015)


*Artist: Taphos Nomos
*Album: West Of Everything Lies Death
*Year: 2015
*Genre: Death/Doom Metal
*Country: United States
*Format: mp3@VBR279kbps
*Size: 50MB

Tracklist:
1. Pyroclastic Flow (Hellbent on Destruction) 08:47
2. Swallowed in Boiling Kaolinite 10:00
3. Mycelium-corrupted Corpse 05:54
******************************
Total playing time: 24:41




Register
(16) andreikun, Asle, Boozer, Buregon, Darkthronefoad, Exxie, Kehl05, morbidangelo, randumbum, Rosen, Sabbathian, sperminator, VALERY, varlam4, Wolfera, wreak,
May 4 2015, 19:45:48 VTTA - Behind The Veil Of The Light [ep] (2014)


*Artist: VTTA
*Album: Behind The Veil Of The Light [ep]
*Year: 2014
*Genre: Black Metal
*Country: Russian Federation
*Format: mp3@VBR267kbps
*Size: 22MB

Tracklist:
1. Longing for the Abyss of Despair 5:35
2. Behind the Veil of the Light 5:33
******************************
Total playing time: 11:08




Register
(27) 1968_janeart, acerbus, artscald, Boozer, DarkHorde, Hell_Is_Here, Hswhhh, milosdjor, Moonshtook, Occultas, Ostinato, Premature_Devotion, rom666, Rosen, RUSP73, sacrut, satanist666, SSBandera, tont, Torlof, VALERY, varg-38ru, varlam4, vasiljev_sergej, wreak, yuratroll, Нигилист,
May 4 2015, 07:18:37 מזמור & Dross - מזמור/Dross [split] (2015)


*Artist: מזמור & Dross
*Album: מזמור/Dross [split]
*Year: 2015
*Genre: Black/Drone/Doom Metal | Black Metal
*Country: United States | United States
*Format: mp3@VBR242kbps
*Size: 52MB

Tracklist:
מזמור:
1. IX - Crestfallen Usurper 15:33
Dross:
2. Verdant 13:34
******************************
Total playing time: 29:07




Register
(15) artscald, bka, BRUTAL06, Doooomed, Hell_Is_Here, Lanceatum, marilin, Ostinato, randumbum, Rosen, tont, Tular, varlam4, vasiljev_sergej, wreak,
May 3 2015, 09:36:30 Antiflesh - In Peccatis Nostris In Sanguine [demo] (2015)


*Artist: Antiflesh
*Album: In Peccatis Nostris In Sanguine [demo]
*Year: 2015
*Genre: Black Metal
*Country: Poland
*Format: mp3@VBR292kbps
*Size: 26MB

Tracklist:
1. I'm the Sin 05:27
2. Fog 06:58
******************************
Total playing time: 12:25



Register
(14) 1968_janeart, blacky66, Corpse_Of_The_Christ, Darkthronefoad, morbidangelo, rom666, Rosen, satanist666, shitsic, tont, varlam4, vasiljev_sergej, vov7609, wreak,
May 2 2015, 21:33:27 Monastery Desecration - Against The Galilaeans [demo] (2015)


*Artist: Monastery Desecration
*Album: Against The Galilaeans [demo]
*Year: 2015
*Genre: Black/Thrash Metal
*Country: Greece
*Format: mp3@CBR320kbps
*Size: 45MB

Tracklist:
1. Against the Galilaeans 3:24
2. Flavius Claudius Julianus Augustus (Juventinus and Maximus Execution) 2:48
3. Battle of Argentoratum 3:11
4. Fragments of a Letter to a Priest 2:29
5. The Last Non-Christian 2:39
6. You have Lost, Galilean 2:29
******************************
Total playing time: 17:00



[more=Technical info]
Input File: 01. Against The Galilaeans .mp3
Channels : 2
Sample Rate : 44100
Precision : 16-bit
Duration : 00:03:24.48 = 9017524 samples = 15335.9 CDDA sectors
File Size : 8.18M
Bit Rate : 320k
Sample Encoding: MPEG audio (layer I, II or III)
Comments :
Title=AgainstTheGalilaeans
Artist=Monastery Desecration

[/more]

Register
(12) artscald, blacky66, marilin, morbidangelo, rom666, Rosen, ruslanok, RUSP73, satanist666, varlam4, wgs73, wreak,
May 2 2015, 21:02:36 Caverna - À Margem Do Abismo [demo] (2015)


*Artist: Caverna
*Album: À Margem Do Abismo [demo]
*Year: 2015
*Genre: Black Metal
*Country: Brazil
*Format: mp3@CBR320kbps
*Size: 23MB

Tracklist:
1. O Bramir da Besta 02:40
2. Violando Túmulos 02:53
3. A Queda 02:03
******************************
Total playing time: 7:36



[more=Technical info]
Input File: 01 - O Bramir da Besta.mp3
Channels : 2
Sample Rate : 44100
Precision : 16-bit
Duration : 00:02:38.27 = 6979575 samples = 11870 CDDA sectors
File Size : 7.89M
Bit Rate : 399k
Sample Encoding: MPEG audio (layer I, II or III)
Comments :
Title=O Bramir da Besta
Artist=Caverna
Album=ГЂ Margem do Abismo [Demo]
Tracknumber=1
Year=2015
Genre=Black Metal

[/more]

Register
(14) 1968_janeart, blacky66, Darkthronefoad, ddarkthrone, kim666, morbidangelo, phillipjorge, rom666, Rosen, satanist666, tont, varg-38ru, varlam4, vasiljev_sergej,
May 2 2015, 20:26:39 Zwetwezen - The Breath Of Evil [demo] (2013)


*Artist: Zwetwezen
*Album: The Breath Of Evil [demo]
*Year: 2013
*Genre: Experimental Black Metal
*Country: Belgium
*Format: mp3@CBR320kbps
*Size: 82MB

Tracklist:
1. Birth of Damnation 08:56
2. The Breath of Evil 03:52
3. Death's Crawling Inside 09:36
4. Rotten Blackhearted Human 07:15
5. Black Cold Night 06:32
******************************
Total playing time: 36:11



[more=Technical info]
Input File: Zwetwezen - Birth of Damnation.mp3
Channels : 2
Sample Rate : 44100
Precision : 16-bit
Duration : 00:08:59.06 = 23772634 samples = 40429.6 CDDA sectors
File Size : 21.6M
Bit Rate : 320k
Sample Encoding: MPEG audio (layer I, II or III)

[/more]

Register
(13) 1968_janeart, BRUTAL06, Darkthronefoad, ddarkthrone, metala, morbidangelo, NachtWulf, rom666, Rosen, stub888, tont, varlam4, vasiljev_sergej,
May 2 2015, 01:15:29 Hellships - Doom Organs (2015)


*Artist: Hellships
*Album: Doom Organs
*Year: 2015
*Genre: Psychedelic Doom Metal
*Country: United States
*Format: mp3@VBR276kbps
*Size: 128MB

Tracklist:
1.Nihil Desperandum 07:49
2.In The Name Of Stability 07:21
3.End Realism 08:22
4.A History Of Collapse 14:49
5.Electric Pilgrimage 09:09
6.Regifting Cigarettes 16:22
******************************
Total playing time: 1:03:52



Register
(11) bka, Buregon, Cruor, marilin, metala, randumbum, Rosen, StabWound, stub888, VALERY, wreak,
Apr 20 2015, 17:35:10 Песни и пляски народов мира. Выбираем лучшую песню. И пляску.
Old Vyaine, отдаю все Сатиру....
(1) Old Vyaine,
Mar 31 2015, 07:30:27 Morbid Yell - Relics Of The Morbid [best of/compilation] (2011)
ЦИТАТА(Patrick @ Mar 31 2015, 07:14:03) *
Re-upload please

Register
(4) Fimir, NastrondVI, obituarydark, Patrick,
Mar 25 2015, 05:17:42 Abysmal Lord - Storms Of Unholy Black Mass [ep] (2014)


*Artist: Abysmal Lord
*Album: Storms Of Unholy Black Mass [ep]
*Year: 2014
*Genre: Death/Black Metal
*Country: United States
*Format: mp3@CBR320kbps
*Size: 58MB

Tracklist:
1. Terrorist Dawn (Introwehrmacht) 03:52
2. Gnashing of Teeth 05:30
3. Angels of Persecution 07:01
4. Storms View 05:39
5. Revelation 04:30
******************************
Total playing time: 26:32




[more=Extended info]рип с пластинки cо сканами от Vonfrost'a...[/more]

[more=Technical info]
Input File: A1.Terrorist Dawn (Introwehrmacht).mp3
Channels : 2
Sample Rate : 44100
Precision : 16-bit
Duration : 00:03:53.10 = 10279578 samples = 17482.3 CDDA sectors
File Size : 9.32M
Bit Rate : 320k
Sample Encoding: MPEG audio (layer I, II or III)
Comments :
Artist=ABYSMAL LORD
Album=Storms Of Unholy Black Mass
Year=2014
Genre=9

[/more]

Register
(21) artscald, Buregon, Darkthronefoad, ddarkthrone, Evilded, goregrindexx, MMMMM, Ostinato, randumbum, Razorbladeswaltz, rom666, Rosen, RUSP73, sacrut, satanist666, Spunkynut, VALERY, varlam4, vasiljev_sergej, WarmasterChorus, wreak,
Mar 21 2015, 19:12:54 Gmork - Истоки Талой Воды [single] (2014)
[youtube]r07fSUaWMIk[/youtube]
(1) suseka,
Mar 21 2015, 15:57:22 Песни и пляски народов мира. Выбираем лучшую песню. И пляску.
Gods Tower
Canticles ###
The Eerie ###
The Turns #
In The Woods...
Heart of the Ages ###
Omnio ####
Storm
Nordavind #######
Ulver
Bergtatt - Et Eeventyr i 5 Capitler #######
Сатанакозёл
Солнце мёртвых #######

(1) Old Vyaine,
Mar 18 2015, 06:26:53 Nécropole - Ostara [demo] (2015)


*Artist: Nécropole
*Album: Ostara [demo]
*Year: 2015
*Genre: Black Metal
*Country: France
*Format: mp3@VBR267kbps
*Size: 41MB

Tracklist:
1. Immanence 7:25
2. Trahison fratricide 5:59
3. Nécropole 8:29
******************************
Total playing time: 21:53



Register
(32) 1968_janeart, acerbus, Anhra Mainyu, bka, blacky66, Boozer, Constantinus I, Darkthronefoad, ddarkthrone, Eugenio, Fryz, kim666, lestllk, murian, NachtWulf, nsmetalhead, Ostinato, pfk505, randumbum, rimfrost, Rosen, RUSP73, Sangreal, satanist666, spiritualdecay666, SSBandera, stub888, tont, VALERY, varg-38ru, varlam4, vasiljev_sergej,
Mar 17 2015, 21:59:59 Песни и пляски народов мира. Выбираем лучшую песню. И пляску.
isengard
storm
in the woods
gods tower
ulver
изморозь crazy.gif
###

(1) Old Vyaine,
Mar 16 2015, 05:48:04 Infinite Earths - Spiral From Spacetime [ep] (2014)


*Artist: Infinite Earths
*Album: Spiral From Spacetime [ep]
*Year: 2014
*Genre: Progressive Black Metal
*Country: United States
*Format: mp3@CBR320kbps
*Size: 57MB

Tracklist:
1. Compliance & Complacency 05:14
2. Prelude 01:26
3. The Godhelm 07:44
4. When the World Was Infringed Upon 03:56
5. Spiral from Spacetime 06:30
******************************
Total playing time: 24:50




[more=Technical info]
Input File: 002 02 Prelude.MP3
Channels : 2
Sample Rate : 44100
Precision : 16-bit
Duration : 00:01:26.40 = 3810416 samples = 6480.3 CDDA sectors
File Size : 3.46M
Bit Rate : 320k
Sample Encoding: MPEG audio (layer I, II or III)
Comments :
Title=Prelude
Artist=Infinite Earths
Album=Spiral From Spacetime
Tracknumber=2
Genre=9

[/more]

Register
(8) 1968_janeart, aesteticvice, Ostinato, Rosen, tont, varlam4, wreak, yuratroll,
Mar 15 2015, 22:27:59 Ominous Resurrection - Omniscient (2014)


*Artist: Ominous Resurrection
*Album: Omniscient
*Year: 2014
*Genre: Black Metal
*Country: United States
*Format: mp3@CBR320kbps
*Size: 98MB

Tracklist:
1. ... and the Black Sun Shines... 03:26
2. Seven Trumpets of Doom 06:25
3. The Omen of the Banshee 06:22
4. Lifting of the Veil 05:35
5. Astral Nightmare 06:49
6. Ominous Resurrection 07:06
7. Coronation of the Serpent 07:21
******************************
Total playing time: 43:04



[more=Technical info]
Input File: 001 01 - ...And The Black Sun Shines....MP3
Channels : 2
Sample Rate : 48000
Precision : 16-bit
Duration : 00:03:25.81 = 9878880 samples ~ 15435.8 CDDA sectors
File Size : 8.23M
Bit Rate : 320k
Sample Encoding: MPEG audio (layer I, II or III)
Comments :
Title=...And The Black Sun Shines...
Artist=Ominous Resurrection
Album=Omniscient
Tracknumber=1
Year=2014
Genre=138

[/more]

Register
(30) 1968_janeart, acerbus, avantgardx, Boozer, Buregon, Chasm, Constantinus I, DarkHorde, Darkthronefoad, Hell_Is_Here, Ildjarn, Koscheyushka, milosdjor, murian, Necrodictator, Ostinato, Premature_Devotion, randumbum, rockwell666, Rosen, Spork, SSBandera, stub888, toly1917, tont, VALERY, varlam4, vasiljev_sergej, vosmidesijatye, wreak,
Mar 9 2015, 04:34:59 Doomina - Adventures Of Dope [ep] (2006)
ЦИТАТА(RunningWild_AT @ Jun 26 2014, 22:36:42) *
Dead Link(s)

Register
(1) RunningWild_AT,
Mar 7 2015, 11:39:30 Blue Hummingbird On The Left & Volahn - Debajo Del Simbolo Del Sol [split] (2014)


*Artist: Blue Hummingbird On The Left & Volahn
*Album: Debajo Del Simbolo Del Sol [split]
*Year: 2014
*Genre: Black/Death Metal | Black Metal
*Country: United States | United States
*Format: mp3@CBR320kbps
*Size: 19MB

Tracklist:
Blue Hummingbird on the Left:
1. Debajo del Simbolo del Sol 03:46
Volahn:
2. Kämikal o Juluwem 4:07
******************************
Total playing time: 7:53



[more=Extended info]рип с кассеты со сканами от Vonfrost'a...[/more]

[more=Technical info]
Input File: A2.Blue Hummingbird On The Left - Debajo Del Simbolo Del Sol.mp3
Channels : 2
Sample Rate : 44100
Precision : 16-bit
Duration : 00:04:11.17 = 11076773 samples = 18838 CDDA sectors
File Size : 10.0M
Bit Rate : 320k
Sample Encoding: MPEG audio (layer I, II or III)
Comments :
Artist=Blue Hummingbird On The Left /
Album=Debajo del Simbolo del Sol
Year=2014
Genre=9

[/more]

Register
(37) abob, acerbus, artscald, blacky66, Blut aus Nord, Boozer, Darkthronefoad, ddarkthrone, Disgorge666, Fryz, Hell_Is_Here, Ildjarn, kauyumari, Lanceatum, Legacy100, lestllk, lunaraurora, marilin, Ostinato, Pollo, Premature_Devotion, randumbum, Rikardo90, Rosen, RUSP73, satanist666, sethurius, the_cleanser, tont, Vaesel, VALERY, varg-38ru, varlam4, vasiljev_sergej, Wolfera, wreak, Абигор,
Feb 16 2015, 08:41:12 Три топора, финал!1
три
Whatever That Hurts
два
Raining Blood
один
Battery

норфолк
(1) ddx1,

74 Pages V   1 2 3 > » 
- Lo-Fi Version Support form
Copyrights and abuse reports form
Time is now: 15th September 2019 - 08:33:13