Welcome Guest ( Log In | Register )

История благодарностей участнику MeatWolf ::: Спасибо сказали: 15208 раз(а)
Дата поста: В теме: За сообщение: Спасибо сказали:
Aug 23 2019, 14:54:15 Equilibrium - Renegades (2019)
Рифма фая-дизая на месте, это всё, что вам надо знать об этом альбоме.
(6) acerbus, Evilded, fateefffddd, Ingvar, POMAHOB, Samaritianin,
Aug 19 2019, 15:25:26 Кто какие альбомы ждёт? Albums you are waiting for
Из реальных заявок на что-то остались только Мекина и Инсомниум, но оба альбома реально реальны.
(1) Lucifer,
Aug 19 2019, 08:02:13 Kafziel - Elements (2019)
Даже несмотря на дубовую запись и очевидно программные барабаны, альбом просто конфетка, прогнал уже раз пять почти подряд, огромные объёмы вкуснейшей лид гитары лично для меня компенсируют все недостатки.
(1) Nitais_Ter,
Aug 18 2019, 13:34:23 Insomnium - Winter's Gate (2016)
ЦИТАТА(Lucifer @ 18th August 2019 - 14:48:42) *
или приедет огромная махина размером с винил

Именно так. Эти артбуки сделаны как раз в виниловом формате. Новый будет такой же.
(1) Lucifer,
Aug 18 2019, 11:36:52 Kafziel - Elements (2019)


*Artist: Kafziel
*Album: Elements
*Year: 2019
*Genre: Progressive Metal/Djent
*Country: Argentina
*Format: mp3@CBR320kbps
*Size: 130MB

Tracklist:
1. Beta 05:40
2. New horizons 05:17
3. Soul of the desert 04:48
4. Letting it go 03:48
5. Waterfall 06:23
6. All demons 06:27
7. Inherent fear 06:11
8. Elements 05:01
9. A ray of light above the clouds 04:51
10. Leaving this planet 07:45
******************************
Total playing time: 56:11



[more=Extended info]Для любителей Андромиды, Мекины и прочего космоджента.

320 настоящие, сам купил на BC, срез на 16 кГц в оригинале.[/more]

[more=Technical info]
Input File: 01 - Beta.mp3
Channels : 2
Sample Rate : 44100
Precision : 16-bit
Duration : 00:05:40.53 = 15017285 samples = 25539.6 CDDA sectors
File Size : 13.6M
Bit Rate : 320k
Sample Encoding: MPEG audio (layer I, II or III)
Comments :
Title=Beta
Artist=Kafziel
Album=Elements
Tracknumber=01
Year=2019
Genre=Djent/Instrumental

[/more]

Register
(9) artscald, Immolator, infiltrator, lucifix, Nitais_Ter, Olethros, Rosen, Samaritianin, Sunbeam,
Aug 17 2019, 08:37:53 Hammerfall - Dominion (2019)
ЦИТАТА(Andrew @ 16th August 2019 - 22:16:45) *
Потому как последним вменяемым альбомом был Threshold.

Думаю, потому что Элмгрен. Без него весь тевтонский звук улетучился сразу же.
(2) Ghostb, infiltrator,
Aug 12 2019, 15:57:18 Thormesis - The Sixth (2019)
Довольно неплохой пост-блэк, и опять немецкий. Ждём продолжения и оттачивания мастерства на следующих альбомах.
(1) Nitais_Ter,
Aug 10 2019, 20:43:58 Finsterforst - Zerfall (2019)
А эпик всё-таки неплох, кроме дурацкого момента с брейкдаунами в районе 10 минут. Без него получается более-менее цельное раскрытие темы.
(1) Nitais_Ter,
Aug 10 2019, 12:17:36 Aether - In Embers (2019)
Достойный дебют, ждём продолжения. Фразы "only way out is the window of dreams" в 7 треке и "time fades away" в последнем как бы намекают, чем вдохновлялись товарищи 1488.gif
(1) Samaritianin,
Aug 10 2019, 11:53:52 Новости направления MDM
Инсомниум очень жду, судя по хронометражу песен, грядёт что-то масштабное, и в хорошем смысле, а не как на прошлом альбоме. Артбук уже предзаказан.
(1) Lucifer,
Aug 10 2019, 11:47:31 Finsterforst - Zerfall (2019)
Да, про мрачняк не соврали.

Эпик пока не вполне одобряю, даже прошлый был лучше, уж не говоря про Flammenrausch и тем более Untergang. Совершенно не выглядит цельной конструкцией. После шикарного вступления дальше практически сплошной сумбур.
(1) Nitais_Ter,
Aug 10 2019, 07:59:12 Sabaton - The Great War (2019)
Немного лучше прошлого, но вот именно что немного. По сути это уже нуклеарбласт метал классический. К сожалению. В таком формате это было ожидаемо. Но! На альбоме есть один трек, который на голову превосходит не только все остальные треки, но, возможно, вообще всё, что выпустили Сабатон. Это Seven Pillars of Wisdom, трек про Лоуренса Аравийского. Абсолютно идеальная сабатоновская глыба, просто вообще ни к чему не придерёшься, настолько всё безупречно сделано. Ну и что, что содрано со своей же White Death (которая, кажется, тоже была содрана ещё с кого-то). Послушал раз тридцать, ради этой одной телеги стоило выпустить альбом.
(2) infiltrator, Ingvar,
Aug 10 2019, 07:53:10 Finsterforst - Zerfall (2019)
Альбом строго в стиле Mach Dich Frei, возможно, хотелось бы чуть большего разнообразия, но такой запредельной титанической колоссальной эпичности больше сегодня никто не делает. К этой музыке даже никакой тег не прилепишь. Группа безусловно перешла в разряд уникальных явлений в своём сегменте, этот их Симон Шиллингер просто псих ненормальный, клепать за три года такие циклопические полотна не каждому под силу.

ЦИТАТА(скептик @ 2nd August 2019 - 17:24:25) *
от первого прослушивания двоякие впечатления . мужчины продолжают линию прошлого опуса, но в отличие от него на данном альбоме много эпичности , но не хватает какого то стержня в музыке, монументальности и надрыва. композиции слишком растянуты, не хотелось бы называть их унылыми, но .... такие мысли нет нет да и приходят в голову. есть на альбоме очень приятные уху отрезки, но они слишком размазаны. попробую переслушать , может не под настроение попало, но пока 5 из 10 за альбом.

По сути, это тоже верно, хотя и не в такой драматичной форме. Выковыривать мелодии здесь значительно труднее, чем на 2015-м, но они всё равно есть, хоть и ещё менее яркие и очевидные. Но детализация музыки по-прежнему на космическом уровне. Ну и звук от Кристофа Брандеса идеален.

Ещё жаль, что совсем забросили акустические интерлюдии.
(4) Lucifer, Nitais_Ter, Old Vyaine, Samaritianin,
May 4 2019, 11:39:06 Myrath - Legacy (2016)
Register
(6) infiltrator, Maniakk, mardak666, Metalass, Nitais_Ter, Rodriga,
Apr 12 2019, 12:39:27 Solarus - Darkest Days (2019)
ЦИТАТА(Dreamtale @ 12th April 2019 - 13:43:44) *
Бореалис и сами не так чтобы первый эшелон.

В нынешнем состоянии жанра уже почти что первый.
(1) Whitefish,
Apr 12 2019, 11:37:59 Печальный мелодэт
ЦИТАТА(DiKobRaZzz @ 11th April 2019 - 20:01:56) *
Первым делом вспомнил Lethe 1995-го.

+ My Negation, Misery's Crown, The Mundane and the Magic, инструменталки бонусные, а также, по большому счёту, всё, что вышло с 2010 года включительно, особенно сам We Are the Void.

ЦИТАТА(ersegoth @ 12th April 2019 - 13:22:04) *
Вот ориентир темы, в моем понимании

"Хороший" ориентир, один из самых позитивных мдм-альбомов.

А вообще бери всё, что у Инсомниума и его производных, лежит в similar на Архивах и Ласт.фм, и штудируй подряд всё, что не слышал.
(1) Ghostb,
Apr 10 2019, 13:51:42 Amorphis - Queen Of Time (2018)
Значит, что микшировал не тот, кто микшировал альбом.
(1) Ghostb,
Apr 6 2019, 14:28:34 Eluveitie - Ategnatos (2019)
Разницу в звуке можно чётко услышать, если сравнить сингловую Rebirth и альбомную. На сингловой старая добрая каша из кирпича.
(2) Ghostb, infiltrator,
Apr 6 2019, 11:15:22 Ruadh - Sovereign (2019)
Пока весьма сыро, но потенциал есть.
(2) Lucifer, Nitais_Ter,
Apr 5 2019, 16:39:11 Eluveitie - Ategnatos (2019)
Вообще ничего не ждал от этого альбома, а он возьми да и не дрянь. Полная смена состава явно пошла группе на пользу, старые кони уже могли в борозде только копыта протянуть (а новые даже в фотосессии поучаствовали). Кригель наконец набрался мужества и показал новым гитаристам другие альбомы ДТ, кроме Характера (с интересом жду, когда они дойдут до Констракта/Атомы). Новый ударник худо-бедно в имеющихся рамках разнообразил партии, то, что было ранее, шло на грани полного примитива. Девочке с лирой, ввиду того, что она никто и звать её никак (читай: не Мёрфи), сказали, что крутить шарманку надо вот здесь и здесь, а не везде и всегда. Флейты и дудки прекратили дудеть танцевальный мажор 80% времени, большое спасибо.

Однако основную благодарность надо выносить Богрену, который пришёл и спокойно расставил все эти инструменты по своим местам. Только сейчас заметил, что Сланию тоже сводил Богрен, и вот после этого группа и выдавала в звуке провал за провалом на разные лады. Слания была довольно жёстко-мелодэтовой, в духе времени, здесь имеем чёткий сбалансированный современный продакшн, просто любо-дорого слушать, как играет ГРУППА, а не отдельно (и криво) гитара, отдельно лира, отдельно скрипка…

По композиторству впервые почти можно поверить, что это не Слания №100500. Ходы, безусловно, почти все те же самые, но песни наконец хоть как-то отличаются друг от друга, а не «тыщ, тыщ тыщ и баллада». Весьма удачным решением стало увеличение доли присутствия женского вокала вместо вытягивания всех мелодий флейтами. Фабьен по тембру практически та же Анна, небольшие отличия, на мой вкус, в её пользу. Например, лучший трек альбома, Black Water Dawn, лучший именно благодаря прекрасному лиричному припеву в её исполнении. Почти то же самое можно сказать и о Rebirth, в которой вдобавок есть ещё и соляк аж на полминуты. Вот примерно так и хотелось бы, чтобы звучали современные Eluveitie. Кроме этих двух вещей также отмечу Deathwalker с отличными проигрышами, драматичную A Cry in the Wilderness, красивую The Slumber и удачную заглавную открывашку. Примерно треть материала, по традиции, никуда не годится, особенно не удались «типа злые» боевики, за исключением разве что Threefold Death, да и то за счёт опять Фабьен, партию которой стоило расширить на весь припев. Глупый позитив в Ambiramus и сырая Breathe тоже пустая трата времени.

Тем не менее, за вычетом всего этого имеем довольно неплохой и главное свежий альбом, который каким-то чудом вынырнул из нуклеарбластовского болота хотя бы макушкой.

Бонусом переслушал всю дискографию (кроме Спирита, ибо непонимат):

Слания: шыдевр своего времени, хотя некоторые песни всё-таки излишне повторяются. Но здесь есть один космического уровня трек, и это совсем не распиаренная Инис Мона, а Calling the Rain (который группа впоследствии аж два раза пыталась повторить, и оба раза более-менее удачно).
Everything Remains: довольно содержательный материал, но этот кастрюльный металкоровый звук...
Helvetios: неожиданно не такой и безнадёжный альбом (после чистки мусора), но концовка совсем пустая. Первая половина добротная.
Origins: а вот тут впечатления совсем поблёкли, очень скучный и однотипный диск, после первых 3-4 треков слушать нечего, т.к. всё абсолютно одинаковое. К Helvetios, впрочем, это тоже относится, но в меньшей консистенции.
(17) 6666666, Dimhold, fateefffddd, infiltrator, Lugia010719d1, Nitais_Ter, Old Vyaine, Paradayz, Rodriga, Samaritianin, Sunbeam, Thiarnan, Unforgiven, vasilisk, Whitefish, Луч, скептик,
Apr 4 2019, 18:01:51 Eluveitie - Ategnatos (2019)
ЦИТАТА(kostja @ 4th April 2019 - 19:51:39) *
19. Threefold Rebirth

Тоже акустические вариации.



6666666, есть.
(2) infiltrator, krotovich,
Apr 4 2019, 16:33:29 Red Moon Architect - Kuura (2019)
На этом альбоме тег funeral doom.
(1) Samaritianin,
Mar 30 2019, 20:15:26 Manowar - The Final Battle I [ep] (2019)
Крайне бессмысленный релиз. Впрочем, ожидать от группы чего-либо содержательного уже вряд ли стоит. Хотя любопытно, что основная проблема по-прежнему в совершенно неметалическом сведении.
(6) Andrew, DMIYUR, infiltrator, RUSP73, Samaritianin, Shadowman,
Mar 30 2019, 12:19:01 Manowar - The Final Battle I [ep] (2019)


*Artist: Manowar
*Album: The Final Battle I [ep]
*Year: 2019
*Genre: Heavy Metal
*Country: United States
*Format: mp3@CBR320kbps
*Size: 45MB

Tracklist:
01 - March of the Heroes into Valhalla
02 - Blood and Steel
03 - Sword of the Highlands
04 - You Shall Die Before I Die
******************************
Total playing time: 19:30

[more=Technical info]
Input File: 02 - Blood And Steel.mp3
Channels : 2
Sample Rate : 48000
Precision : 16-bit
Duration : 00:04:42.12 = 13541952 samples ~ 21159.3 CDDA sectors
File Size : 11.3M
Bit Rate : 320k
Sample Encoding: MPEG audio (layer I, II or III)
Comments :
Title=Blood And Steel
Artist=Manowar
Album=The Final Battle I
Tracknumber=02
Year=2019
Genre=Heavy Metal

[/more]

Register
(48) 0x13, ace73pq, acundof, ahp, apostol_13, Aresson, avkruchinin, cancer1974, caro, Cartman223, cesar, ChaosArcana, csgmnk, djsema4, Grabarz, Herrant, HMHamster, infiltrator, kim666, kimkayoung, Konst, kostja, Lord Noctua, lucifix, Luminous, Mehran, metalfaze, Mplast, NappyRob, Old Vyaine, Olethros, potap03020100, recber, respect, Rhoads, Rosen, russ777, Samaritianin, SAPOGi, talismanFS, TeamatSE, thenecromancer, VALERY, vir2al, Vladimir, WarmasterChorus, wreak, Yarri,
Mar 30 2019, 12:08:00 Brymir - Wings Of Fire (2019)
ЦИТАТА
Fun fact: Jari was actually Joona Björkroth's guitar teacher like 15 years ago

Многое объясняет.
(2) Lucifer, Nitais_Ter,

131 Pages V   1 2 3 > » 
- Lo-Fi Version Support form
Copyrights and abuse reports form
Time is now: 26th August 2019 - 06:45:24