Welcome Guest ( Log In | Register )

История благодарностей участнику скептик ::: Спасибо сказали: 443 раз(а)
Дата поста: В теме: За сообщение: Спасибо сказали:
Dec 13 2019, 15:21:42 Ищу дум метал с восточными мотивами
Betray My Secrets - Betray My Secrets (1999) как вариант подойдет?
(1) Leshiy666,
Aug 16 2019, 18:02:33 Клипы (не просто, а ЛУЧШИЕ). Обсуждение с объяснением
Black Cat - про раммов присоединяюсь, создатели клипа мега профи, шикарная история Германии в уроке длительностью 10 мин dooo.gif
p.s. из неформата фавориты Klaxons - Twin Flames - https://www.youtube.com/watch?v=umS0sw8_D30
THE HARDKISS - TONY TALK! - https://www.youtube.com/watch?v=SRMH-EHscb8
No Doubt - Hey Baby - https://www.youtube.com/watch?v=wt1YkGO2Ieo
(1) Black Cat,
Aug 2 2019, 15:24:25 Finsterforst - Zerfall (2019)
от первого прослушивания двоякие впечатления 13.gif . мужчины продолжают линию прошлого опуса, но в отличие от него на данном альбоме много эпичности , но не хватает какого то стержня в музыке, монументальности и надрыва. композиции слишком растянуты, не хотелось бы называть их унылыми, но .... такие мысли нет нет да и приходят в голову. есть на альбоме очень приятные уху отрезки, но они слишком размазаны. попробую переслушать , может не под настроение попало, но пока 5 из 10 за альбом.
(3) infiltrator, MeatWolf, vosmidesijatye,
Jun 8 2019, 10:39:26 Motanka - Motanka (2019)
двойственное впечатление от альбома. мелодичные отрывки классно вышли, где старается группа добавить тяжести - становится не очень ибо метальная часть слабовата.
(2) infiltrator, Rarog,
May 19 2019, 08:33:42 Океан Мессиобожателей на Невском, или Голосовалка за лучший альбом 2018 года, ФИНАЛ
Amorphis "Queen Of Time"
Rivers Of Nihil "Where Owls Know My Name"

(1) vam1972,
May 17 2019, 14:46:24 October Tide - In Splendor Below (2019)
вот правильная вроде бы музыка, серьезная, качественная, но, видать, полностью неощущаемая моим организмом: начинаешь слушать , вроде ничеготакидет , а потом опа, альбом закончился а в памяти пусто. и так со всеми их альбомами.
(5) BleedingSun, Ghostb, infiltrator, Shadowman, Skogvaktar,
Apr 20 2019, 12:20:58 Allegaeon - Apoptosis (2019)
хороший альбом, хотя и слабей прошлого.
(2) Ghostb, infiltrator,
Apr 5 2019, 16:27:57 Альбом 2018 года в жанре technical / progressive death. Тур2
Xael 1
Rivers Of Nihil 2
Augury 1
(1) Язва,
Mar 27 2019, 17:32:48 Cellar Darling - The Spell (2019)
после беспросветно мутного и серого дебютного недоразумения выдали симпатичную музыку. Особенно понравились моменты где дамочка делает "УУУУ уу УУУуу ууу", очень душевно так поет. и да, иногда таки возникают ассоциации с The Gathering.
(1) Ghostb,
Mar 21 2019, 14:08:57 To Dust - False God Of Death (2019) (1) djsema4,
Mar 19 2019, 13:06:25 Альбом 2018 года в жанре technical / progressive death. Тур1
Rivers Of Nihil - Where Owls Know My Name +2.
(2) infiltrator, Язва,
Feb 8 2019, 17:45:47 Allegaeon - Stellar Tidal Disruption [studio clip] (2019)
ЦИТАТА(Chuck @ Feb 8 2019, 15:44:12) *
А когда альбомец выходит?

19 апреля 2019
(1) fateefffddd,
Feb 4 2019, 15:30:21 Saor - Forgotten Paths (2019)
где тут шедевр, я так и не понял. атмосфера есть, простенькая акустика милая но ничем не примечательная, метальная часть так же как бы просто есть, 13.gif но ничем особо не привлекает.
(2) Ghostb, judaz,
Feb 1 2019, 19:27:50 Lucis Absentia - Gehenna Gate (2018)
блин, ну классный альбом, просто очень классный, и мелодии есть и драйв. я бы из середины парочку убрал треков, а остальное оочень радует слух.
(1) Samaritianin,
Jan 30 2019, 19:09:41 Soen - Lotus (2019)
музыка хороша, но клип ..... 12.gif normal_Homerdisgust3.png . с педалированием темы ЛГБТ в фильмах, сериалах, новостях и музыке, боюсь, что через лет 5 гетеросексуалов будут считать верхом извращений. мля, но музыка хороша. 20.gif
(2) infiltrator, merfo,
Jan 29 2019, 15:44:20 Lebowski - Galactica (2019)
мне альбом показался слабей прошлого, музыка хорошая, но он не такой теплый и обволакивающий как синематик.
(2) Ghostb, infiltrator,
Jan 26 2019, 09:10:14 Lebowski - Galactica (2019)
headcrab.png дождааалииись
(2) infiltrator, Ingvar,
Nov 29 2018, 19:12:47 Новости Experimental/Progressive Metal
Theater of the Absurd выдали новый миник.
теперь ждем-с полноформат.
p.s. и собственно его хотелось бы качнуть, как и дебютник, который как снежный человек: все о нем знают, но никто не видел (слышал) 11.gif
(1) paganheart,
Nov 20 2018, 19:44:36 Sarah Longfield - Disparity (2018)
я прослезился 15.gif
(1) Ghostb,
Oct 10 2018, 15:22:07 Night Verses - From The Gallery Of Sleep (2018)
из множества инструментальщиков этим ребятам удалось создать умную, незаморченную излишней сложностью, но в то же время многогранную и красивую музыку. хороший релиз, очень хороший. 20.gif
(2) mirotvorets, Shadowman,
Oct 2 2018, 17:33:58 Behind The Scenery - Retroviseur (2004)
альбом действительно шикарный, регулярно переслушиваю pray.gif 20.gif .и не верится что ему уже почти 15 лет.
(1) troll_swamp,
Aug 22 2018, 15:49:03 Juno Reactor - The Mutant Theatre (2018)


*Artist: Juno Reactor
*Album: The Mutant Theatre
*Year: 2018
*Genre: Psy Trance/Tribal/Goa Trance
*Country: United Kingdom
*Format: mp3@CBR320kbps
*Size: 153MB

Tracklist:
1. The Return Of The Pistolero (11:09)
2. Our World (8:00)
3. Let's Turn On (7:19)
4. Dakota (6:35)
5. Alien (8:03)
6. The Sky Is Blue The Sky Is Black (6:49)
7. Showtime (5:32)
8. Voyager 304 (7:03)
9. Tannhauser Gate (6:00)
******************************
Total playing time: 1:06:30



[more=Extended info][/more]

[more=Technical info]
Input File: 09 - Tannhauser Gate.mp3
Channels : 2
Sample Rate : 44100
Precision : 16-bit
Duration : 00:06:00.30 = 15889230 samples = 27022.5 CDDA sectors
File Size : 14.6M
Bit Rate : 324k
Sample Encoding: MPEG audio (layer I, II or III)
Comments :
Title=Tannhauser Gate
Artist=Juno Reactor
Album=The Mutant Theatre
Tracknumber=9
Year=2018

[/more]

Register
(7) A.L.Rapsod, gwar, mirotvorets, Shadechaser, Un4given, Wolftribes, wtk.412,
Aug 20 2018, 14:51:40 Anachronaeon - Everyday Chronicles (2018)
как то не понял восторгов, добротный музон, но не цепляет.
(1) Ghostb,
Aug 9 2018, 18:32:26 Omnium Gatherum - Refining Fire [single] (2018)
мля, если еще и эти разочаруют, то как тогда жить?!, хотя , можно вновь прогнать Beyond 20.gif 20.gif 20.gif .
(1) krotovich,
Jul 19 2018, 14:43:55 Obscura - Diluvium (2018)
да, альбом техничен и мелодичен, и звук хорош, Но , нет ярких хитов, все как то без ярких эмоций и хитовых тем.
(1) Ghostb,

8 Pages V   1 2 3 > » 
- Lo-Fi Version Support form
Copyrights and abuse reports form
Time is now: 27th January 2020 - 19:05:25