Welcome Guest ( Log In | Register )

История благодарностей участнику Mishok ::: Спасибо сказали: 909 раз(а)
Дата поста: В теме: За сообщение: Спасибо сказали:
May 25 2019, 15:18:20 The Project Hate MCMXCIX - Death Ritual Covenant (2018)
Как-то пропустил выход этого альбома, и походу не зря.... лучше бы рубили все в духе того, что было до 2005 21.gif
(1) zyklon,
Jan 19 2019, 20:42:52 Dawn Of Ashes - The Crypt Injection II (2019)
ЦИТАТА(garmonbozia @ Jan 18 2019, 19:45:18) *
хотя всё равно говно.

С учетом того, что сейчас около 95% всего EBM и Dark Electro - откровенное говно, это смотрится еще как повидло
(1) Ghostb,
Jul 19 2016, 19:38:49 Dawn Of Ashes - Theophany (2016)
Register
(2) AndreFrancis, vov7609,
Apr 6 2016, 20:56:12 God Destruction - Novus Ordo Seclorum (2014)


*Artist: God Destruction
*Album: Novus Ordo Seclorum
*Year: 2014
*Genre: Dark Electro/Harsh EBM/Black Metal
*Country: Mexico
*Format: mp3@CBR320kbps
*Size: 179MB

Tracklist:
1. New World Order - 6:13
2. I'm Your God - 6:28
3. Bellum - 4:33
4. Disintegrator - 5:36
5. Angel With The Scabbed Wings - 4:51
6. Prominent Darkness - 6:00
7. Destroyer - 5:06
8. Satan's Storm - 5:31
9. Revolution - 6:13
10. Touched By Lvcifer - 6:08
11. Doomsday - 5:35
12. Regresus Diaboli - 5:12
13. Touched By Lvcifer (C-Lekktor Remix) - 5:52
14. Regresus Diaboli (Esquizofrenia Viral Remix) - 4:10
15. Regresus Diaboli (Satanized By Alien Vampires Remix) - 3:10
******************************
Total playing time: 1:20:38




[more=Extended info]Насчет метала под вопросом конечно, по качеству не уступает 2016. Всё также старый добрый сатанизм.[/more]

[more=Technical info]
Input File: 07. Destroyer.mp3
Channels : 2
Sample Rate : 44100
Precision : 16-bit
Duration : 00:05:05.09 = 13454425 samples = 22881.7 CDDA sectors
File Size : 12.3M
Bit Rate : 322k
Sample Encoding: MPEG audio (layer I, II or III)
Comments :
Title=Destroyer
Artist=God Destruction
Album=Novus Ordo Seclorum
Tracknumber=7/15
Year=2014
Genre=Dark Electro / Harsh EBM

[/more]

Register
(6) gwynnbleid, Jurmagund, Precaria, Radiosilence, satanist666, Velkaarn,
Apr 6 2016, 20:29:29 Bestias De Asalto - Sectas De La Guerra (2014)


*Artist: Bestias De Asalto
*Album: Sectas De La Guerra
*Year: 2014
*Genre: Dark Electro
*Country: Mexico
*Format: mp3@CBR320kbps
*Size: 101MB

Tracklist:
1 - Infernal Gun Machine 5:08
2 - Sargento Dolor 4:26
3 - Korengal 3:36
4 - Savagery Of Terrorist Attack 5:24
5 - M.D.C. (Military Death Commander) 4:30
6 - Himno De Guerra 4:17
7 - Sacrifice Annihilation 3:38
8 - Cadaveres 3:31
9 - Sexo Psicotico 4:29
10 - Sectas De La Guerra 5:43
******************************
Total playing time: 44:42



[more=Technical info]
Input File: 04. Savagery Of Terrorist Attack.mp3
Channels : 2
Sample Rate : 44100
Precision : 16-bit
Duration : 00:05:23.74 = 14276846 samples = 24280.4 CDDA sectors
File Size : 13.0M
Bit Rate : 322k
Sample Encoding: MPEG audio (layer I, II or III)
Comments :
Title=Savagery Of Terrorist Attack
Artist=Bestias De Asalto
Album=Sectas De La Guerra
Tracknumber=4
Year=2014
Genre=Dark Electro

[/more]

Register
(5) gwynnbleid, Hell_Is_Here, Jurmagund, satanist666, Zimorodok,
Apr 6 2016, 20:05:29 Venal Flesh - Worshiping At The Altar Of Artifice (2016)


*Artist: Venal Flesh
*Album: Worshiping At The Altar Of Artifice
*Year: 2016
*Genre: Dark Electro
*Country: United States
*Format: mp3@CBR320kbps
*Size: 260MB

Tracklist:
1.Cortege of Impure Flesh 2:43
2.Grotesque (Self-Portrait) 5:38
3.Emulgent Disfigurement 6:59
4.Needles 05:35
5.Apostate 05:12
6.Servant Of The Scalpel 2:16
7.Curette 5:27
8.A Fire Infolding Itself 6:16
9.Lexincrypt — Perdition (feat. Lexincrypt)6:31
10.The Black Prism0 6:13
11.Incurable 9:10
12.Second Offering To The Altar 1:35
13.Grotesque (Original Portrait) 5:55
14.Stasis 6:04
15.Amyloid Plaque 6:05
16.Tissue Mill 5:41
17.Kuang Eleven (club mix) 6:33
18.A Fire Infolding Itself (A7ie remix) 5:00
19.Grotesque (Dunkelwerk remix) 4:26
20.Stasis (Mnemonic remix) 6:09
21.Grotesque (Adeonesis remix) 4:12
******************************
Total playing time: 1:53:40




[more=Extended info]Довольно неплохо, есть конечно свои минусы и плюсы, но надеемся на потенциал. Особо хотелось бы отметить A Fire Infolding Itself (A7ie remix)

Краткая выдержка из Синтемы.

Дебютную работу американского проекта Venal Flesh, созданного усилиями Дэна Баррета (лидер экспериментально-индустриальной группы Worms of the Earth) было крайне интересно послушать в виду его прошлых творческих поступков. Начало было положено демо-материалом "Remotum Ex Carnis Sancta", который в скором времени попал на глаза студии Alfa Matrix, подписавшей с дарк электро музыкантом свежий контракт на издание официальных синглов и полноформатного альбома. Ударной промоушен-силой стал отдельно записанный трек "Emulgent Disfigurement", который обзавелся синглом, а потом стал своевременным боевым хитом мини-диска "Sacrament to the Scalpel". Теперь же дошла очередь и до полноценного первого альбома "Worshiping At the Altar of Artifice", который основательно готовился три года для показа реального потенциала группы.[/more]

[more=Technical info]
Input File: 18 - A Fire Infolding Itself (A7ie Remix).mp3
Channels : 2
Sample Rate : 44100
Precision : 16-bit
Duration : 00:05:00.26 = 13241290 samples = 22519.2 CDDA sectors
File Size : 12.0M
Bit Rate : 320k
Sample Encoding: MPEG audio (layer I, II or III)
Comments :
Title=A Fire Infolding Itself (A7ie Remix)
Artist=Venal Flesh
Album=Worshiping at the Altar of Artifice
Tracknumber=18
Year=2016
Genre=Dark Electro

[/more]

Register
(3) Hell_Is_Here, Jurmagund, satanist666,
Feb 28 2016, 21:20:05 H.EXE - Human Flesh Recipes (2014)


*Artist: H.EXE
*Album: Human Flesh Recipes
*Year: 2014
*Genre: Dark Electro/Aggrotech
*Country: Poland
*Format: mp3@CBR320kbps
*Size: 130MB

Tracklist:
1. Time of Contempt 05:04
2. Blood Drain 04:14
3. 300 04:59
4. Hear Me As I Call 04:52
5. Seven Lovely Sins 04:44
6. Independent Mind 04:34
7. Two Black Cats 05:18
8. Miles Away 05:13
9. A Friend Worse Than An Enemy 04:50
10. Underground 05:02
11. The Music of Erich Zann 06:25
******************************
Total playing time: 55:15



[more=Extended info]История группы берет свое начало в 2010 году, когда ее будущие участники состояли в других электро-проектах, таких как Egrimonia, Thy Worshiper и d'Archangel. Проект был образован музыкантом Odo (вокал) в 2010 году, позже к нему присоединился Rex Rotten (клавишные, программирование). Наибольшее влияние, по словам музыкантов, на них оказали такие группы, как Adam Kult, Aslan Faction, AktiveHate, Grendel, Psyclon Nine, Cyborg Attak и Suicide Commando.[/more]

[more=Technical info]
Input File: 02 Blood Drain.mp3
Channels : 2
Sample Rate : 44100
Precision : 16-bit
Duration : 00:04:14.09 = 11205501 samples = 19057 CDDA sectors
File Size : 10.5M
Bit Rate : 331k
Sample Encoding: MPEG audio (layer I, II or III)
Comments :
Title=Blood Drain
Artist=H.EXE
Album=Human Flesh Recipes
Tracknumber=02/11
Year=2014
Genre=Dark Electro / Aggrotech

[/more]

Register
(2) gwynnbleid, Jurmagund,
Feb 28 2016, 20:56:49 Diversant:13 - New World Disorder (2014)


*Artist: Diversant:13
*Album: New World Disorder
*Year: 2014
*Genre: Dark Electro/Harsh EBM
*Country: Belarus
*Format: mp3@CBR320kbps
*Size: 160MB

Tracklist:
01. Equinox [5:14]
02. Borderlands [3:50]
03. Leave The Hope Alone [4:54]
04. Icarus [4:07]
05. Spit The Fire Out [5:51]
06. Here Comes The Storm [4:53]
07. Bleeding Sun [4:51]
08. Better Be Dead [4:35]
09. Reborn [4:31]
10. New World (feat. Omnimar) [4:57]
11. Frontlines [4:16]
12. Spit The Fire Out (Cygnosic remix) [3:16]
13. Equinox (Apocalyptic remix by Nitro/Noise) [4:36]
14. Bleeding Sun (Cutoff:Sky remix) [4:32]
15. Better Be Dead (Zombie-Synth Version by Freaky Mind) [5:25]
******************************
Total playing time: 1:09:48




[more=Extended info]EBM/Dark Electro формация Diversant:13 была создана в 2007 году в составе Diversant – вокал, музыка, программирование, и сессионных музыкантов. За это время лимитированным тиражом был выпущен EP «SoulReaper», команда активно и успешно выступала в Беларуси и Украине, совместно с такими командами как MIND:SHREDDER.[/more]

[more=Technical info]
Input File: 01. Equinox.mp3
Channels : 2
Sample Rate : 44100
Precision : 16-bit
Duration : 00:05:13.82 = 13839242 samples = 23536.1 CDDA sectors
File Size : 12.8M
Bit Rate : 327k
Sample Encoding: MPEG audio (layer I, II or III)
Comments :
Title=Equinox
Artist=Diversant:13
Album=New World Disorder
Tracknumber=1
Year=2014
Genre=dark electro

[/more]

Register
(2) gwynnbleid, Jurmagund,
Feb 20 2016, 19:12:26 Cellhavoc - Only Filth Remains (2015)


*Artist: Cellhavoc
*Album: Only Filth Remains
*Year: 2015
*Genre: Aggrotech/Dark Electro/Harsh EBM
*Country: Finland
*Format: mp3@CBR320kbps
*Size: 95MB

Tracklist:
1.Mechanical Eden 04:32
2.We Are (feat. Audiocentesis) 03:06
3.Destroy Everything 05:52
4.Rain (feat. Maija Rautasuo) 04:02
5.Mind Control 03:12
6.Awakening 04:10
7.Psychosis (feat. Exemia) 05:30
8.Sever the Flesh 04:34
9.Only Filth Remains 05:59
******************************
Total playing time: 40:57




[more=Technical info]
Input File: 04 Rain (feat. Maija Rautasuo).mp3
Channels : 2
Sample Rate : 44100
Precision : 16-bit
Duration : 00:04:02.91 = 10712287 samples = 18218.2 CDDA sectors
File Size : 9.72M
Bit Rate : 320k
Sample Encoding: MPEG audio (layer I, II or III)
Comments :
Title=Rain (feat. Maija Rautasuo)
Artist=Cellhavoc
Album=Only Filth Remains
Tracknumber=4
Year=2015

[/more]

Register
(3) gwynnbleid, MAYH, Radiosilence,
Oct 2 2015, 22:36:52 Necrotoxicoz - Bl00dSh0t (2015)
ЦИТАТА(scrollbar @ Sep 29 2015, 12:24:43) *
Вот это уже интересно. Нет ли у тебя еще альбомов Truppenterror кроме 2010 года и Jaakko Vanhala?

Труппен вроде старый был, завтра гляну что завалялось, если что - залью)
(1) scrollbar,
Aug 30 2015, 10:40:40 Necrotoxicoz - Bl00dSh0t (2015)


*Artist: Necrotoxicoz
*Album: Bl00dSh0t
*Year: 2015
*Genre: Terror Ebm/Dark Electro
*Country: Russian Federation
*Format: mp3@CBR320kbps
*Size: 129MB

Tracklist:
1. Duty [Introduction] 02:26
2. Open the Gates Of Hell 04:36
3. Hack & Slash 05:30
4. Bl00dSh0t 03:09
5. Fuck Yourself 03:37
6.Hardcore Shemale 04:02
7. I See Angels 05:04
8. Массовый Убийца 07:51
9. You Are Condemned 04:36
10. Slave 04:17
11. Serial Killer 05:27
12. Портал Иуды 03:51
13. Hack & Slash (Splitting Of Reality Remix) 02:58
******************************
Total playing time: 57:24



[more=Extended info]Necrotoxicoz - это заражение вирусом морального гниения, гниения души и плоти, это можно воспринимать как в прямом, так и в переносном сысле. Это чистая ненависть к давлению социальных норм и правил на внутреннее естество человека. Через свое творчество, я открываю путь ко всем Вашим внутренним "демонам" и даю им жизнь! Вы свободные люди, Вы Творцы, Вы Боги, Вы имеете право заявить миру о себе, надеюсь эта музыка даст Вам сил преодолеть всю грязь, которую Вам с детства вбивают в голову. Это ненависть к тем, кто пытается подогнать Вас под общий шаблон, дабы Вы подражали их общественному полуроботоизированному идеалу.[/more]

[more=Technical info]
Input File: 04 Bl00dSh0t.mp3
Channels : 2
Sample Rate : 44100
Precision : 16-bit
Duration : 00:03:09.23 = 8345175 samples = 14192.5 CDDA sectors
File Size : 7.57M
Bit Rate : 320k
Sample Encoding: MPEG audio (layer I, II or III)
Comments :
Title=Bl00dSh0t
Artist=NECROTOXICOZ
Album=Bl00dSh0t
Tracknumber=4
Year=2015
Genre=Harsh EBM, Dark Electro

[/more]

Register
(6) DMIYUR, gwar, Hell_Is_Here, Jurmagund, lucifix, Shadowman,
Jun 3 2015, 07:26:42 Drone Unit - Mechanical Corpse (2014)


*Artist: Drone Unit
*Album: Mechanical Corpse
*Year: 2014
*Genre: Dark Electro/Aggrotech/Industrial Metal
*Country: United States
*Format: mp3@CBR320kbps
*Size: 76MB

Tracklist:
1. Remove The Flesh 03:16
2. Not Human 03:25
3. Slaves 03:40
4. Mechanical Corpse 03:41
5. Numb 04:02
6. Push Me 03:01
7. Down With The Rain 04:44
8. Pointless Existence 02:23
9. Defective 03:13
******************************
Total playing time: 31:25



[more=Extended info]Спасибо товарищам с Ваты за такую чудесную тарахтелку.[/more]

[more=Technical info]
Input File: Drone Unit - Mechanical Corpse - 07 Down With The Rain.mp3
Channels : 2
Sample Rate : 44100
Precision : 16-bit
Duration : 00:04:44.08 = 12528016 samples = 21306.1 CDDA sectors
File Size : 11.5M
Bit Rate : 325k
Sample Encoding: MPEG audio (layer I, II or III)
Comments :
Title=Down With The Rain
Artist=Drone Unit
Album=Mechanical Corpse
Tracknumber=7
Year=2014

[/more]

Register
(6) gwar, gwynnbleid, Hell_Is_Here, igorzz, Jurmagund, scrollbar,
Feb 22 2015, 20:26:30 Xeroderma - The Reckoning (2015)
Послушал - збс! Эстетик, красава, продолжаешь радовать релизами 9.gif
Да вообще, день плодотворный в плане поиска музыки оказался.
(1) aesteticvice,
Dec 21 2013, 10:55:20 Death Of All Gods - Different Ways Of Feeling Pain (2013)
aesteticvice, отличная штука 9.gif
(1) aesteticvice,
Nov 24 2013, 20:28:38 A.D.R.O.N. - Be Subordinated (2011)


*Artist: A.D.R.O.N.
*Album: Be Subordinated
*Year: 2011
*Genre: Terror EBM, Hellektro, Industrial
*Country: Russian Federation
*Format: mp3@CBR320kbps
*Size: 80MB

Tracklist:
1. Perfection Of Greatness
2. The Split Flesh
3. Least Total Denominator
4. Death Sees Your Name
5. Be Subordinated
6. God Mode Enabled
7. Resistance Of Useless
8. World Chaos
9. Iron Fist
10. Apostasy (Cover Xentrifuge)
11. Millennium Of Decays
******************************
Total playing time: 38:42



[more=Extended info]Создателей A.D.R.O.N. вдохновляет мир постапокалиптической тематики.
Падение цивилизации, возрождение новой эры машин и киборгов, кибернетический разум, всеобщая вражда индустриального мира к живым организмам.
Тотальный хаос на жалкой, никчемной планете. Это ужасающее приближение действительности передано через злобу и боль, заключенную в титановый каркас чудовищной машины, которая щедро излучает радиацию и несет смертоносный, перегруженный звук. A.D.R.O.N. состоит из кипящей негативной энергии,
выплескивающейся в мерзкий, вызывающий отвращение синтетический вокал. Тяжелые, как шаги апокалипсиса биты, и неистовствующий гневом синтезатор,повергает слушателя в беспросветную и страшную эпоху техноцивилизации…[/more]

[more=Technical info]
Input File: 05 - Be Subordinated.mp3
Channels : 2
Sample Rate : 44100
Precision : 16-bit
Duration : 00:04:21.07 = 11513187 samples = 19580.2 CDDA sectors
File Size : 10.4M
Bit Rate : 320k
Sample Encoding: MPEG audio (layer I, II or III)
Comments :
Title=Be Subordinated
Artist=A.D.R.O.N.
Album=Be Subordinated
Tracknumber=5
Year=2011
Genre=Hellektro

[/more]

Register
(3) gwar, Jurmagund, kefka,
Nov 4 2013, 15:01:35 Herrschaft - Les 12 Vertiges (2013)


*Artist: Herrschaft
*Album: Les 12 Vertiges
*Year: 2013
*Genre: Industrial Metal
*Country: France
*Format: mp3@CBR256kbps
*Size: 95MB

Tracklist:
01. Gates To Dream 5:10
02. Kimi Ga Yo 4:51
03. Disorder Mind Mechanics 3:14
04. Seducing Dementia 4:26
05. Rat In Cage 3:56
06. Endlessly Revolting 4:33
07. Whispering Clouds 5:11
08. Bloodpulse 3:58
09. Virtual Medication 3:59
10. Allmighty 4:07
11. Thrity Six 5:08
12. Mephedron Trip 4:40
******************************
Total playing time: 53:13



[more=Extended info]Группа была образована в конце 2004 года, благодаря вокалисту и автору текстов MX. В стремлении создать группу, он нашел сначала ударника, а затем гитариста. Трио сошлось довольно быстро, благодаря общему интересу к экстремальному металу и электронной музыке. В то время был задан основной вектор развития: группа, которая станет отражением обеих сторон величественного и чудовищного мира, но будет связана с разрушением.
Тексты песен основаны на пост-апокалиптических пейзажах будущего, времени, когда люди добились всего, но после глобальной катастрофы вернулись к животным инстинктам и природе.[/more]

Register
(19) Alpha_Prime, avkruchinin, BladeOvDarkness, Buregon, dorn1, garretje, GoatFucker, gwar, Kwaad, Nightkult, okarodb, Sleipnir, SurFacinG, ulterior_wolf, ViPeR_2540, yuratroll, zerger, zyklon, некрософ,
Apr 7 2012, 12:42:17 Truppenterror - Cenizas De La Piedad (2010)


*Artist: Truppenterror
*Album: Cenizas De La Piedad
*Year: 2010
*Genre: Harsh EBM/Noise/Aggrotech
*Country: Argentina
*Format: mp3@CBR320kbps
*Size: 136MB

Tracklist:
01. Genesis 01:38
02. Salmo XXIII 03:19
03. Judas Confession 05:04
04. Serpentor 04:29
05. Verfaulter Christus 03:53
06. Luzifer Gebote 04:10
07. Cenizas De La Piedad 03:15
08. Father (Of Destruction) 03:57
09. Punisher Of Starving Children 03:50
10. 18-J (Devasting Souls) 04:31
11. God's Soldiers 05:15
12. Revelations 05:15
13. La Sangre De Cristo 03:50
14. Saints And Demons 03:40
15. Judas Confession (A7iemix) 05:13
16. Luzifer Gebote (Deadjump Remix) 06:05
17. 18-J (Zardonic Remix) 06:21
18. Cenizas De La Piedad (Synchromode Remix) 05:17
******************************
Total playing time: 1:19:02



Register
(4) gwar, Hell_Is_Here, kefka, scrollbar,
Apr 6 2012, 16:53:24 Deception Cost - Симбиоз [ep] (2011)


*Artist: Deception Cost
*Album: Симбиоз [ep]
*Year: 2011
*Genre: EBM/Dark Electro
*Country: Russian Federation
*Format: mp3@CBR320kbps
*Size: 72MB

Tracklist:
01 - 1408 (Bonus track)
02 - Огненная земля
03 - Ослепленные
04 - feat.iXodes - Ни нас ни Государство [DsC mix]
05 - Хищники (Bonus track)
06 - Разделение (Bonus track)
******************************
Total playing time: 29:57



Register
(3) ghostWhite, gwar, Hell_Is_Here,
Apr 6 2012, 16:36:37 A7ie - Narcissick [ep] (2011)


*Artist: A7ie
*Album: Narcissick [ep]
*Year: 2011
*Genre: EBM/Dark Electro/Industrial
*Country: France
*Format: mp3@CBR320kbps
*Size: 136MB

Tracklist:
01. Lullaby Of Pain (Club Mix) 06:45
02. Some Kind Of Hate (Remixed by Kaos Frequenz) 05:01
03. I, Liar (Touched by Stahlnebel & Black Selket) 06:00
04. Martyr (Remixed by Centhron) 04:45
05. Stay (Remixed by Syndrome X209 V1.0) 04:29
06. The Blaze 04:57
07. Angels (Remixed by Niteshift) 05:39
08. Some Kind Of Hate (Wyjebany Mix by Rsm) 04:34
09. The Blaze (Remixed by Project Rotten) 05:24
10. Neuroleptics (Vs Nexus VI) 04:08
11. Some Kind Of Hate (Remixxx by Dolls Of Pain) 05:00
12. Angels (Be Forwarned Mix by The Twilight Freakshow) 05:55
******************************
Total playing time: 57:00



Register
(5) ghostWhite, gwar, Hell_Is_Here, waldemardr, Xaphan,
Aug 20 2011, 00:40:51 Tidfall - Nucleus (2003)
Ну и это в реанимацию)
Register
(1) SedachinskiVlas,
Aug 20 2011, 00:39:58 Tidfall - Instinct Gate (2002)
Реанимировал ссылки
Register
(2) SedachinskiVlas, SilentNidhogg,
Dec 15 2010, 10:31:52 Hioctan - Under Control (2010)


*Artist: Hioctan
*Album: Under Control
*Year: 2010
*Genre: Dark Electro/Industrial
*Country: Germany
*Format: mp3@CBR320kbps
*Size: 152MB

Tracklist:
01. Pax Veritas 02:23
02. Damned Society 05:15
03. Passion Of Cruelty 05:20
04. Under Control 05:31
05. Collison 04:46
06. Sonderbehandlung 04:37
07. Pax Americana 05:01
08. Sleepless 04:40
09. The Great Deception 04:32
10. Pretender 05:09
11. Sacred Attraction 04:58
12. Aim Of Life 05:04
13. Shine On Me (2010) 05:00
14. Sacrifice My Fear 04:20
******************************
Total playing time: 1:06:36



Register
(4) bka, gwar, Jurmagund, Sgrebrd,
Dec 15 2010, 09:40:30 Dawn Of Ashes - Genocide Chapters (2010)
Соглашусь со Snap'ом,мелодик тут есть и причем совсем немало.
Дошел таки до меня диск,хороший альбомчик,да,электро составляющей,которой группа притянула уже нема,но есть вполне неплохой метал, что тоже есть гуд.
Mp3 320 kbps [Lame 3.98 Cd-Rip]
Register

Все сделано по правилам,не отказался бы от вбиения в шапку 28.gif
(6) Disfigurator, dorn1, logunarm, MAYH, Typhoid, zuskr,
Nov 16 2010, 15:54:33 Aktivehate - In Terrorem (2010)


*Artist: Aktivehate
*Album: In Terrorem
*Year: 2010
*Genre: EBM/Dark Electro/Industrial
*Country: Portugal
*Format: mp3@CBR320kbps
*Size: 159MB

Tracklist:
01. My Own God (05:06)
02. FU (05:13)
03. Sore Eyes (05:41)
04. Knee Deep (05:04)
05. Mixed Feelings (04:10)
06. Diseased (05:51)
07. Phantom (04:05)
08. 00h00 (06:05)
09. Sacramentum (02:31)
10. Play The Game (05:01)
11. Handful Of Nothing (04:14)
12. Trigger Happy (04:39)
13. Chemicals (05:09)
14. Bipolar (05:34)
15. Play The Game (Twilight Freakshow Monster And Servant Mix) (05:36)
******************************
Total playing time: 1:13:59



Register
(8) bka, Forest Silence, garretje, gwar, Mihxaar, mikethebeast, satanist666, sperminator,
Nov 14 2010, 21:48:28 A7ie - The Shattering (2010)


*Artist: A7ie
*Album: The Shattering
*Year: 2010
*Genre: EBM/Dark Electro/Industrial
*Country: France
*Format: mp3@CBR320kbps
*Size: 151MB

Tracklist:
1 Scars 5:29
2 Some Kind Of Hate 5:32
3 Neuroleptics 5:14
4 Angels (Dancing In The Dust) 5:38
5 Slay (In Silence) 4:47
6 Martyr 6:02
7 Words Of Violence 6:38
8 I, Liar 5:19
9 Inner Flight 7:22
10 Untitled 5:01
11 Some Kind Of Hate (Eternal Hate By PreEmptive Strike 0.1) 4:24
12 Angels (Fallen Mix By Aktive:Hate) 4:24
13 Neuroleptics (Terror Body Mix By Sadiztik Injektion) 5:28
14 Angels (Remix By Adeonesis) 4:46
******************************
Total playing time: 1:16:04



Register
(7) bka, gwar, haldreki, icingsugar, Mihxaar, mikethebeast, User123,

8 Pages V   1 2 3 > » 
- Lo-Fi Version Support form
Copyrights and abuse reports form
Time is now: 7th December 2019 - 05:24:45