Welcome Guest ( Log In | Register )

История благодарностей участнику Whitefish ::: Спасибо сказали: 330 раз(а)
Дата поста: В теме: За сообщение: Спасибо сказали:
Sep 21 2019, 23:21:26 Villagers Of Ioannina City - Age Of Aquarius (2019)


*Artist: Villagers Of Ioannina City
*Album: Age Of Aquarius
*Year: 2019
*Genre: Stoner Metal/Psychedelic
*Country: Greece
*Format: mp3@CBR320kbps
*Size: 150MB

Tracklist:
1. Welcome 02:58
2. Age of Aquarius 08:43
3. Part V 09:47
4. Dance of Night 08:33
5. Arrival 01:52
6. Father Sun 08:37
7. Millennium Blues 08:42
8. Cosmic Soul 09:03
9. For the Innocent 05:02
10. Sparkle out of Black Hole 02:30
******************************
Total playing time: 1:05:47

[more=Extended info]https://open.spotify.com/album/6qvEBNlB4rS4trNxuP2gAe <br /https://www.youtube.com/watch?v=SrVmSJ5CHc4...4aNMDeJDomp5SS4[/more]

[more=Technical info]
Input File: 2 - Age of Aquarius.mp3
Channels : 2
Sample Rate : 44100
Precision : 16-bit
Duration : 00:08:43.21 = 23073649 samples = 39240.9 CDDA sectors
File Size : 21.0M
Bit Rate : 321k
Sample Encoding: MPEG audio (layer I, II or III)
Comments :
Title=Age of Aquarius
Artist=Villagers of Ioannina City
Album=Age of Aquarius
Tracknumber=2
Year=2019

[/more]

Register
(24) 666days, ahp, artscald, Black Cat, BlackTroll, CryptOn, gena, Kalnasra, LEGION69, lucifix, marilin, metala, Olethros, rammmirez, robertho777, Rosen, SatanicPanzer, spiritualdecay666, StabWound, stumpheavyrock, TAKATAEL, VALERY, whitebros, wreak,
Sep 18 2019, 22:47:29 Warbell - Plague (2019)


*Artist: Warbell
*Album: Plague
*Year: 2019
*Genre: Melodic Death Metal
*Country: Poland
*Format: mp3@CBR320kbps
*Size: 85MB

Tracklist:
1. Dualmind 02:55
2. Every Storm 02:56
3. Plague 03:14
4. The Fallen 05:49
5. Wolfpack 03:55
6. The Flames of Truth 03:00
7. Dethronement 02:57
8. Wheel of Life 03:31
9. Icaros 03:34
10. Marcenary's Fate 03:11
11. The Passenger 04:27
******************************
Total playing time: 39:29



[more=Technical info]
Input File: 2 - Every Storm.mp3
Channels : 2
Sample Rate : 44100
Precision : 16-bit
Duration : 00:02:55.48 = 7738536 samples = 13160.8 CDDA sectors
File Size : 7.02M
Bit Rate : 320k
Sample Encoding: MPEG audio (layer I, II or III)
Comments :
Title=Every Storm
Artist=Warbell
Album=Plague
Tracknumber=2
Year=2019

[/more]

Register
(6) infiltrator, infozahist, metalwoman, Olethros, sergsazan, wn129aa,
Aug 23 2019, 18:35:51 Zentaura - Xxist Century's Sick Society (2019)


*Artist: Zentaura
*Album: Xxist Century's Sick Society
*Year: 2019
*Genre: Gothic/Industrial Metal
*Country: Spain
*Format: mp3@CBR320kbps
*Size: 153MB

Tracklist:
01. Foe (00:48)
02. Hspania · Pellis Tauri (05:44)
03. Slaves of Fashion (05:31)
04. Holly (04:01)
05. Killing My Dread (06:24)
06. Not a Chance for a Stranger (05:08)
07. Great Projection (04:54)
08. Black Venom (05:33)
09. The Fear of the Madness (00:06:04)
10. Hispania · Pellis Tauri (Instrumental Version) (05:45)
11. Killing My Dread (Ambiental Version) (06:21)
12. Not a Chance for a Stranger (Orchestral Version) (04:57)
13. Great Projection (Bonus 4) (04:44)
******************************
Total playing time: 59:56

[more=Technical info]
Input File: 02 - Hspania · Pellis Tauri.mp3
Channels : 2
Sample Rate : 44100
Precision : 16-bit
Duration : 00:05:44.34 = 15185482 samples = 25825.6 CDDA sectors
File Size : 13.9M
Bit Rate : 323k
Sample Encoding: MPEG audio (layer I, II or III)
Comments :
Title=Hspania · Pellis Tauri
Artist=Zentaura
Album=Xxist Century Sick Society
Tracknumber=02
Year=2019
Genre=Gothic | Industrial Metal

[/more]

Register
(4) artscald, Cartman223, gwar, Olethros,
Aug 21 2019, 20:37:26 Besvärjelsen - Frost [ep] (2019)


*Artist: Besvärjelsen
*Album: Frost [ep]
*Year: 2019
*Genre: Psychedelic/Occult Doom Metal
*Country: Sweden
*Format: mp3@CBR320kbps
*Size: 64MB

Tracklist:
1. When We Fall 04:45
2. All Things Break 05:04
3. In the Dark 05:25
4. Human Habits 04:24
5. Past in Haze 07:18
******************************
Total playing time: 26:56



[more=Extended info]For fans of Avatarium[/more]

[more=Technical info]
Input File: 2 - All Things Break.mp3
Channels : 2
Sample Rate : 44100
Precision : 16-bit
Duration : 00:05:03.98 = 13405518 samples = 22798.5 CDDA sectors
File Size : 12.8M
Bit Rate : 336k
Sample Encoding: MPEG audio (layer I, II or III)
Comments :
Title=All Things Break
Artist=Besvärjelsen
Album=Frost
Tracknumber=2
Year=2019

[/more]

Register
(13) artscald, fffrost, gena, marilin, MikaelBox, oldvarg, Olethros, Ostinato, robertho777, Rosen, stub888, wreak, yuratroll,
Aug 21 2019, 20:15:55 Gorebringer - A Craving For Flesh (2019)


*Artist: Gorebringer
*Album: A Craving For Flesh
*Year: 2019
*Genre: Melodic Death Metal
*Country: United Kingdom
*Format: mp3@CBR320kbps
*Size: 94MB

Tracklist:
1. The Fog 05:54
2. Meatporn 03:17
3. Rivers of Blood 03:46
4. My Sweet Knife 04:34
5. The Cabin 06:29
6. Shattered Sanity 04:42
7. Bloodsoaked Chapel 03:30
8. The Hollow 04:30
9. The Restless Forest 04:41
******************************
Total playing time: 41:23



[more=Technical info]
Input File: 2 - Meatporn.mp3
Channels : 2
Sample Rate : 44100
Precision : 16-bit
Duration : 00:03:17.32 = 8701636 samples = 14798.7 CDDA sectors
File Size : 7.98M
Bit Rate : 323k
Sample Encoding: MPEG audio (layer I, II or III)
Comments :
Title=Meatporn
Artist=Gorebringer
Album=A Craving for Flesh
Tracknumber=2
Year=2019
Genre=Melodic Death Metal

[/more]

Register
(16) AHBAnep, Alacc17, artscald, BugEyes, fffrost, metalwoman, Mogozoz, Old Vyaine, oldvarg, Olethros, Ostinato, Rosen, sergsazan, wanderer73, wn129aa, wreak,
Aug 5 2019, 14:19:11 Новости DOOM Metal
My Dying Bride

ЦИТАТА
It is complete! The new album from My Dying Bride! It has taken quite some time to put together but it is now finished and is with Nuclear Blast as I write this.



(1) Ghostb,
Jul 30 2019, 22:32:34 Khazad Dûm - Khásma (2019)


*Artist: Khazad Dûm
*Album: Khásma
*Year: 2019
*Genre: Black/Death Metal
*Country: Brazil
*Format: mp3@CBR320kbps
*Size: 100MB

Tracklist:
1. I Lust 05:52
2. He Who Fights Fiends 03:25
3. Khásma I (Floating) 02:12
4. Dol Amroth 06:29
5. The Penitent 05:58
6. Celebrimbor 04:23
7. The Call 06:06
8. Flood 06:47
9. Khásma II (Falling) 02:44
******************************
Total playing time: 43:56



[more=Technical info]
Input File: 2 - He Who Fights Fiends.mp3
Channels : 2
Sample Rate : 44100
Precision : 16-bit
Duration : 00:03:26.02 = 9085306 samples = 15451.2 CDDA sectors
File Size : 8.29M
Bit Rate : 322k
Sample Encoding: MPEG audio (layer I, II or III)
Comments :
Title=He Who Fights Fiends
Artist=Khazad Dûm
Album=Khásma
Tracknumber=2
Year=2019

[/more]

Register
(14) alikkon, artscald, infiltrator, judaz, kim666, Olethros, Ostinato, Reverend, Rosen, VALERY, vasiljev_sergej, whiteknight, wreak, Луч,
May 25 2019, 15:12:00 Visigoth - Bells Of Awakening [ep] (2019)


*Artist: Visigoth
*Album: Bells Of Awakening [ep]
*Year: 2019
*Genre: Heavy/Power Metal
*Country: United States
*Format: mp3@CBR320kbps
*Size: 22MB

Tracklist:
1. Fireseeker 04:37
2. Abysswalker 05:07
******************************
Total playing time: 9:44



[more=Technical info]
Input File: 1 - Fireseeker.mp3
Channels : 2
Sample Rate : 44100
Precision : 16-bit
Duration : 00:04:37.94 = 12256934 samples = 20845.1 CDDA sectors
File Size : 11.1M
Bit Rate : 320k
Sample Encoding: MPEG audio (layer I, II or III)
Comments :
Title=Fireseeker
Artist=Visigoth
Album=Bells of Awakening
Tracknumber=1
Year=2019

[/more]

Register
(21) ahp, aviacademy, Boozer, Dark Sage, Druidir, dulak, fabriziomagno, Forest, infozahist, LightWizard, Mogozoz, nord6666, Olethros, Reverend, Rosen, smes, stumpheavyrock, Vraithee, Witchmaster, wreak, Zaephar,
May 14 2019, 22:34:26 Green Lung - Woodland Rites (2019)


*Artist: Green Lung
*Album: Woodland Rites
*Year: 2019
*Genre: Psychedelic Stoner Rock
*Country: United Kingdom
*Format: mp3@CBR320kbps
*Size: 97MB

Tracklist:
1. Initiation 2:33
2. Woodland Rites 4:33
3. Let the Devil In 5:00
4. The Ritual Tree 6:48
5. Templar Dawn 5:41
6. Call of the Coven 4:44
7. May Queen 6:41
8. Into the Wild 6:50
******************************
Total playing time: 42:50



[more=Technical info]
Input File: 02 - Woodland Rites.mp3
Channels : 2
Sample Rate : 44100
Precision : 16-bit
Duration : 00:04:33.81 = 12074889 samples = 20535.5 CDDA sectors
File Size : 11.1M
Bit Rate : 324k
Sample Encoding: MPEG audio (layer I, II or III)
Comments :
Title=Woodland Rites
Artist=Green Lung
Album=Woodland Rites
Tracknumber=02
Year=2019
Genre=Psychedelic Stoner Rock

[/more]

Register
(6) A.L.Rapsod, Diflock, marilin, Olethros, snot, stub888,
May 14 2019, 21:59:26 El Altar Del Holocausto - -I T- (2019)


*Artist: El Altar Del Holocausto
*Album: -I T-
*Year: 2019
*Genre: Post-Metal/Experimental
*Country: Spain
*Format: mp3@CBR320kbps
*Size: 90MB

Tracklist:
1. I · Because evident is God’s wrath from heaven against all impiety and injustice of men, that they stop the truth with injustice. 4:18
2. II · Love your enemies, do good to those who hate you, bless those who curse you, pray for those who insult you. If someone hits you on one cheek, offer them the other one. 7:00
3. III · Moses stretched out his hand over the sea, and the Lord, by means of a strong Eastern wind throughout the night, He caused the sea to retreat, and changed the sea into dry land. Thus the waters were divided. 5:42
4. IV · I have seen his ways, but I will heal him; I will guide him and give him comfort and those who cry with him, I have also given you clean teeth in all your cities, and lack of bread in all your places; but you have not turned against me. 6:51
5. V · From the Heart of Jesus opened on the cross, the man with the new heart is born. Lord Jesus, give me a new heart made in the image of yours, infuse a new spirit in the depths of my being, that keeps me open to God, our Father, and available to those who share with me the way of life. 5:29
6. VI ·They took off his clothes and put a scarlet mantle on him. Then they braided a crown of thorns and placed it on his head. Kneeling before him, they mocked, saying "Hail, King of the Jews!". There is no good tree that can bear bad fruit, nor bad tree that can bear good fruit. 10:09
******************************
Total playing time: 39:29



[more=Technical info]
Input File: EL ALTAR DEL HOLOCAUSTO - I.mp3
Channels : 2
Sample Rate : 44100
Precision : 16-bit
Duration : 00:04:18.42 = 11396322 samples = 19381.5 CDDA sectors
File Size : 10.3M
Bit Rate : 320k
Sample Encoding: MPEG audio (layer I, II or III)
Comments :
Title=I · Because Evident Is God’s Wrath From Heaven Against All Impiety And Injustice Of Men, That They Stop The Truth With Injustice.
Artist=El Altar Del Holocausto
Album=-I T-
Tracknumber=1
Year=2019

[/more]

Register
(6) A.L.Rapsod, dunkelvarg, Olethros, sweetredka, tOmV, дивин,
Apr 21 2019, 13:52:55 Slægt - Black Bombs [ep] (2019)


*Artist: Slægt
*Album: Black Bombs [ep]
*Year: 2019
*Genre: Black/Heavy Metal
*Country: Denmark
*Format: mp3@CBR320kbps
*Size: 23MB

Tracklist:
1. Black Bombs 05:41
2. Wake Dirge 04:23
******************************
Total playing time: 10:04



[more=Technical info]
Input File: 01-Black Bombs.mp3
Channels : 2
Sample Rate : 44100
Precision : 16-bit
Duration : 00:05:41.42 = 15056446 samples = 25606.2 CDDA sectors
File Size : 13.7M
Bit Rate : 320k
Sample Encoding: MPEG audio (layer I, II or III)
Comments :
Title=Black Bombs
Artist=Slægt
Album=Black Bombs
Tracknumber=1
Year=2019

[/more]

Register
(24) ahp, Alexis The Best, Boozer, cancer1974, Emhyr var Emreis, Hellstriker, Hell_Is_Here, helvetestoner, kolar666, marilin, METALHUNTER, Naxah, Olethros, rammmirez, Rosen, satanist666, Sjelekval, smysl, stub888, stumpheavyrock, VALERY, vasiljev_sergej, VTX, yuratroll,
Apr 20 2019, 10:48:33 Druids - Monument (2019)


*Artist: Druids
*Album: Monument
*Year: 2019
*Genre: Doom/Stoner Metal
*Country: United States
*Format: mp3@CBR320kbps
*Size: 62MB

Tracklist:
1. New Breath 04:31
2. Iron Healer 04:42
3. Mirrors of Trigon 08:53
4. The Whip 03:42
5. Shivast 05:27
******************************
Total playing time: 27:15



[more=Technical info]
Input File: 02 Iron Healer.mp3
Channels : 2
Sample Rate : 44100
Precision : 16-bit
Duration : 00:04:43.08 = 12483872 samples = 21231.1 CDDA sectors
File Size : 11.4M
Bit Rate : 323k
Sample Encoding: MPEG audio (layer I, II or III)
Comments :
Title=Iron Healer
Artist=Druids
Album=Monument
Tracknumber=2/5
Year=2019
Genre=Doom/ Stoner Metal
Discnumber=1

[/more]

Register
(15) dalek, fishish, infiltrator, marilin, metaljosue, Mogozoz, Olethros, Ostinato, robertho777, Rosen, Sabbathian, stumpheavyrock, VALERY, Woosad, yuratroll,
Apr 14 2019, 16:54:19 Moonsorrow - Promo [demo] (1997)


*Artist: Moonsorrow
*Album: Promo [demo]
*Year: 1997
*Genre: Pagan/Black Metal
*Country: Finland
*Format: mp3@CBR320kbps
*Size: 11MB

Tracklist:
1. Battlehymn 03:47
2. Outro 01:17
******************************
Total playing time: 5:04

[more=Technical info]
Input File: O3 Battlehymn.mp3
Channels : 2
Sample Rate : 44100
Precision : 16-bit
Duration : 00:03:48.09 = 10058769 samples = 17106.8 CDDA sectors
File Size : 9.13M
Bit Rate : 320k
Sample Encoding: MPEG audio (layer I, II or III)
Comments :
Title=Battlehymn
Artist=Moonsorrow
Album=Promo
Year=1997
Genre=Viking Metal

[/more]

Register
(5) Borderline1991, Rosen, RUSP73, thenecromancer, vasiljev_sergej,
Apr 14 2019, 16:51:40 Moonsorrow - Thorns Of Ice [demo] (1996)


*Artist: Moonsorrow
*Album: Thorns Of Ice [demo]
*Year: 1996
*Genre: Pagan/Black Metal
*Country: Finland
*Format: mp3@CBR320kbps
*Size: 22MB

Tracklist:
1. Throne of Ice 03:48
2. Wolves (A Sculpture of Snow) 05:42
******************************
Total playing time: 9:30

[more=Technical info]
Input File: O1 Thrones Of Ice.mp3
Channels : 2
Sample Rate : 44100
Precision : 16-bit
Duration : 00:03:49.58 = 10124434 samples = 17218.4 CDDA sectors
File Size : 9.19M
Bit Rate : 320k
Sample Encoding: MPEG audio (layer I, II or III)
Comments :
Title=Thrones Of Ice
Artist=Moonsorrow
Album=Thrones Of Ice
Year=1996
Genre=Viking Metal

[/more]

Register
(4) Borderline1991, Rosen, RUSP73, vasiljev_sergej,
Apr 11 2019, 14:09:04 Quercus - Verferum (2019)
Мне бы очень хотелось сказать, что альбом великолепен.

От первой композиции я зазяб и понадеялся, что будет что-то сродни Colosseum, — мягкий, тягучий орган дал такую надежду.

Но два следующих трека не впечатлили.

И в конце: Пассакалья в D-миноре, как дань эпохе барокко (похоронное барокко?), c присущей Баху полифонией в хоральных прелюдиях — что-то неординарное и невероятное,
набирающее обороты, накрывающее крещендо.

7.5/10
(1) mirotvorets,
Apr 11 2019, 07:37:55 Yhdarl - M O R B U S (2019)
Depressive Doom/Drone я бы сказал 1488.gif
Есть подозрение, что вполне хорошая работа, но у меня не хватило терпения
(1) krotovich,
Apr 8 2019, 20:40:44 Soul S Chains - Vis Ira Maerŏr (2019)
mp3@CBR320kbps / 152MB

Register
(4) demonosz, Emhyr var Emreis, Mogozoz, vasiljev_sergej,
Apr 8 2019, 20:28:12 Immorior - Ciel Noir [ep] (2019)


*Artist: Immorior
*Album: Ciel Noir [ep]
*Year: 2019
*Genre: Post-Black Metal
*Country: Germany
*Format: mp3@CBR320kbps
*Size: 66MB

Tracklist:
1. Underneath a Broken Sky 08:34
2. If God May Forgive 05:15
3. Monument of Time 05:27
4. Dim the Light 05:12
5. Ciel Noir 04:28
******************************
Total playing time: 28:56



[more=Technical info]
Input File: 01-Immorior-Underneath a Broken Sky.mp3
Channels : 2
Sample Rate : 44100
Precision : 16-bit
Duration : 00:08:33.10 = 22627798 samples = 38482.6 CDDA sectors
File Size : 20.5M
Bit Rate : 320k
Sample Encoding: MPEG audio (layer I, II or III)
Comments :
Title=Underneath a Broken Sky
Artist=Immorior
Album=Ciel Noir
Tracknumber=1
Year=2019

[/more]

Register
(15) 1968_janeart, Emhyr var Emreis, infiltrator, kim666, lestllk, Olethros, Ostinato, rewa, robertho777, Rosen, SameMan, satanist666, Shadechaser, vasiljev_sergej, Woosad,
Apr 8 2019, 20:01:04 Gloson - Mara [ep] (2019)


*Artist: Gloson
*Album: Mara [ep]
*Year: 2019
*Genre: Atmospheric Sludge/Post-Metal
*Country: Sweden
*Format: mp3@CBR320kbps
*Size: 33MB

Tracklist:
1. Usurper 7:49
2. Equinox 7:32
******************************
Total playing time: 15:21



[more=Technical info]
Input File: 01 Gloson-Equinox.mp3
Channels : 2
Sample Rate : 44100
Precision : 16-bit
Duration : 00:07:48.67 = 20668127 samples = 35149.9 CDDA sectors
File Size : 18.7M
Bit Rate : 320k
Sample Encoding: MPEG audio (layer I, II or III)
Comments :
Title=Usurper
Artist=Gloson
Album=Mara
Year=2019

[/more]

Register
(7) ahp, Haunter, marilin, Olethros, Ostinato, robertho777, Rosen,
Apr 8 2019, 19:34:46 Lion Shepherd - Iii (2019)


*Artist: Lion Shepherd
*Album: III
*Year: 2019
*Genre: Progressive/Psychedelic Rock
*Country: Poland
*Format: mp3@CBR320kbps
*Size: 135MB

Tracklist:
1 Uninvited
2 Good Old Days
3 What Went Wrong
4 Vulnerable
5 World on Fire
6 Fallen Tree
7 Toxic
8 The Kids Are Not All Right
9 Nobody
10 May You All Live in Fascinating Times
******************************
Total playing time: 59:29

[more=Technical info]
Input File: 02 - Good Old Days.mp3
Channels : 2
Sample Rate : 44100
Precision : 16-bit
Duration : 00:06:01.56 = 15944664 samples = 27116.8 CDDA sectors
File Size : 14.5M
Bit Rate : 320k
Sample Encoding: MPEG audio (layer I, II or III)
Comments :
Title=Good Old Days
Artist=Lion Shepherd
Album=III
Tracknumber=02
Year=2019
Genre=Rock

[/more]

Register
(4) dimitriusk, marilin, Olethros, VALERY,
Apr 5 2019, 12:04:36 Red Moon Architect - Kuura (2019)
ЦИТАТА(Dreamtale @ Apr 5 2019, 10:47:11) *



Дурацкое восприятие мира, серьезно.
Kuura — Изморозь
(2) Ghostb, Old Vyaine,
Apr 4 2019, 08:23:21 Ellende - Lebensnehmer (2019)
Тут рядом лежит прекрасный дебютник Mysticism и на его фоне Ellende уже не кажется чем-то инетересным.
Поворот.

Spotify
(1) MeatWolf,
Apr 2 2019, 10:23:41 Cellar Darling - The Spell (2019)
Тягучее roooooots здесь превосходно

[youtube]https://www.youtube.com/watch?v=nnLvaHHBJOc&fbclid=IwAR3gP7B-yK4aOEvfkbrDeVKb3KQdHok2TM1HtY1iP0cPEqIJaHfgk0mKrFs[/youtube]
(1) Ghostb,
Mar 31 2019, 22:01:33 Shabti - Trembling And Shorn (2019)


*Artist: Shabti
*Album: Trembling And Shorn
*Year: 2019
*Genre: Progressive Death Metal
*Country: United States
*Format: mp3@CBR128kbps
*Size: 39MB

Tracklist:
1. Shrouded and Veiled 05:33
2. Seven Billion Souls 08:35
3. Sanctify 07:30
4. The Oracle and the Architect 03:43
5. My Doppelganger 05:29
6. Below Deck 11:17
******************************
Total playing time: 42:07



[more=Technical info]
Input File: 01-Shabti-Shrouded and Veiled.mp3
Channels : 2
Sample Rate : 44100
Precision : 16-bit
Duration : 00:05:32.81 = 14677053 samples = 24961 CDDA sectors
File Size : 5.33M
Bit Rate : 128k
Sample Encoding: MPEG audio (layer I, II or III)
Comments :
Title=Shrouded and Veiled
Artist=Shabti
Album=Trembling and Shorn
Tracknumber=1
Year=2019

[/more]

Register
(3) infiltrator, metala, Rosen,
Mar 31 2019, 17:19:14 Précipices - Seulement Le Monde (2019)


*Artist: Précipices
*Album: Seulement Le Monde
*Year: 2019
*Genre: Blackgaze
*Country: Canada
*Format: mp3@CBR320kbps
*Size: 87MB

Tracklist:
1. Repère 1ère partie - Palimpseste 08:48
2. Repère 2ième partie - Si je marche 01:39
3. Repère 3ième partie - Nulle part ailleurs 08:03
4. Puisqu'il faut vivre 08:45
5. Seulement le monde 04:13
6. Je t'écris 06:26
******************************
Total playing time: 37:54



[more=Technical info]
Input File: 02-precipices-repere-2ieme-partie-si-je-marche.mp3
Channels : 2
Sample Rate : 44100
Precision : 16-bit
Duration : 00:01:39.56 = 4390640 samples = 7467.07 CDDA sectors
File Size : 4.08M
Bit Rate : 328k
Sample Encoding: MPEG audio (layer I, II or III)
Comments :
Title=Repère 2ième Partie - Si Je Marche
Artist=Précipices
Album=Seulement Le Monde
Tracknumber=2/6
Year=2019
Genre=Post-Black Metal

[/more]

Register
(8) kim666, Olethros, Ostinato, robertho777, Rosen, satanist666, SilentNidhogg, stub888,

4 Pages V   1 2 3 > » 
- Lo-Fi Version Support form
Copyrights and abuse reports form
Time is now: 15th October 2019 - 02:09:22