Welcome Guest ( Log In | Register )

История благодарностей участнику Regnum ::: Спасибо сказали: 383 раз(а)
Дата поста: В теме: За сообщение: Спасибо сказали:
Jan 9 2016, 23:42:43 "Б.Н. Ельцин. Я устал, я ухожу." Голосование за Лучший альбом 1999 года
Представляю себе такие опросы на форумах классической музыки. Что-то типа "голосование за лучший клавирный концерт 1741 года")))
(1) Vastich,
Jan 7 2016, 14:46:15 Satanic Corpse - Morbitorium (2008)


*Artist: Satanic Corpse
*Album: Morbitorium
*Year: 2008
*Genre: Black Metal/Neo-Classic/Ambient
*Country: United States
*Format: mp3@CBR160kbps
*Size: 75MB

Tracklist:
1. Portal 05:21
2. The Calling of Necromancy 06:15
3. Morbitorium 06:14
4. The Cult of Morte 05:26
5. House of Ghoul 03:42
6. Under the Grave 06:18
7. Entombment 04:05
8. Satanic Death Mass 07:05
9. We Are Death 03:55
10. Blue Walls 07:03
11. Cold Inferno 03:39
12. Crematorium 02:28
13. Mortuary Ashes (Requiem) 04:56
******************************
Total playing time: 1:06:27

[more=Extended info]Все композиции идут одним треком.[/more]

Register
(4) kim666, Rosen, RSB, vasiljev_sergej,
Jan 7 2016, 09:36:56 Satanic Corpse - Mortuary Ashes (Requiem) [studio clip] (2008)


*Performer: Satanic Corpse
*Title: Mortuary Ashes (Requiem)
*Type: Studio Clip
*Album: Morbitorium
*Year: 2008
*Genre: Neoclassical/Ambient
*Country: United States

*Audio: aac@128kbps
*Video: h.264@500kbps
*Resolution: 480x360
*Size: 12MB
******************************
*Length: 00:04:52

Register
(3) Rosen, Saalingurth, Абигор,
Jan 7 2016, 09:04:29 Sepultus Est - En El Marmoreo Laberinto Donde Sueñan Los Muertos (2016)


*Artist: Sepultus Est
*Album: En El Marmoreo Laberinto Donde Sueñan Los Muertos
*Year: 2016
*Genre: Funeral Doom Metal
*Country: Peru
*Format: mp3@CBR128kbps
*Size: 72MB

Tracklist:
1. En El Marmoreo Laberinto Donde Sueñan Los Muertos 40:35
2. Funebres Estatuas En El Jardin De La Muerte 20:58
3. Paisajes Depresivos 17:24
******************************
Total playing time: 1:18:57

Register
(7) marilin, Rosen, Sanc, SatanicPanzer, VALERY, Veggr, Ветеринар,
Dec 26 2015, 07:07:12 Bast - Branches In Earth, Roots In The Sky [demo] (2011)


*Artist: Bast
*Album: Branches In Earth, Roots In The Sky [demo]
*Year: 2011
*Genre: Sludge/Doom Metal
*Country: United Kingdom
*Format: mp3@VBR214kbps
*Size: 37MB

Tracklist:
1. Branches in Earth 05:03
2. The Seventh Veil 05:04
3. The Embrace 04:11
4. The Chalice 04:28
5. Roots in the Sky 04:59
******************************
Total playing time: 23:45

Register
(6) Rosen, stub888, VALERY, varlam4, wreak, ZA670,
Dec 25 2015, 17:44:33 Nemrael - Tute Rege Satanas [demo] (1996)


*Artist: Nemrael
*Album: Tute Rege Satanas [demo]
*Year: 1996
*Genre: Black Metal
*Country: Slovakia
*Format: mp3@CBR320kbps
*Size: 120MB

Tracklist:
Side A
1. Apokalypsa / Enter The Riders 00:42
2. Devil's Henchmen 02:14
3. Daemonium Abyssi 00:29
4. Crucificacao / Libertacao De Cristo 03:31
5. Invocatio Satanas 02:12
6. Ascended Masters 05:12
7. Mageia 00:13
8. Wille Zur Macht 02:45
9. Augusta Bestia 666 / Tenebricosus Draco 00:15
10. Tute Rege Satanas 03:58
11. Daemonomania / Stigma Diabolicum 02:30

Side B
12. Aj Rat Ko Bhagy Us Ka Svargvas Ho Gaya 02:12
13. Sabbatizamus / Baptizmus Nocturnus 04:13
14. Coitus / Diabolicae Succumbes 02:41
15. Lilith Se Mujhe Prem Hai / Naukrani Kahi Cali 01:56
16. Cruor - Ignis - Mors / Ab Odio 07:00
17. Malleus Maleficarum: Depugnabimus 01:10
18. Ira Luciferi 01:37
19. Heder For JHWH / De Amplaste Blasphemi 02:08
20. Apokalysa II. / Consummatum Est 01:45
******************************
Total playing time: 48:43

[more=Technical info]
Input File: 01 - Ignea A Pars.mp3
Channels : 2
Sample Rate : 44100
Precision : 16-bit
Duration : 00:26:11.87 = 69319291 samples = 117890 CDDA sectors
File Size : 62.9M
Bit Rate : 320k
Sample Encoding: MPEG audio (layer I, II or III)
Comments :
Title=Ignea A Pars
Artist=NEMRAEL
Album=Tute Rege Satanas
Tracknumber=01
Year=1996
Genre=Black Metal

[/more]

Register
(13) dermarsoran, Evilded, Ildjarn, kim666, morbidangelo, NekromantikSummoning, rom666, Rosen, satanist666, tont, varg-38ru, varlam4, vasiljev_sergej,
Dec 25 2015, 15:34:19 Русская Зима - Русский Гнев [demo] (2002) (2) dermarsoran, marrtins,
Dec 25 2015, 10:43:42 Русская Зима - Judgement Day [live] (2003)
Нате:
Register
(3) dermarsoran, Moonshtook, Noobsaibot71,
Dec 24 2015, 13:13:04 Русская Зима - Judgement Day [live] (2003)


*Artist: Русская Зима
*Album: Judgement Day [live]
*Year: 2003
*Genre: Death/Doom Metal
*Country: Russian Federation
*Format: mp3@CBR320kbps
*Size: 62MB

Tracklist:
01.Война
02. Лесная Сказка
03. Торговцы Смертью
04. Леди Батори
05. Ведьма
06. Русский Гнев
07. Серп Мусульманской Луны
******************************
Total playing time: 31:08

[more=Technical info]
Input File: 01-War.mp3
Channels : 2
Sample Rate : 44100
Precision : 16-bit
Duration : 00:04:03.41 = 10734425 samples = 18255.8 CDDA sectors
File Size : 9.74M
Bit Rate : 320k
Sample Encoding: MPEG audio (layer I, II or III)
Comments :
Title=War
Artist=russian winter
Album=judgement day
Year=2003
Genre=Rock

[/more]

Register
(9) Aresson, morbidangelo, RENыч, Rosen, Sanc, VALERY, varlam4, wreak, Герб,
Dec 24 2015, 12:03:05 Gelida Obscuritas - Vox Mortigenus [demo] (2005)
Голос Мертворожденного

Re-up (53mb)
(1) LordHaart,
Dec 23 2015, 20:32:25 Crom Cruach - Defilers Of The Noise (2015)
Облога, судя по всему, создавалась под влиянием творчества товарища Бендера.
(2) Egoist7, RUSP73,
Dec 23 2015, 20:06:33 Русская Зима - Русский Гнев [demo] (2002)


*Artist: Русская Зима
*Album: Русский Гнев [demo]
*Year: 2002
*Genre: Death/Doom Metal
*Country: Russian Federation
*Format: mp3@CBR320kbps
*Size: 81MB

Tracklist:
01. Русский Гнев
02. Торговцы Смертью
03. Леди Батори
04. Армия Тьмы
05. Китяж-Град
06. Война
07. Мир Иллюзий
******************************
Total playing time: 37:18

[more=Technical info]
Input File: 03-Леди Батори.mp3
Channels : 2
Sample Rate : 44100
Precision : 16-bit
Duration : 00:07:11.81 = 19042645 samples = 32385.5 CDDA sectors
File Size : 17.3M
Bit Rate : 320k
Sample Encoding: MPEG audio (layer I, II or III)

[/more]

Register
(8) abob, Evilded, morbidangelo, Proteus_666, Rosen, VALERY, varlam4, wreak,
Dec 23 2015, 19:07:25 Nyx - Home (2015)
На шедевр сие творение может и не тянет, но вполне доставляет. Чистый вокал, меня, например, тут нисколько не раздражает.
(1) vosmidesijatye,
Dec 23 2015, 09:35:47 OwlCraft - ...The Journey Of The Owl (2015)
Музыка хорошо гармонирует с обложкой - такая же блеклая и неинтересная
(1) Odium666,
Dec 23 2015, 00:42:07 Sidhe - She Is A Witch (2012)
Re-up (320)

Отличный альбом от малоизвестной группы
(1) Sanc,
Dec 23 2015, 00:37:29 Dhampyr - The Unreleased Sessions [compilation] (2014)


*Artist: Dhampyr
*Album: The Unreleased Sessions [compilation]
*Year: 2014
*Genre: Depressive Black Metal/Ambient
*Country: United States
*Format: mp3@CBR128kbps
*Size: 21MB

Tracklist:
1. A Pillar of Eskimo Moondrops 04:36
2. Renoirs Lemon Virology 02:25 (instrumental)
3. Untitled Track 05:22
4. Untitled Track II 04:48
5. Waltz of the Salivating Avalanche (Demo II) 05:41
******************************
Total playing time: 22:52

Register
(6) ddarkthrone, rom666, Rosen, tont, varlam4, vasiljev_sergej,
Dec 21 2015, 23:42:48 Ember - Within The Realm Of The Snowqueen [demo] (1995)


*Artist: Ember
*Album: Within The Realm Of The Snowqueen [demo]
*Year: 1995
*Genre: Black/Thrash Metal
*Country: United States
*Format: mp3@CBR224kbps
*Size: 13MB

Tracklist:
1. Dance of the Ancients 03:18
2. Forever Beautiful 02:45
3. The Serpent Fallen 02:37
******************************
Total playing time: 8:46

[more=Extended info]Все композиции идут одним треком.[/more]

Register
(10) dad, marilin, morbidangelo, Ostinato, Rosen, satanist666, varlam4, wreak, Абигор, Герб,
Dec 20 2015, 14:25:41 Ximoayan & Tlillan Calmecac - Chicuanauhmictla/Tuukul Ka'ach [split] (2010)
Register
(2) dermarsoran, DMIYUR,
Dec 20 2015, 13:17:52 Eier - Iluzjonista (2013)


*Artist: Eier
*Album: Iluzjonista
*Year: 2013
*Genre: Heavy Metal
*Country: Poland
*Format: mp3@CBR320kbps
*Size: 93MB

Tracklist:
1. Zapadnia 06:34
2. Bez uczuć 03:21
3. Cyjanek 03:52
4. Przed Państwem... 00:44
5. Iluzjonista 03:53
6. ^ 00:30
7. Martwa woda 04:01
8. Cisza 04:43
9. Myśli zaklęte 03:04
10. Lecę 04:33
11. Adept 04:31
12. Laboratorium do spraw snów 03:05
13. Instynkt 03:57
******************************
Total playing time: 46:48

[more=Technical info]
Input File: 01. Zapadnia.mp3
Channels : 2
Sample Rate : 44100
Precision : 16-bit
Duration : 00:06:33.98 = 17374562 samples = 29548.6 CDDA sectors
File Size : 15.7M
Bit Rate : 320k
Sample Encoding: MPEG audio (layer I, II or III)
Comments :
Title= Zapadnia
Artist=Eier
Album=Iluzjonista
Tracknumber=01.
Year=2013
Genre=Heavy Metal

[/more]

Register
(4) gwynnbleid, Rosen, varlam4, wreak,
Dec 18 2015, 06:36:20 Batushka - Litourgiya (2015)
Активность обсуждения этого альбома на разных сайтах заставила меня вспомнить название известной комедии Шекспира.
(3) infiltrator, Shadowman, suseka,
Nov 27 2015, 07:28:49 Выборы самого лучшего дума из всех думов: финал
Solitude Aeturnus - Mirror Of Sorrow
(1) Tular,
Nov 26 2015, 18:32:41 Nocturnal & Bestial Desecration - Thrashing Rage [split] (2005)


*Artist: Nocturnal & Bestial Desecration
*Album: Thrashing Rage [split]
*Year: 2005
*Genre: Black/Thrash Metal | Thrash Metal
*Country: Germany | Germany
*Format: mp3@CBR128kbps
*Size: 46MB

Tracklist:
Nocturnal:
1. Merciless Murder
2. Nuclear Strike
3. Sign Of Evil (Violent Force Сover)
4. Satanic Oath
5. The Final End
6. Thrash Attack
7. Tormentor
8. Total Desaster (Destruction Сover)

Bestial Desecration:
9. Infernal Overkill
10. Hellraiser
11. Soldiers Of Death
12. Graveyard Massacre
13. Speed Metal Attack
14. Hatefilled Metalrage
15. Tormentor
16. Chainsaw Carnage
******************************
Total playing time: 51:42

Register
(11) Anhra Mainyu, artscald, ddarkthrone, Lanceatum, marilin, Rosen, RUSP73, satanas189, the_cleanser, varlam4, wgs73,
Jul 20 2014, 18:45:45 Mayhem - Live At Jussheim [bootleg] (1990)
Делюсь (256 kbps)
Register
(2) Borderline1991, craP_cillA,
Jul 19 2014, 11:54:28 Countess - Live In Berlin 4-27-96 [concert] (1996)


*Performer: Countess
*Title: Live In Berlin 4-27-96
*Type: Concert
*Year: 1996
*Genre: Black Metal
*Country: Netherlands

*Audio: AAC@96kbps
*Video: h.264@495kbps
*Resolution: 320x240
*Size: 189MB
******************************
*Length: 00:53:41

Register
(4) heinz88, lordbathor, Pinhead666, Rosen,
Jun 27 2014, 17:43:49 Tymah - The Past Is Alive (2014)
После семи лет молчания, думалось, что группа уже не воскреснет, а они внезапно выдали очередной шедевр. Вокал Анастасии, как отравленная стрела в душу, одновременно злость и отчаяние в ее голосе, ну и звучание венгерского языка прекрасно передает настроение этого альбома.
Печальные звуки вплывают в туман, возвращаясь из сотен гибнущих стран...
(4) nsmetalhead, Razorbladeswaltz, vosmidesijatye, waldemardr,

3 Pages V   1 2 3 >
- Lo-Fi Version Support form
Copyrights and abuse reports form
Time is now: 6th June 2020 - 20:26:48