Welcome Guest ( Log In | Register )

История благодарностей участнику milosdjor ::: Спасибо сказали: 735 раз(а)
Дата поста: В теме: За сообщение: Спасибо сказали:
Oct 19 2020, 20:16:53 Sijjin - Angel Of The Eastern Gate [demo] (2019)


*Artist: Sijjin
*Album: Angel Of The Eastern Gate [demo]
*Year: 2019
*Genre: Death/Thrash Metal
*Country: Germany
*Format: mp3@CBR320kbps
*Size: 42MB

Tracklist:
1. Vorago of Adullam
2. Trine Immersion
3. Angel of the Eastern Gate
4. Remnants of Cambrian Evil
******************************
Total playing time: 18:21



[more=Technical info]
Input File: 03. Angel Of The Eastern Gate.mp3
Channels : 2
Sample Rate : 44100
Precision : 16-bit
Duration : 00:05:22.06 = 14202758 samples = 24154.4 CDDA sectors
File Size : 13.0M
Bit Rate : 323k
Sample Encoding: MPEG audio (layer I, II or III)
Comments :
Title=Angel Of The Eastern Gate
Artist=Sijjin
Album=Angel Of The Eastern Gate
Tracknumber=3
Year=2019
Genre=Death Metal

[/more]

Register
(14) caro, Fryz, grimoir, infiltrator, multizwilling, nord6666, Olethros, Rosen, SaintVitus, stumpheavyrock, troll_swamp, Wail, wolverine, zorn666,
Sep 20 2020, 19:48:00 Ofermod - Pentagrammaton (2020)
320kbps, 2CD version.
Register
(2) kauyumari, MP101M,
Sep 17 2020, 14:58:36 Sonne Adam - Doctrines Of Dark Devotion [ep] (2012)
The EP is also on this compilation, for those who prefer CD rip.
Sonne Adam - Messengers Of Desolate Ways

Their best release, by the way (I mean the EP).
(1) frituz3,
Aug 29 2020, 19:51:08 Ominous Resurrection - Judgement (2020)
QUOTE(acerbus @ Aug 29 2020, 13:32:02) *
Funereal Presence в прошлом году был, теперь и Ominous Resurrection отстрелялись. На арену вышли Spirit Possession.

Где Negative Plane???


New Negative Plane album is almost finished. That's what a guy from Ominous Resurrection have told me.
(4) acerbus, garmonbozia, smes, wolverine,
Aug 25 2020, 21:18:34 Emptiness - Oblivion (2007)
320 kbps
Register
(3) Mencae77, PIOJANK, varlam4,
Jul 3 2020, 22:08:50 Setherial
These 3 songs can be found on From the Ancient Ruins compilation (songs are from 1998). My Veins Are Open is from "With Us or Against Us" compilation from 1995.
(3) infiltrator, Occultas, thenecromancer,
Jun 28 2020, 20:25:05 May Result - Tmina (2020)
It's just a re-release with a new cover. Maybe I'm too attached to the old one, but I think this new one is unfitting. I can not be objective because of nostalgic reasons, but the music is really good, totally recommended.
(2) infiltrator, LazarShadow,
Jun 27 2020, 15:47:36 Shrine Of Orpheus - Λυκόφως [ep] (2017)
CD rip please.
(1) Occultas,
Jun 22 2020, 20:28:05 Chaos Echœs - The Unfathomable [ep] (2017)
I tried to add Sustain twice but obviously I do something wrong. So here it is here.

Register
(1) thenecromancer,
Apr 10 2020, 04:27:06 Avenger - Godless (...Assuming the Throne of Immortality...) (2003) (1) Wail,
Mar 8 2020, 18:15:03 S6R6Th6 - Inverted Triangle (2020)
320kbps
Register
(1) Occultas,
Feb 5 2020, 18:28:55 Assumption - The Three Appearances [ep] (2014)
320 kbps
Register
(1) varlam4,
Aug 27 2019, 15:00:32 Celebratum - Instinct (2005)
One of the best and most underrated black metal albums ever recorded in Norway.
(1) scorn33,
Aug 19 2019, 22:29:53 Herxheim - Cultivating Throne Of Fur [demo] (2019)


*Artist: Herxheim
*Album: Cultivating Throne Of Fur [demo]
*Year: 2019
*Genre: Death Metal
*Country: United States
*Format: mp3@CBR320kbps
*Size: 47MB

Tracklist:
1. Entrance
2. 3 Rats One Trap
3. Cultivating Throne of Fur
4. Bath of Zheouul
5. He Comes
6. With Glib Fork I Dialect
7. Heaven's Gate
8. In Orb of Rubicon
9. Idols of Wanton
******************************
Total playing time: 20:31



[more=Technical info]
Input File: 07. Heaven\'s Gate.mp3
Channels : 2
Sample Rate : 44100
Precision : 16-bit
Duration : 00:00:20.59 = 907931 samples = 1544.1 CDDA sectors
File Size : 904k
Bit Rate : 351k
Sample Encoding: MPEG audio (layer I, II or III)
Comments :
Title=Heaven's Gate
Artist=Herxheim
Album=Cultivating Throne Of Fur
Tracknumber=7
Year=2019
Genre=Death Metal

[/more]

Register
(10) artscald, Hell_Is_Here, infiltrator, lobosolitario, Ludwig Hagen, Olethros, Rosen, varlam4, vyacheslav, wreak,
Jul 10 2019, 15:22:15 Enthroned - Cold Black Suns (2019)
Bonus song Womb of Violence
Register
(6) Aresson, kim666, Occultas, satanist666, thenecromancer, vasiljev_sergej,
May 25 2019, 20:26:10 Triumph, Genus - Na Kom Je Nyní Tolik Z Mojí Vůle? [compilation] (2018)


*Artist: Triumph, Genus
*Album: Na Kom Je Nyní Tolik Z Mojí Vůle? [compilation]
*Year: 2018
*Genre: Black Metal
*Country: Czech Republic
*Format: mp3@CBR320kbps
*Size: 63MB

Tracklist:
1. Mýtit tu černou nezdařilost
2. V zasněžených vrcholech se odráží můj smysl
3. Jak je mé oko syceno, tak stále více ostřen jest v něm barvocit
4. Hladiny plynoucích, žádný zítřek není do vás mým tokem promítnut
5. Na kom je nyní tolik z mojí vůle?
6. Jest mi slavností zdroj zdařilých obměn na všem živém
******************************
Total playing time: 28:14

[more=Technical info]
Input File: 01 - mytit tu cernou nezdarilost.mp3
Channels : 2
Sample Rate : 44100
Precision : 16-bit
Duration : 00:05:59.99 = 15875427 samples = 26999 CDDA sectors
File Size : 14.4M
Bit Rate : 320k
Sample Encoding: MPEG audio (layer I, II or III)
Comments :
Title=Mýtit tu černou nezdařilost
Artist=Triumph, Genus
Album=Na Kom Je Nyní Tolik Z Mojí Vůle?
Tracknumber=01/06
Year=2018
Genre=Black Metal
Discnumber=1/1

[/more]

Register
(2) Machine Head, thenecromancer,
Feb 8 2019, 23:37:41 Darkmoon - Seas Of Unrest (1999)
So underrated and one of my favorite albums ever.

Register
(4) DeathCrush, demonosz, dermarsoran, morbidangelo,
Dec 9 2018, 22:39:16 Cirith Gorgor - Mystic Legends... (1997)
Done.
(1) thenecromancer,
Dec 9 2018, 16:48:59 Cirith Gorgor - Mystic Legends... (1997)
Download the latest album and you have that demo in good quality as 2nd CD.
Register
(2) Aresson, thenecromancer,
Sep 12 2018, 15:06:15 Occultation - Silence In The Ancestral House (2014)
Maybe if they would make more music, it would not be good as it is. Always quality over quantity. smile3.gif
(1) Borderline1991,
Aug 24 2018, 19:40:22 Aeternus - Walk My Path [demo] (1994)
You're welcome.
(2) celestial_keeper, thenecromancer,
Aug 24 2018, 18:30:07 Aeternus - Walk My Path [demo] (1994)
320kbps, good sound!
Register
(8) BlaspherionFLUL, celestial_keeper, Rudolfo_Metal, thenecromancer, vasiljev_sergej, warrr, wendigo, wgs73,
Jun 11 2018, 21:46:20 Draug - Their Darker Dreams [ep] (2018)


*Artist: Draug
*Album: Their Darker Dreams [ep]
*Year: 2018
*Genre: Black Metal
*Country: Sweden
*Format: mp3@CBR320kbps
*Size: 25MB

Tracklist:
1. Their Darker Dreams 5:11
2. Flesheater Wisper 5:36
******************************
Total playing time: 10:47



[more=Technical info]
Input File: Draug - Their Darker Dreams - 01 Their Darker Dreams.mp3
Channels : 2
Sample Rate : 44100
Precision : 16-bit
Duration : 00:05:11.12 = 13720436 samples = 23334.1 CDDA sectors
File Size : 12.5M
Bit Rate : 322k
Sample Encoding: MPEG audio (layer I, II or III)
Comments :
Title=Their Darker Dreams
Artist=Draug
Album=Their Darker Dreams
Tracknumber=1
Year=2018

[/more]

Register
(28) 1968_janeart, artscald, Boozer, garmonbozia, Hell_Is_Here, hpc, Ildjarn, kim666, luxxul, marilin, Metalass, morbidangelo, murian, obituarydark, Ostinato, princeshr, Rosen, satanist666, SilentNidhogg, Sjelekval, SSBandera, stub888, undeadlich, VALERY, varg-38ru, vasiljev_sergej, yuratroll, Нигилист,
Jun 7 2018, 22:04:07 Grav - Astrala Ödemarker [demo] (2016)
320kbps, digital release.
Register
(2) morbidangelo, thenecromancer,
May 3 2018, 22:39:27 Stargazer - The Scream That Tore the Sky (2005)
Register
(1) pichileon,

3 Pages V   1 2 3 >
- Lo-Fi Version Support form
Copyrights and abuse reports form
Time is now: 23rd October 2020 - 09:42:22