Welcome Guest ( Log In | Register )

История благодарностей участнику Constantinus I ::: Спасибо сказали: 7033 раз(а)
Дата поста: В теме: За сообщение: Спасибо сказали:
Dec 30 2018, 16:28:46 Vox Mortuis - Epitafija Praklonu (2016)


*Artist: Vox Mortuis
*Album: Epitafija Praklonu
*Year: 2016
*Genre: Black Metal
*Country: Belarus
*Format: mp3@CBR320kbps
*Size: 108MB

Tracklist:
1. Šybienica 08:23
2. Crux Immissa 05:43
3. Kryvavy Patop 03:55
4. Klič Z Mahiły 05:45
5. Atra Mors 05:25
6. Epitafija Praklonu 05:30
7. Vajna 07:05
8. Smierć Čaraŭnika 04:17
******************************
Total playing time: 46:03

[more=Technical info]
Input File: 02 Crux Immissa.mp3
Channels : 2
Sample Rate : 44100
Precision : 16-bit
Duration : 00:05:44.00 = 15170356 samples = 25799.9 CDDA sectors
File Size : 14.0M
Bit Rate : 326k
Sample Encoding: MPEG audio (layer I, II or III)
Comments :
Title=Crux Immissa
Artist=B - Vox Mortuis
Album=Epitafija Praklonu
Tracknumber=02
Year=2016
Genre=Black Metal

[/more]

Register
(19) 1968_janeart, artscald, Borderline1991, DarkHorde, deftones, Hell_Is_Here, kim666, Korpse, morbidangelo, Olethros, Ostinato, Ramcheg1981, Raw1488, Rosen, satanist666, SilentNidhogg, VALERY, varlam4, vasiljev_sergej,
Jan 20 2017, 18:04:03 Misanthropic Winter - Das Origens [demo] (2013)


*Artist: Misanthropic Winter
*Album: Das Origens [demo]
*Year: 2013
*Genre: Raw Black Metal
*Country: Brazil
*Format: mp3@CBR160kbps
*Size: 20MB

Tracklist:
1.Esquizofrenia 04:56
2.Respingos De Sangue Em Telas Anti-Vida 03:37
3.Som dos Passaros 03:46
4.Caminhos de Uma Vida Nostalgica 02:50
5.Neurose ( Bonus Track ) 02:26
******************************
Total playing time: 17:35

Register
(13) 1968_janeart, artscald, ddarkthrone, kim666, rom666, Rosen, RUSP73, Styx, thenecromancer, tont, varlam4, vasiljev_sergej, wgs73,
Dec 22 2016, 20:01:15 Frozen Darkness & Enodre - Carpe Noctem [split] (2008)
Frozen Darkness & Enodre - Carpe Noctem (2008) Split

Register
(4) kim666, NachtWulf, rom666, vasiljev_sergej,
Nov 3 2015, 22:56:29 Verstecktengång - Illuminationem Nocturna (2014)
Verstecktengång - Illuminationem Nocturna (2014) same properties

Register
(6) blacky66, Darkthronefoad, kim666, Ostinato, varg-38ru, varlam4,
Nov 3 2015, 22:55:27 Verstecktengång - Null Fehler [demo] (2014)
Verstecktengång - Null Fehler (2014) Demo same properties

Register
(4) blacky66, thenecromancer, varg-38ru, varlam4,
Sep 18 2015, 23:19:30 Carnyx - Leaving Reason (2010)
Carnyx - Leaving Reason (2010) 320 kbps

Register
(6) ddarkthrone, Ostinato, rimfrost, rom666, varg-38ru, varlam4,
Sep 4 2015, 14:27:29 Burzum - Burzum (1992)
Burzum - Burzum (1992) 320kbps FLAC rip from original CD 1992.

Register
(1) milosdjor,
Aug 7 2015, 16:34:13 Ildjarn - Rarities [compilation] (2012)
Better cover

[more=Extended info][/more]
(4) Haunting, NachtWulf, princeshr, Абигор,
Jul 19 2015, 10:54:10 Sewer - Under The Eye Of The Black Skull (2015)


Front cover
(1) morbidangelo,
Jul 4 2015, 23:55:15 Azelisassath - Evil Manifestations Against Mankind (2014)
вкратце : True Atmospheric Raw Black Metal true_black.gif true_black.gif
(4) DarkHorde, infiltrator, SSBandera, vosmidesijatye,
Jul 4 2015, 14:17:27 Grudom - Dødens Likvid (2015)
Этот проект однозначно не для всех, потому что его музыку очень трудно слушать. Но мне лично очень нравится! 20.gif
(1) vosmidesijatye,
Jun 27 2015, 19:35:26 Utter Hell - From Penumbra To Hell (2015)


*Artist: Utter Hell
*Album: From Penumbra To Hell
*Year: 2015
*Genre: Black Metal
*Country: Mexico
*Format: mp3@VBR262kbps
*Size: 116MB

Tracklist:
1. Intro 02:00 instrumental
2. Nocturnal Haze 04:21
3. Astral Conjunction 05:20
4. Boast of Malignancy 04:38
5. Victimizer 03:19
6. Celestial Murder 03:23
7. Blessed with Fire 04:41
8. The Maximum Demonic Creation 04:13
9. Take the Souls to Fire 04:57
10. Dreams of Realm Below 04:40
11. The Charm of the Witch 04:43
12. An Ancient War 03:53
13. Devoured Souls 03:44
14. The Faces of Hells Walls 03:05
******************************
Total playing time: 56:57



[more=Extended info]Label : Christfucker Records[/more]

Register
(26) 0x13, 1968_janeart, Buregon, Darkthronefoad, ddarkthrone, dermarsoran, kefka, lafuma, legion01, MMMMM, morbidangelo, NachtWulf, princeshr, Razorbladeswaltz, rickzammuto, rom666, Rosen, satanist666, Scuns, toly1917, tont, VALERY, varg-38ru, varlam4, vasiljev_sergej, wgs73,
Jun 27 2015, 17:31:47 Shivan - When Wishes Sicken (2007)


*Artist: Shivan
*Album: When Wishes Sicken
*Year: 2007
*Genre: Atmospheric Blackened Gothic Metal/Rock
*Country: Italy
*Format: mp3@CBR192kbps
*Size: 73MB

Tracklist:
1. Kingdom of Deceit 07:30
2. Hoarder of Illusions 06:18
3. Cold Winter Nights 05:32
4. Alone Again 07:58
5. Ain't No World 05:51
6. Past The Mid Route 02:39
7. Bereft 06:11
8. The Murkiest Den 07:11
9. Alone Again (Remix) 03:56
******************************
Total playing time: 53:06



[more=Extended info]Second version by My Kingdom Music (2007)[/more]

Register
(13) BlackArrow, Buregon, Cartman223, dermarsoran, Ice Gnoll, metala, randumbum, rom666, Rosen, VALERY, varlam4, wreak, Абигор,
Jun 27 2015, 16:04:11 Dying Fullmoon - In Thy Dreams... [demo] (1994)
Thanks, I've long sought again! 9.gif
(1) NachtWulf,
Jun 24 2015, 01:36:09 Setherial - Nord... (1996)
Setherial - Nord (1996) 320kbps + covers

Register


Register
covers
(13) beltane, garmonbozia, legion01, Leiche, milosdjor, souldeathtoxic, troll_swamp, unas.slayer.of.gods, varg-38ru, varlam4, Velkaarn, Zahrim, zlvd,
Jun 22 2015, 18:27:56 Meuchelmord - Wo Einst Gezeichnet Von Würde Dein Bild (2012)


*Artist: Meuchelmord
*Album: Wo Einst Gezeichnet Von Würde Dein Bild
*Year: 2012
*Genre: Black Metal
*Country: Germany
*Format: mp3@VBR242kbps
*Size: 44MB

Tracklist:
1. Prolog 01:44 instrumental
2. Wenn der Tag die Nacht verdrängt 05:23
3. Die Zeche zahlt Gevatter Tod 04:43
4. Sommergewitter 05:57
5. Wo einst gezeichnet von Würde dein Bild 04:24
6. Die Saat des Bösen 03:18
******************************
Total playing time: 25:29

Register
(24) 1968_janeart, artscald, Borderline1991, craP_cillA, DarkHorde, Darkthronefoad, ddarkthrone, GorAtheist, Ildjarn, Kalnasra, kefka, Legacy100, metala, morbidangelo, NachtWulf, obituarydark, rom666, Rosen, stub888, tont, varlam4, vasiljev_sergej, Герб, Спектр,
Jun 19 2015, 11:33:38 Antichrist - Demo 1994 [demo] (1994)
QUOTE(NachtWulf @ Jun 19 2015, 12:32:19) *


Thank you! 9.gif
(1) NachtWulf,
Jun 19 2015, 07:52:13 Necrocock - Hudba Z Psychiatrických Pavilonů (2015)
1. Neuleptil
2. Vyšetření vestibulární
3. Přednostovy nové boty
4. Nedávejte mu Plegomazin
5. Chorobomyslná
6. Vaginální trauma
7. Do klecí
8. Zapoměl jsem si v sanitě...
9. Do Opařan
10. Kluk z diagnosťáku
11. Princezna (bonus)
12. Výlet do Vaxjö (bonus)
(1) Woosad,
Jun 16 2015, 15:50:32 Velnezers - Bads [ep] (2014)


*Artist: Velnezers
*Album: Bads [ep]
*Year: 2014
*Genre: Pagan Black Metal
*Country: Latvia
*Format: mp3@CBR192kbps
*Size: 32MB

Tracklist:
01.Bads 07:11
02.Strauts Purva Vidū 02:56
03.Zudis Meža Tēvs 13:05
******************************
Total playing time: 23:12

Register
(23) 1968_janeart, AndreFrancis, artscald, blacky66, ddarkthrone, Druidir, fabriziomagno, Legacy100, metaljinie, morbidangelo, neoatheist, Ostinato, Ratibor366, Razorbladeswaltz, rom666, Rosen, Styx, SyncestrA, tont, Unleashed, varlam4, vasiljev_sergej, wn129aa,
Jun 14 2015, 20:48:21 Fall Of Azure - Shadow Of The Flame [demo] (2015)


*Artist: Fall Of Azure
*Album: Shadow Of The Flame [demo]
*Year: 2015
*Genre: Black Metal
*Country: Australia
*Format: mp3@CBR128kbps
*Size: 17MB

Tracklist:
1. Shadow of the Flame 04:23
2. The Tears of Misery 03:30
3. Obscure Reaches 02:59
4. Bleeding Essence 04:45
5. Beckoning 02:49
******************************
Total playing time: 18:26



Register
(9) 0x13, blacky66, ddarkthrone, Legacy100, rom666, Rosen, RUSP73, tont, vasiljev_sergej,
Jun 14 2015, 16:28:54 Чёрные Озёра - Хандра (2013)
Register
те же характеристики, как оригинал.
(1) RUSP73,
Jun 14 2015, 13:53:10 BlackShore - Chaos Of The Nekrotyrant [ep] (2010)


*Artist: BlackShore
*Album: Chaos Of The Nekrotyrant [ep]
*Year: 2010
*Genre: Black/Thrash Metal
*Country: Germany
*Format: mp3@CBR128kbps
*Size: 15MB

Tracklist:
1. Rise of the Nekrotyrant 04:22
2. Black Vomit 03:09
3. Bitchgrinding Metal 03:32
4. Chaos of the Nekrotyrant 05:22
******************************
Total playing time: 16:25



Register
(6) craP_cillA, marilin, rom666, Rosen, satanist666, Styx,
Jun 14 2015, 05:15:02 Helmet - Pure: The B-Sides [compilation/bootleg] (2004)


*Artist: Helmet
*Album: Pure: The B-Sides [compilation/bootleg]
*Year: 2004
*Genre: Alternative Metal/Hardcore
*Country: United States
*Format: mp3@CBR192kbps
*Size: 128MB

Tracklist:
Disc 1:

01. Turned Out (Steve Albini Demo 1989) 04:03
02. Rock Messiah (Steve Albini Demo 1989) 03:38
03. Impressionable (1990) 02:03
04. Rude 04:17
05. Sinatra 04:40
06. Just Another Victim (Ft. House Of Pain 1993) 04:24
07. Just Another Victim (T-Ray Devil Worship Mix Ft. House Of Pain 1993) 04:37
08. Just Another Victim (T-Ray Dead & Stinking Mix Ft. House Of Pain 1993) 04:37
09. Just Another Victim (T-Ray Heavy Metal Jazz Mix 1993) 02:28
10. Just Another Victim (Instrumental 1993) 04:21
11. Pariah (1994) 02:15
12. Thick (1994) 03:05
13 Milktoast (Butch Vig Mix 1994) 03:59
14.Flushings (1994) 02:35

Disc 2:

01. Biscuits For Smut (Mutt Mix 994) 03:12
02. Biscuits For Smut (Pooch Mix 994) 03:37
03. Lord Of This World 03:28
04. Custard Pie 04:42
05. Complete 03:01
06. Symptom Of The Universe 03:46
07. Gigantor 04:14
08. Army Of Me (1996) 04:28
09. Disagreeable (1996) 03:44
10. Insatiable (Demo 996) 02:42
11. Pure (Wharton Tiers Mix 996) 03:51
12. Opportunity (Smart 004) 03:45
13. He Feels Bad (Remix 004) 04:10
******************************
Total playing time: 1:39:42

[more=Extended info]Rare unreleased tracks.[/more]

Register
(2) AndreFrancis, ENDSMOUTH,
Jun 14 2015, 04:44:48 Helmet - Unsung: The Best Of Helmet (1991-1997) [best of/compilation] (2004)


*Artist: Helmet
*Album: Unsung: The Best Of Helmet (1991-1997) [best of/compilation]
*Year: 2004
*Genre: Alternative Metal/Hardcore
*Country: United States
*Format: mp3@CBR320kbps
*Size: 164MB

Tracklist:
1. Repetition 2:59
2. FBLA 2:40
3. Bad Mood 2:15
4. Sinatra 4:23
5. In The Meantime 3:08
6. Iron Head 3:22
7. Give It 4:17
8. Unsung 3:57
9. Better 3:10
10. Just Another Victim 4:22
11. Wilma's Rainbow 3:53
12. I Know 3:41
13. Milquetoast 3:53
14. Rollo 2:38
15. Overrated 2:36
16. Disagreeable 3:44
17. Pure 3:33
18. Renovation 2:55
19. Like I Care 3:19
20. Driving Nowhere 4:19
21. Exactly What You Wanted 2:36
******************************
Total playing time: 1:11:40

Wikipedia


[more=Technical info]
Input File: Helmet - Unsung-The Best Of Helmet (\'91 - \'97) - 09 - Better.mp3
Channels : 2
Sample Rate : 44100
Precision : 16-bit
Duration : 00:03:10.38 = 8395890 samples = 14278.7 CDDA sectors
File Size : 7.62M
Bit Rate : 320k
Sample Encoding: MPEG audio (layer I, II or III)
Comments :
Title=Better
Artist=HC - Helmet
Album=Unsung : The Best of Helmet (1991-1997) [ Best of / Compilation ]
Tracknumber=09
Year=2004
Genre=Alternative Hardcore

[/more]

Register
(2) AndreFrancis, ENDSMOUTH,
Jun 12 2015, 19:50:28 Khaossos - Ihmisen Käsi [single] (2014)


*Artist: Khaossos
*Album: Ihmisen Käsi [single]
*Year: 2014
*Genre: Atmospheric Black Metal
*Country: Finland
*Format: mp3@CBR320kbps
*Size: 20MB

Tracklist:
1. Unholan Kaiku 02:21
2. Ihmisen Käsi 06:15
******************************
Total playing time: 8:36



[more=Technical info]
Input File: Khaossos - Ihmisen Käsi - 02 Ihmisen Käsi.mp3
Channels : 2
Sample Rate : 44100
Precision : 16-bit
Duration : 00:06:15.31 = 16551303 samples = 28148.5 CDDA sectors
File Size : 15.1M
Bit Rate : 322k
Sample Encoding: MPEG audio (layer I, II or III)
Comments :
Title=Ihmisen Käsi
Artist=B - Khaossos
Album=Ihmisen Käsi [ Single ]
Tracknumber=2
Year=2014
Genre=Atmospheric Black Metal

[/more]

Register
(14) 1968_janeart, blacky66, Darkthronefoad, ddarkthrone, Hell_Is_Here, NachtWulf, randumbum, rom666, Rosen, RUSP73, stub888, tont, varlam4, vasiljev_sergej,

29 Pages V   1 2 3 > » 
- Lo-Fi Version Support form
Copyrights and abuse reports form
Time is now: 5th June 2020 - 19:10:46