Welcome Guest ( Log In | Register )

История благодарностей участнику Evgundel ::: Спасибо сказали: 3426 раз(а)
Дата поста: В теме: За сообщение: Спасибо сказали:
Feb 20 2020, 11:08:29 The New Low - Misery (2012)


*Artist: The New Low
*Album: Misery
*Year: 2012
*Genre: Hardcore/Metalcore
*Country: Denmark
*Format: mp3@CBR320kbps
*Size: 75MB

Tracklist:
1. Misery 03:01
2. So Sick Of You 02:15
3. The Underdog 02:48
4. A Faded Photograph 03:24
5. Nothing In The End 02:19
6. Drown 02:47
7. Cowboy Suicide 00:44
8. Death Is Upon Us 02:56
9. Black Hearts 03:08
10. San Quentin 01:39
11. Going Nowhere 02:35
12. Hopeless Cases 02:46
13. Death March 02:18
******************************
Total playing time: 32:43





[more=Extended info]Released by Schizophrenic Inc. as LP/CD/Download.

Line-up:
Anders Bo Axel Jensen - guitars (Empire Of Doom)
Lasse Andersen - drums (Extended Suicide, ex-Plectrum Pete)
Nicolei Martin Aagaard Rasmussen - bass, backing vocals (De Forbandede, Extended Suicide)
Christian Vest Berntsen - lead vocals[/more]

[more=Technical info]
Input File: 03 The Underdog.mp3
Channels : 2
Sample Rate : 44100
Precision : 16-bit
Duration : 00:02:48.08 = 7412372 samples = 12606.1 CDDA sectors
File Size : 6.79M
Bit Rate : 323k
Sample Encoding: MPEG audio (layer I, II or III)
Comments :
Title=The Underdog
Artist=The New Low
Album=Misery
Tracknumber=3
Year=2012
Genre=Hardcore/Metal

[/more]

Register
(3) caro, Olethros, Rosen,
Feb 18 2020, 15:36:25 Måneskjold - Kometen Kommer (2016)


*Artist: Måneskjold
*Album: Kometen Kommer
*Year: 2016
*Genre: Psychedelic Space/Stoner Rock
*Country: Denmark
*Format: mp3@CBR320kbps
*Size: 86MB

Tracklist:
1. Jordslået 07:10
2. Hun Bor I En Jernpyramide 03:38
3. Skov 06:47
4. Bilspil 07:40
5. Kometen Kommer 05:13
6. Dødsdrom 06:40
******************************
Total playing time: 37:11





[more=Extended info]Issued by Kommun2 and Svensk Psych Aften.

Line-up:
Rasmus Miehe Sørensen - lead vocals, guitar
Kriller Andersen - guitar, backing vocals
Morten Bastkjær Christensen - bass
Mark B Jensen - drums[/more]

[more=Technical info]
Input File: 01 Jordslaet.mp3
Channels : 2
Sample Rate : 44100
Precision : 16-bit
Duration : 00:07:10.18 = 18971026 samples = 32263.6 CDDA sectors
File Size : 17.4M
Bit Rate : 323k
Sample Encoding: MPEG audio (layer I, II or III)
Comments :
Title=Jordslået
Artist=Måneskjold
Album=Kometen Kommer
Tracknumber=1
Year=2016
Genre=Psychedelic Rock

[/more]

Register
(6) marilin, Olethros, Rosen, stub888, stumpheavyrock, TAKATAEL,
Feb 16 2020, 09:14:18 De Forbandede & Måneskjold - De Forbandede/Måneskjold [split] (2019)


*Artist: De Forbandede & Måneskjold
*Album: De Forbandede/Måneskjold [split]
*Year: 2019
*Genre: Psychedelic Garage/Stoner Rock | Psychedelic Space/Stoner Rock
*Country: Denmark | Denmark
*Format: mp3@CBR320kbps
*Size: 34MB

Tracklist:
De Forbandede:
1. Åbn Dine Øjne 04:53
2. Egne Ben 03:59
Måneskjold:
3. Solsejler 03:21
4. Dolkhale 02:28
******************************
Total playing time: 14:42






[more=Extended info]Put out on vinyl and digitally by: Yoshiwara Collective, Svensk Psych Aften, SomeStudio, Virkelighedsfjern, Vinyltrolden and Record Pusher.

De Forbandede line-up:
Peter Østergaard Christensen - vocals, guitar
Nicolei Martin Aagaard Rasmussen - bass, backing vocals (Extended Suicide, ex-The New Low [Dnk])
Michael Hansen Buur - organ, synth, backing vocals (Mindmare, ex-Morfeus [Dnk])
Ricky Christensen - drums, percussion (ex-Megalomania 999, Slowjoint (live))

Måneskjold line-up:
Rasmus Miehe Sørensen - vocals, guitar (By Uden Himmel, ex-Rocket Gravy)
Kriller Andersen - guitar, backing vocals (By Uden Himmel, Gaia [Dnk], God Dam, Katla [Dnk], Lucid Grave, Naturale [Dnk], Solens Folk, ex-Rocket Gravy)
Morten Bastkjær Christensen - bass (Gaia [Dnk], God Dam, Gråsind, Katla [Dnk], Solens Folk)
Mark B Jensen - drums (Gaia [Dnk], Katla [Dnk], Solens Folk)[/more]

[more=Technical info]
Input File: 02 De Forbandede - Egne Ben.mp3
Channels : 2
Sample Rate : 44100
Precision : 16-bit
Duration : 00:03:58.98 = 10539062 samples = 17923.6 CDDA sectors
File Size : 9.65M
Bit Rate : 323k
Sample Encoding: MPEG audio (layer I, II or III)
Comments :
Title=Egne Ben
Artist=De Forbandede
Album=De Forbandede / Måneskjold - Split
Tracknumber=2
Year=2019
Genre=Psychedelic Rock

[/more]

Register
(2) Lanceatum, marilin,
Feb 13 2020, 16:19:12 Gaia & Drukner - Gaia/Drukner [split] (2019)


*Artist: Gaia & Drukner
*Album: Gaia/Drukner [split]
*Year: 2019
*Genre: Stoner/Doom Metal | Stoner/Doom Metal
*Country: Denmark | Denmark
*Format: mp3@CBR320kbps
*Size: 93MB

Tracklist:
Gaia:
1. Earthbound 13:34
2. Out Of The Well 08:23
Drukner:
3. Discordia I 05:46
4. Olmen 02:36
5. Discordia II 10:04
******************************
Total playing time: 40:24





[more=Extended info]Released in collaboration with: AUSI Records, Svensk Psych Aften, Vinyltrolden and Virkelighedsfjern.

Gaia line-up:
Mark B Jensen - drums (Måneskjold, Solens Folk)
Morten Bastkjær Christensen - bass (God Dam, Gråsind, Katla [Dnk], Måneskjold, Solens Folk)
Kriller Andersen - guitar, vocals (By Uden Himmel, God Dam, Katla [Dnk], Lucid Grave, Måneskjold, Naturale [Dnk], Rocket Gravy, Solens Folk)

Drukner line-up:
Theodor Reumert - drums
Mikkel Rishøj - guitar, soundscapes
Kåre Lindberg - bass
Palle Skovhede - guitar, vocals[/more]

[more=Technical info]
Input File: 02 Gaia - Out of the Well.mp3
Channels : 2
Sample Rate : 44100
Precision : 16-bit
Duration : 00:08:23.38 = 22199102 samples = 37753.6 CDDA sectors
File Size : 20.2M
Bit Rate : 321k
Sample Encoding: MPEG audio (layer I, II or III)
Comments :
Title=Out of the Well
Artist=Gaia
Album=Gaia / Drukner - Split
Tracknumber=2
Year=2019
Genre=Stoner/Doom Metal

[/more]

Register
(10) ASkyThatBurns, HMHamster, infiltrator, marilin, oversorrow, Rosen, stub888, stumpheavyrock, VALERY, varlam4,
Feb 11 2020, 17:06:42 Gaia - A Cure For Time (2016)
newer links (320):
Register
(1) varlam4,
Feb 9 2020, 11:03:42 Gaia - Reality Field (2014)
newer links (320):
Register
(1) varlam4,
Feb 7 2020, 11:48:47 Gaia & Slowjoint - Slowjoint​/​ Gaia [split] (2017)
newer links (320):
Register
(1) varlam4,
Feb 5 2020, 14:57:45 Slowjoint - Up Shit Creek (2014)
newer links (320):
Register
(2) Dargaud, varlam4,
Feb 4 2020, 13:17:13 Slowjoint - Retarded Blues Anthems [demo] (2012)


*Artist: Slowjoint
*Album: Retarded Blues Anthems [demo]
*Year: 2012
*Genre: Sludge/Stoner Doom Metal
*Country: Denmark
*Format: mp3@CBR320kbps
*Size: 29MB

Tracklist:
1. The Groove / Lost In The Woods / Drowning Nixie 13:29
******************************
Total playing time: 13:29






[more=Extended info]A re-release of Slowjoint's demotape (2012) made available through Virkelighedsfjern in 2016 only in 50 copies.

Dennis Fumblefinger - bass, vocals (Downthroat [Dnk])
Patrick Lazy - guitar
Benny Cock - drums[/more]

[more=Technical info]
Input File: 01 The Groove _ Lost in the Woods _ Drowning Nixie.mp3
Channels : 2
Sample Rate : 44100
Precision : 16-bit
Duration : 00:13:29.06 = 35679414 samples = 60679.3 CDDA sectors
File Size : 32.4M
Bit Rate : 321k
Sample Encoding: MPEG audio (layer I, II or III)
Comments :
Title=The Groove / Lost in the Woods / Drowning Nixie
Artist=Slowjoint
Album=Retarded Blues Anthems
Tracknumber=1
Year=2016
Genre=Sludge

[/more]

Register
(7) ASkyThatBurns, HMHamster, infiltrator, Olethros, Rosen, stub888, varlam4,
Jan 30 2020, 17:48:49 Hazzerd - Victimize The Innocent [ep] (2015)
320 kbps:
Register
(2) cesar, varlam4,
Jan 28 2020, 18:14:33 Abola - Prophet Of Genocide [ep] (2017)
newer links (320):
Register
(1) cist,
Jan 20 2020, 10:14:56 Psychosia - The Journey (2018)


*Artist: Psychosia
*Album: The Journey
*Year: 2018
*Genre: Instrumental Sludge/Doom/Death Metal
*Country: Austria
*Format: mp3@CBR320kbps
*Size: 98MB

Tracklist:
1. Track 1 01:30
2. Track 2 05:22
3. Track 3 04:30
4. Track 4 04:13
5. Track 5 02:25
6. Track 6 02:45
7. Die Vergänglichkeit des Seins 04:38
8. Track 8 03:53
9. Track 9 04:30
10. Track 10 04:31
11. Track 11 03:17
******************************
Total playing time: 41:39





[more=Extended info]Corbinian "Corbi" Pohl - all instruments[/more]

[more=Technical info]
Input File: 03 Track 3.mp3
Channels : 2
Sample Rate : 44100
Precision : 16-bit
Duration : 00:04:30.38 = 11923846 samples = 20278.6 CDDA sectors
File Size : 11.1M
Bit Rate : 329k
Sample Encoding: MPEG audio (layer I, II or III)
Comments :
Title=Track 3
Artist=Psychosia
Album=The Journey
Tracknumber=3
Year=2018
Genre=Instrumental Sludge/Doom Metal

[/more]

Register
(5) Grev, infiltrator, metala, Olethros, Rosen,
Jan 18 2020, 16:44:05 Psychosia - Rollercoaster (2017)


*Artist: Psychosia
*Album: Rollercoaster
*Year: 2017
*Genre: Death Metal/Grindcore/Sludge
*Country: Austria
*Format: mp3@CBR320kbps
*Size: 152MB

Tracklist:
1. Intro 01:58
2. Gib mir Grind 01:02
3. Paranoia 02:22
4. Eltern=Superhelden 03:16
5. Thx 03:29
6. Rollercoaster 02:38
7. Isolation 02:29
8. Einsamkeit 03:50
9. Verzweiflung 02:30
10. Narben 03:14
11. Gefangen im Ich 03:17
12. Gefährten 03:45
13. Unbeugsam 04:24
14. Angel's Tears 04:13
15. Die Leere im Inneren 02:43
16. Ich möchte leben 03:07
17. Das Streben nach Glück 03:51
18. Tod 02:42
19. Trauer 04:11
20. Erinnerung 04:19
21. Auf ein Wiedersehen 02:57
******************************
Total playing time: 1:06:28





[more=Extended info]Corbinian "Corbi" Pohl - guitars, bass, vocals

Guest members:
Lukas Haidinger - vocals (tracks 6, 10, 11, 13, 15, 17)
Steff "Bloodsux" Ecker - vocals (tracks 4, 5, 7, 8, 11, 13, 16, 19, 20)
Armin Schweiger - vocals (tracks 2, 3, 9, 13, 14, 18, 21)[/more]

[more=Technical info]
Input File: 04 Eltern=Superhelden.mp3
Channels : 2
Sample Rate : 44100
Precision : 16-bit
Duration : 00:03:16.79 = 8678483 samples = 14759.3 CDDA sectors
File Size : 8.01M
Bit Rate : 326k
Sample Encoding: MPEG audio (layer I, II or III)
Comments :
Title=Eltern=Superhelden
Artist=Psychosia
Album=Rollercoaster
Tracknumber=4
Year=2017
Genre=Deathgrind/Sludge

[/more]

Register
(7) ASkyThatBurns, atavist, infiltrator, jollo, Olethros, Rosen, Герб,
Jan 16 2020, 13:28:29 Psychosia - Last (2016)


*Artist: Psychosia
*Album: Last
*Year: 2016
*Genre: Death Metal/Grindcore/Sludge
*Country: Austria
*Format: mp3@CBR320kbps
*Size: 102MB

Tracklist:
1. Psychose 02:50
2. Last 05:40
3. Freundschaft 01:42
4. Ausgebrannt 02:58
5. Kampf 05:14
6. No Place Of Glory 04:46
7. Damals 02:58
8. Heute 03:12
9. Friends 07:50
10. Licht 01:42
11. Besserung 02:04
12. Frei 02:43
******************************
Total playing time: 43:45





[more=Extended info]Corbinian "Corbi" Pohl - vocals (tracks 4, 6, 7, 9, 11, 12), guitars, bass

Guest members:
Lukas Haidinger - drums (tracks 1, 2, 5, 9, 11), vocals (tracks 1, 2, 3, 6, 9, 10, 12)
Knüppelheinz - vocals (track 1)
Armin Schweiger - drums (tracks 3, 4, 7, 8), vocals (tracks 8, 10)
Hans "Sick Hanson" Brunhuber - vocals (tracks 3, 7, 10)
Veit Humer - vocals (tracks 4, 7)
Christoph Steinlechner - guitar solo (track 4)
Stephan "Bloodsux" Ecker - vocals (tracks 5, 11)
Roland "Cunzla" Kössler - drums (track 6)
Martin Zeller - drums (tracks 10, 12)[/more]

[more=Technical info]
Input File: 01 Psychose.mp3
Channels : 2
Sample Rate : 44100
Precision : 16-bit
Duration : 00:02:50.93 = 7537925 samples = 12819.6 CDDA sectors
File Size : 7.00M
Bit Rate : 328k
Sample Encoding: MPEG audio (layer I, II or III)
Comments :
Title=Psychose
Artist=Psychosia
Album=Last
Tracknumber=1
Year=2016
Genre=Deathgrind/Sludge

[/more]

Register
(7) ASkyThatBurns, atavist, caro, infiltrator, jollo, Olethros, Rosen,
Jan 13 2020, 12:22:18 Behind The Mask - Seelenraub [ep] (2019)


*Artist: Behind The Mask
*Album: Seelenraub [ep]
*Year: 2019
*Genre: Death Metal/Grindcore
*Country: Austria
*Format: mp3@CBR320kbps
*Size: 35MB

Tracklist:
1. Intro 01:23
2. Sklaven 02:25
3. Sünde 03:24
4. Seelenraub 01:54
5. Totenwacht 03:26
******************************
Total playing time: 12:33





[more=Extended info]Jerry - guitar, vocals
Corbi - bass, vocals (Psychosia, ex-Ultrawurscht)
Yannick - drums (Distaste [Aut])[/more]

[more=Technical info]
Input File: 02 Sklaven.mp3
Channels : 2
Sample Rate : 44100
Precision : 16-bit
Duration : 00:02:25.67 = 6423871 samples = 10925 CDDA sectors
File Size : 6.01M
Bit Rate : 330k
Sample Encoding: MPEG audio (layer I, II or III)
Comments :
Title=Sklaven
Artist=Behind the Mask
Album=Seelenraub
Tracknumber=2
Year=2019
Genre=Deathgrind

[/more]

Register
(7) Hell_Is_Here, Olethros, Rosen, satanist666, umnaxtet, varlam4, vyacheslav,
Jan 11 2020, 14:32:53 BTM - Alpha/Omega (2017)


*Artist: BTM
*Album: Alpha/Omega
*Year: 2017
*Genre: Deathcore
*Country: Austria
*Format: mp3@CBR320kbps
*Size: 74MB

Tracklist:
1. Intro / I Am Your Doom 04:01
2. Envy 03:38
3. Venom 03:25
4. Stalker 03:26
5. Eat Or Die 03:49
6. The Purge 03:23
7. The Eternal Void 05:01
8. Moorsoldaten (bonus track) 04:18
******************************
Total playing time: 31:06





[more=Extended info]The band's name Behind The Mask became abbreviated from 2016 to 2018. They released a single and the full-length album as BTM.

Duni - vocals
Jerry - guitar, vocals
Mace - guitar
Woidl - bass
Yannick - drums (Distaste [Aut])[/more]

[more=Technical info]
Input File: 02 Envy.mp3
Channels : 2
Sample Rate : 44100
Precision : 16-bit
Duration : 00:03:38.84 = 9650800 samples = 16412.9 CDDA sectors
File Size : 8.89M
Bit Rate : 325k
Sample Encoding: MPEG audio (layer I, II or III)
Comments :
Title=Envy
Artist=BTM
Album=Alpha / Omega
Tracknumber=2
Year=2017
Genre=Deathcore

[/more]

Register
(5) GorAtheist, infiltrator, Olethros, Rosen, wreak,
Jan 9 2020, 12:24:33 Rotten Cold - Grind Culture (2012)


*Artist: Rotten Cold
*Album: Grind Culture
*Year: 2012
*Genre: Grindcore/Death Metal
*Country: Austria
*Format: mp3@CBR320kbps
*Size: 99MB

Tracklist:
1. Ghosts 01:53
2. All You Got 01:53
3. Vulture's Land 02:26
4. Insignificant 02:12
5. Turning Cold 02:27
6. Nostalgia 04:57
7. The Great White (Shark Song) 01:31
8. Fear Works 02:57
9. In Ruins 02:02
10. Cut Through Me 02:20
11. Scratching the Surface 02:35
12. Spark 02:01
13. Smiles to Fake 02:00
14. Rename Painless 02:12
15. Different Scenes 01:54
16. Touch the Soul 03:16
17. Pretend to Know 03:20
18. The Idiot Parade (Nasum cover) 01:48
******************************
Total playing time: 43:54






[more=Extended info]2019 re-release with bonus cover track.

Daniel Polsinger - vocals (Abortion Freak, Decomposed Cranium, ex-Exterior [Aut], ex-LST)
David Schwarz - guitars, backing vocals (ex-Devastation [Aut])
Stefan Seiner - bass (ex-Devastation [Aut])
Wolfgang Offner - drums (ex-At Lilith's Court, ex-Navtilvs [Aut])[/more]

[more=Technical info]
Input File: 04 Insignificant.mp3
Channels : 2
Sample Rate : 44100
Precision : 16-bit
Duration : 00:02:12.84 = 5858200 samples = 9962.93 CDDA sectors
File Size : 5.42M
Bit Rate : 326k
Sample Encoding: MPEG audio (layer I, II or III)
Comments :
Title=Insignificant
Artist=Rotten Cold
Album=Grind Culture
Tracknumber=4
Year=2019
Genre=Grindcore

[/more]

Register
(11) 666kolobok666, atavist, infiltrator, lldma, METALHUNTER, Olethros, Ostinato, Rosen, satanist666, Zhelezjaka, Герб,
Jan 7 2020, 18:53:58 Rotten Cold & Distaste - Split [split] (2016)
newer links (320):
Register
(2) satanist666, Zhelezjaka,
Jan 3 2020, 12:46:01 Distaste & Bastard Peels - Distaste Vs Bastard Peels [split] (2010)


*Artist: Distaste & Bastard Peels
*Album: Distaste Vs Bastard Peels [split]
*Year: 2010
*Genre: Grindcore/Crust | Grindcore/Death Metal
*Country: Austria | Austria
*Format: mp3@CBR320kbps
*Size: 74MB

Tracklist:
Distaste:
1. Needs 02:44
2. Robots 02:34
3. Statement 00:43
4. You 03:01
5. Facedown in Dust 01:29
6. Burn 02:12
7. 2314 (Bastard Peels cover) 01:50
Bastard Peels:
8. Sonne sehen 01:32
9. Wie wird es sein? 01:23
10. Toepfer 01:57
11. Lego aber keine Haende 01:03
12. Kamera 01:46
13. Wenn du gehst 03:58
14. Infected (Distaste cover) 01:10
15. Dauerhaft akut 01:20
16. Spassmacher 03:37
******************************
Total playing time: 32:27






[more=Extended info]Released by Refused Records.

Distaste line-up:
Armin Schweiger - guitar, vocals
Phillippe Seil - bass
Lukas Haidinger - drums

Bastard Peels line-up:
Engel Mayr - vocals, guitar
Jürgen Schallauer - bass
Erich Kirchner - drums[/more]

[more=Technical info]
Input File: 05 Distaste - Facedown in Dust.mp3
Channels : 2
Sample Rate : 44100
Precision : 16-bit
Duration : 00:01:28.98 = 3923886 samples = 6673.28 CDDA sectors
File Size : 3.75M
Bit Rate : 337k
Sample Encoding: MPEG audio (layer I, II or III)
Comments :
Title=Facedown in Dust
Artist=Distaste
Album=Distaste vs Bastard Peels
Tracknumber=5
Year=2010
Genre=Grindcore

[/more]

Register
(6) alikkon, Hell_Is_Here, Lanceatum, Rosen, satanist666, Zhelezjaka,
Jan 2 2020, 14:17:07 Distaste - Deibel (2019)
ЦИТАТА(K-61082 @ Dec 29 2019, 19:35:43) *
Многоуважаемые! Обновите пожалуйста ссылки!

320 kbps:
Register

FLAC (tracks):
Register
(2) K-61082, satanist666,
Jan 1 2020, 17:05:04 GraveFlower - Primordium [demo] (2004)
320 kbps:
Register
(1) thenecromancer,
Dec 28 2019, 12:17:22 There's A Light - A Long Lost Silence (2018)


*Artist: There's A Light
*Album: A Long Lost Silence
*Year: 2018
*Genre: Post-Rock/Experimental
*Country: Germany
*Format: mp3@VBR255kbps
*Size: 94MB

Tracklist:
1. Intro 02:42
2. Beteigeuze 08:49
3. White Marble 05:35
4. Farewell, My Friend 08:44
5. Across The River, Into The Trees 06:06
6. Far North 04:29
7. Antagonism 06:10
8. A Long Lost Silence 08:19
******************************
Total playing time: 50:58






[more=Extended info]All music recorded by There's A Light

David Christmann
Markus Dold
Andreas Richau
Jan Lüftner


Cello played by Miriam Rother

"In memory of Jonas and Dietmar"[/more]

[more=Technical info]
Input File: 03-theres_a_light-white_marble.mp3
Channels : 2
Sample Rate : 44100
Precision : 16-bit
Duration : 00:05:35.60 = 14799740 samples = 25169.6 CDDA sectors
File Size : 11.1M
Bit Rate : 266k
Sample Encoding: MPEG audio (layer I, II or III)
Comments :
Title=White Marble
Artist=There's A Light
Album=A Long Lost Silence
Tracknumber=3/8
Year=2018-07-20
Genre=Instrumental Rock

[/more]

Register
(7) A.L.Rapsod, as71, Buregon, gena, Immolator, infiltrator, Olethros,
Dec 27 2019, 16:18:05 There's A Light - Khartoum [ep] (2012)


*Artist: There's A Light
*Album: Khartoum [ep]
*Year: 2012
*Genre: Post-Rock/Experimental
*Country: Germany
*Format: mp3@CBR320kbps
*Size: 41MB

Tracklist:
1. Unity 03:46
2. Khartoum 04:34
3. Eudaimonia 03:56
4. We Choose To Go To The Moon 04:09
******************************
Total playing time: 16:26





[more=Extended info]All music was written and recorded in 2012 by:

David Christmann
Jonas Obermüller
Andreas Richau
Nicolas Richau


Track 1 contains parts of the final speech from the movie "The Great Dictator" by Charlie Chaplin.[/more]

[more=Technical info]
Input File: 01 Unity.mp3
Channels : 2
Sample Rate : 44100
Precision : 16-bit
Duration : 00:03:46.08 = 9969952 samples = 16955.7 CDDA sectors
File Size : 9.17M
Bit Rate : 324k
Sample Encoding: MPEG audio (layer I, II or III)
Comments :
Title=Unity
Artist=There's A Light
Album=Khartoum
Tracknumber=1
Year=2012
Genre=Post-Rock

[/more]

Register
(3) craP_cillA, gena, Olethros,
Dec 24 2019, 18:08:33 Endalok - Formlaust [demo] (2016)
newer links (320):
Register

P.S. на фб и бк исполнителя это демо называется "Englaryk"! и на дискогз такое ж название.
(1) satanist666,
Dec 18 2019, 13:37:55 Norn - BÖRN: Vltima Permonvm Conea (2015)
newer links (320):
Register
(1) wendigo,

41 Pages V   1 2 3 > » 
- Lo-Fi Version Support form
Copyrights and abuse reports form
Time is now: 23rd February 2020 - 01:38:17