Welcome Guest ( Log In | Register )

История благодарностей участнику Evgundel ::: Спасибо сказали: 3059 раз(а)
Дата поста: В теме: За сообщение: Спасибо сказали:
Jul 19 2019, 14:56:47 Astronoid - November [ep] (2012)
newer links (320):
Register
(1) kim666,
Jul 15 2019, 04:22:05 The King Is Blind - The Deficiencies Of Man [ep] (2014)
320 kbps, 39 mb:
Register
(1) AndreFrancis,
Jul 13 2019, 09:01:02 The King Is Blind - The Deficiencies Of Man [ep] (2014)


*Artist: The King Is Blind
*Album: The Deficiencies Of Man [ep]
*Year: 2014
*Genre: Death/Doom Metal
*Country: United Kingdom
*Format: flac
*Size: 123MB

Tracklist:
1. A Thousand Burning Temples 04:00
2. Of Osiris & Execration 04:58
3. Thorns That Pierce The Skull 03:46
4. Revelation, Apocalypse 03:19
******************************
Total playing time: 16:05





[more=Extended info]Lee James Appleton - lead & rhythm guitars (ex-Entwined [UK])
Stephen John Tovey - vocals, bass (ex-Entwined [UK])
Paul Alan Ryan-Reader - lead & rhythm guitars (Evil Forest, Nine Covens, ex-Cradle Of Filth, ex-The Blood Divine)
Barnaby Joseph Monger - drums (Nine Covens, Raw Noise, ex-Extreme Noise Terror, ex-Vessel [UK])[/more]

Register
(3) AndreFrancis, Olethros, sergsazan,
Jul 8 2019, 15:07:59 I Warned You - Breathing The Scarlets (2012)
320 kbps, 81 mb:
Register
(1) DiegoMassakre,
Jun 30 2019, 17:00:36 Cutterred Flesh - Dying In Pieces (2013)
320 kb/s, 72 mb:
Register
(2) Corpuscul, WarmasterChorus,
Jun 26 2019, 12:17:41 Piah Mater - Memories Of Inexistence (2014)
newer links (320):
Register
(1) wendigo,
Jun 17 2019, 16:54:14 Obastra - Ii [ep] (2018)


*Artist: Obastra
*Album: Ii [ep]
*Year: 2018
*Genre: Progressive Brutal Death Metal/Deathcore
*Country: United States
*Format: mp3@CBR320kbps
*Size: 52MB

Tracklist:
1. Mire 05:15
2. Entropy 03:23
3. Mark Of The Bog Witch 03:09
4. Still Air, Loss 01:24
5. Embers In The Fog 06:03
******************************
Total playing time: 19:16





[more=Extended info]Rocky Chavez - guitars
Kyle Shearn - bass (ex-Feast [US, Ca], ex-Logistic Slaughter)
Zack Taylor - lead vocals

Kendric DiStefano - session drums (Amethyst Falls, Logistic Slaughter, ex-Airs, ex-Augurs, ex-Septicaemia [US], ex-Xenotaph [US] (live))[/more]

[more=Technical info]
Input File: 02 Entropy.mp3
Channels : 2
Sample Rate : 44100
Precision : 16-bit
Duration : 00:03:23.09 = 8956137 samples = 15231.5 CDDA sectors
File Size : 8.27M
Bit Rate : 326k
Sample Encoding: MPEG audio (layer I, II or III)
Comments :
Title=Entropy
Artist=Obastra
Album=II
Tracknumber=2
Year=2018
Genre=Death Metal

[/more]

Register
(7) GorAtheist, Hell_Is_Here, kimkayoung, Olethros, Rosen, wreak, Волос,
Jun 14 2019, 10:12:00 Path To Extinction - Path To Extinction [ep] (2014)


*Artist: Path To Extinction
*Album: Path To Extinction [ep]
*Year: 2014
*Genre: Death Metal/Grind
*Country: Canada
*Format: mp3@CBR320kbps
*Size: 47MB

Tracklist:
1. Decorated Demons 03:44
2. The Horseman 04:12
3. Indoctrination Of Filth 03:35
4. Unholy Retribution 04:01
5. Tyrannic Reign 04:27
******************************
Total playing time: 20:01




[more=Extended info]Mike Ballard - guitar
Arjun Gill - guitar (Premonition [Sau], Wake [Can], ex-Moosifix)
Aaron Lang - bass (Plaguebringer [Can])
Kurtis Offet - vocals
Ted Reekie - drums (Sub-Atomic Chaos, Urheimat [Can] (live))[/more]

[more=Technical info]
Input File: 01 Decorated Demons.mp3
Channels : 2
Sample Rate : 44100
Precision : 16-bit
Duration : 00:03:44.06 = 9881222 samples = 16804.8 CDDA sectors
File Size : 9.10M
Bit Rate : 325k
Sample Encoding: MPEG audio (layer I, II or III)
Comments :
Title=Decorated Demons
Artist=Path to Extinction
Album=Path to Extinction
Tracknumber=1
Year=2014
Genre=Death Metal

[/more]

Register
(7) GorAtheist, Hell_Is_Here, Olethros, Rosen, vyacheslav, wreak, Герб,
Jun 13 2019, 10:57:27 Sub-Atomic Chaos - The Anti-Matter [ep] (2011)
320 kbps, 56 mb:
Register
(5) MEmethuselah, TDM, Vital157, Луч, Язва,
Jun 11 2019, 12:48:12 Sigil - Mutagen (2013)


*Artist: Sigil
*Album: Mutagen
*Year: 2013
*Genre: Black Metal/Hardcore
*Country: Canada
*Format: mp3@CBR320kbps
*Size: 47MB

Tracklist:
1. Antipodes 02:53
2. Slave Driver 01:49
3. Oppressor 01:48
4. Cartilage Ropes 02:07
5. Sacrosanct 03:00
6. Abyssal Defiance 03:50
7. Bending The Fog 03:17
8. Cathartic Avulsions 01:36
******************************
Total playing time: 20:23






[more=Extended info]Clennon Aranha - vocals (Sub-Atomic Chaos)
Peter Tyukasz - guitar, bass, recording engineering (Alder [Can], ex-Moradin, ex-Ominosity)
David Horrocks - drums, mixing, mastering (Alder [Can], Numenorean, ex-Hrom [Can], ex-Moradin, ex-Ominosity, ex-Sub-Atomic Chaos, Dark Forest [Can] (live), ex-Black Pestilence (live))[/more]

[more=Technical info]
Input File: 02 Slave Driver.mp3
Channels : 2
Sample Rate : 44100
Precision : 16-bit
Duration : 00:01:49.80 = 4842092 samples = 8234.85 CDDA sectors
File Size : 4.45M
Bit Rate : 325k
Sample Encoding: MPEG audio (layer I, II or III)
Comments :
Title=Slave Driver
Artist=Sigil
Album=Mutagen
Tracknumber=2
Year=2013
Genre=Black Metal/Hardcore

[/more]

Register
(8) ahp, GorAtheist, lestllk, Olethros, Rosen, Sanctus, vasiljev_sergej, wreak,
Jun 6 2019, 12:16:51 Death Motif - The Algorithm Said No [ep] (2019)


*Artist: Death Motif
*Album: The Algorithm Said No [ep]
*Year: 2019
*Genre: Blackened Sludge/Technical Death Metal
*Country: United States
*Format: mp3@CBR320kbps
*Size: 28MB

Tracklist:
1. Collapse 03:52
2. Ephialtes Is Jealous Again 03:41
3. Gallows Humor 03:23
******************************
Total playing time: 10:58




[more=Extended info]Andy Bonnie - guitar, vocals (Sigil [US])
Donner Maldonado - bass, vocals
Pete Murray - drums[/more]

[more=Technical info]
Input File: 02 Ephialtes is Jealous Again.mp3
Channels : 2
Sample Rate : 44100
Precision : 16-bit
Duration : 00:03:41.58 = 9771766 samples = 16618.6 CDDA sectors
File Size : 9.00M
Bit Rate : 325k
Sample Encoding: MPEG audio (layer I, II or III)
Comments :
Title=Ephialtes is Jealous Again
Artist=Death Motif
Album=The Algorithm Said No
Tracknumber=2
Year=2019
Genre=Metal

[/more]

Register
(6) artscald, Hell_Is_Here, Olethros, Ostinato, Rosen, wreak,
Jun 6 2019, 06:24:19 Death Motif - Stay Alone (2018)
newer links (320):
Register
(2) artscald, thenecromancer,
Jun 5 2019, 13:16:08 Death Motif - The Water [ep] (2015)
newer links (320):
Register
(3) artscald, thenecromancer, wendigo,
Jun 4 2019, 17:53:25 Death Motif - A Filthy Crown [ep] (2014)
newer links (320):
Register

P.S. здесь в кач-ве ударника еще был Josh Dawkins (Dead to a Dying World, ex-Lions of Tsavo). а Nikos Riekstins - на последующем ипи.
(2) artscald, wendigo,
Jun 2 2019, 08:25:28 Unmothered - Unmothered [ep] (2012)
newer links (320):
Register
(1) stumpheavyrock,
May 17 2019, 10:59:56 The Infected - The Afterparty [single] (2012)


*Artist: The Infected
*Album: The Afterparty [single]
*Year: 2012
*Genre: Punk/Thrash/Heavy Metal
*Country: United States
*Format: mp3@CBR320kbps
*Size: 24MB

Tracklist:
1. No Idea 03:02
2. Digital Age 02:43
3. Refuse 04:20
******************************
Total playing time: 10:06







[more=Extended info]'The Infected has honed their sound to a unique blend of rock, metal, and punk that is accessible, captivating, lightning fast, and all their own.'

Clay Bail - guitar, vocals
Buck Foley - bass, vocals
Matt Gonzalez - drums (Typesetter)
Nate Madden - guitar, vocals (Immortal Bird, Roman Ring)[/more]

[more=Technical info]
Input File: 01 No Idea.mp3
Channels : 2
Sample Rate : 44100
Precision : 16-bit
Duration : 00:03:02.06 = 8028714 samples = 13654.3 CDDA sectors
File Size : 7.44M
Bit Rate : 327k
Sample Encoding: MPEG audio (layer I, II or III)
Comments :
Title=No Idea
Artist=The Infected
Album=The Afterparty
Tracknumber=1
Year=2012
Genre=Punk/Metal

[/more]

Register
(4) gwar, Olethros, pichileon, Rosen,
May 16 2019, 08:54:45 The Infected - The Party [ep] (2012)


*Artist: The Infected
*Album: The Party [ep]
*Year: 2012
*Genre: Punk/Thrash/Heavy Metal
*Country: United States
*Format: mp3@CBR320kbps
*Size: 43MB

Tracklist:
1. The Rainmaker 03:11
2. Bordello Blues 01:18
3. Face To Face 03:33
4. Rage 03:39
5. The Simulation 03:17
6. The Party Is Over 03:07
******************************
Total playing time: 18:06







[more=Extended info]Defined by themselves as 'Loud, fast punk rock from Chicago with guitar solos'.

Clay Bail - guitar, vocals
Buck Foley - bass, vocals
Matt Gonzalez - drums (Typesetter)
Nate Madden - guitar, vocals (Immortal Bird, Roman Ring)[/more]

[more=Technical info]
Input File: 03 Face to Face.mp3
Channels : 2
Sample Rate : 44100
Precision : 16-bit
Duration : 00:03:33.12 = 9398504 samples = 15983.9 CDDA sectors
File Size : 8.69M
Bit Rate : 326k
Sample Encoding: MPEG audio (layer I, II or III)
Comments :
Title=Face to Face
Artist=The Infected
Album=The Party
Tracknumber=3
Year=2012
Genre=Punk/Metal

[/more]

Register
(4) gwar, Olethros, Rosen, wreak,
May 14 2019, 15:07:27 Cokegoat & Barren Heir - Sunshine/Tracing Light [split] (2018)


*Artist: Cokegoat & Barren Heir
*Album: Sunshine/Tracing Light [split]
*Year: 2018
*Genre: Progressive Sludge/Doom Metal | Sludge/Doom Metal/Post-Metal
*Country: United States | United States
*Format: mp3@CBR320kbps
*Size: 98MB

Tracklist:
Cokegoat:
1. Tonight 01:56
2. Rainbow Valley 07:51
3. Night Rainbow 04:23
4. Pig On A Horse 04:36
Barren Heir:
5. Tracing Light I 13:42
6. Tracing Light II 06:39
******************************
Total playing time: 39:09






[more=Extended info]Cokegoat is: Tim Baldwin (bass), Chase Bentley (guitar, vocals), Rebekah Brown (synths, vocals), Ed Nudd (guitar), Jordan Schultz (drums) and Jeff Wojtysiak (guitar, vocals). Additional musicians on Sunshine: Jeremiah Klinger (synthesizers), Andy Nelson (guitar) and Stephen Reichelt (double bass, words and voice).
Barren Heir is: Nick LaRocco (drums), Eddie Limperis (bass, vocals) and David Kirsch (guitars). Additional musician on Tracing Light: Jeremiah Klinger (synthesizers).[/more]

[more=Technical info]
Input File: 03 Cokegoat - Night Rainbow.mp3
Channels : 2
Sample Rate : 44100
Precision : 16-bit
Duration : 00:04:23.80 = 11633536 samples = 19784.9 CDDA sectors
File Size : 10.6M
Bit Rate : 322k
Sample Encoding: MPEG audio (layer I, II or III)
Comments :
Title=Night Rainbow
Artist=Cokegoat
Album=Sunshine
Tracknumber=3
Year=2018
Genre=Sludge/Doom Metal

[/more]

Register
(1) Rosen,
May 12 2019, 08:02:39 Wasted Fortune - Wasted Fortune [ep] (2013)


*Artist: Wasted Fortune
*Album: Wasted Fortune [ep]
*Year: 2013
*Genre: Noise Rock/Experimental Metal/Post-Metal
*Country: United States
*Format: mp3@CBR320kbps
*Size: 57MB

Tracklist:
1. Venison 04:34
2. Facile 02:25
3. Bare 06:01
4. Stagger 03:19
5. Fossa 07:39
******************************
Total playing time: 24:00




[more=Extended info]Line-up:
David Kirsch - guitar (Barren Heir)
Nick LaRocco - drums (Barren Heir)
Eddie Limperis - bass, vocals (Barren Heir, Something Is Waiting)[/more]

[more=Technical info]
Input File: 03 Bare.mp3
Channels : 2
Sample Rate : 44100
Precision : 16-bit
Duration : 00:06:01.50 = 15942238 samples = 27112.6 CDDA sectors
File Size : 14.6M
Bit Rate : 324k
Sample Encoding: MPEG audio (layer I, II or III)
Comments :
Title=Bare
Artist=Wasted Fortune
Album=Wasted Fortune
Tracknumber=3
Year=2013
Genre=Experimental

[/more]

Register
(3) Olethros, Rosen, wreak,
Apr 26 2019, 16:21:26 Night Hag - Confidence Man [ep] (2012)


*Artist: Night Hag
*Album: Confidence Man [ep]
*Year: 2012
*Genre: Black Metal/Hardcore Punk
*Country: Australia
*Format: mp3@CBR320kbps
*Size: 20MB

Tracklist:
1. Roast Beef Living 01:38
2. Stunted 02:55
3. Junk Science 01:23
4. Number Rash 02:31
******************************
Total playing time: 8:28





[more=Extended info]Night Hag from Adelaide, Australia released their 7" on Monolith in April 2012.

Dale Halliday - vocals (God God Dammit Dammit, Laser Death Ray)
David Gibson - guitar (Funeral Moon [Aus], Meat Wallet, Rat Catcher, Space Bong, ex-Great Ape, ex-The Rivalry [Aus])
Joe Steele - guitar (Hydromedusa, ex-Prisonbitch)
Mark Dean - bass (ex-Sex Wizard, ex-The Rivalry [Aus])
Nathan Steer - drums (ex-Great Ape, ex-The Weight [Aus])[/more]

[more=Technical info]
Input File: 01 Roast Beef Living.mp3
Channels : 2
Sample Rate : 44100
Precision : 16-bit
Duration : 00:01:38.02 = 4322506 samples = 7351.2 CDDA sectors
File Size : 4.14M
Bit Rate : 338k
Sample Encoding: MPEG audio (layer I, II or III)
Comments :
Title=Roast Beef Living
Artist=Night Hag
Album=Confidence Man
Tracknumber=1
Year=2012
Genre=Hardcore

[/more]

Register
(5) LordHaart, marilin, Olethros, Rosen, vasiljev_sergej,
Apr 2 2019, 15:38:46 Indecent Excision - Thy Befouled Flesh [demo] (2017)


*Artist: Indecent Excision
*Album: Thy Befouled Flesh [demo]
*Year: 2017
*Genre: Brutal Death Metal
*Country: Italy
*Format: mp3@CBR320kbps
*Size: 19MB

Tracklist:
1. Transfigured Corpse Mutilation 03:18
2. Thy Befouled Flesh 03:24
******************************
Total playing time: 6:43






[more=Extended info]This promo released on CD through Groupies Merch in June 2017.

Matteo Bazzanella - vocals (Cerebral Paralysis, Neurogenic, ex-Execration [Ita], ex-Sick [US, CA] (live))
Hannes Gamper - guitar, backing vocals (Precognitive Holocaust Annotations, Shockwave Extinction, ex-Sick [US, CA] (live))
Giancarlo Mendo - bass (Alice In Darkland, Node [Ita])
Davide Farabegoli - drums (Malsano Unguento, Morbid Pest, Rusco, Unkreated [Ita], ex-Hyperborean [Ita], ex-Surge Assault)[/more]

[more=Technical info]
Input File: 02 Thy Befouled Flesh.mp3
Channels : 2
Sample Rate : 44100
Precision : 16-bit
Duration : 00:03:24.76 = 9029872 samples = 15356.9 CDDA sectors
File Size : 8.35M
Bit Rate : 326k
Sample Encoding: MPEG audio (layer I, II or III)
Comments :
Title=Thy Befouled Flesh
Artist=Indecent Excision
Album=Thy Befouled Flesh
Tracknumber=2
Year=2017
Genre=Brutal Death Metal

[/more]

Register
(4) Hell_Is_Here, Olethros, Rosen, Герб,
Mar 25 2019, 17:21:26 A Very Old Ghost Behind The Farm - La Came Crude (2014)


*Artist: A Very Old Ghost Behind The Farm
*Album: La Came Crude
*Year: 2014
*Genre: Sludge/Doom Metal
*Country: France
*Format: mp3@CBR320kbps
*Size: 120MB

Tracklist:
1. Part I 15:40
2. Part II 30:00
******************************
Total playing time: 45:41





[more=Extended info]+ booklet in .pdf[/more]

[more=Technical info]
Input File: 01 Part I.mp3
Channels : 1
Sample Rate : 44100
Precision : 16-bit
Duration : 00:15:40.54 = 41477726 samples = 70540.4 CDDA sectors
File Size : 37.8M
Bit Rate : 321k
Sample Encoding: MPEG audio (layer I, II or III)
Comments :
Title=Part I
Artist=A Very Old Ghost Behind The Farm
Album=La Came Crude
Tracknumber=1
Year=2014
Genre=Metal

[/more]

Register
(9) artscald, Ludwig Hagen, marilin, Olethros, Paradayz, robertho777, Rosen, stub888, wreak,
Mar 19 2019, 10:31:12 Monsieur Boniface - Minutes De Sable (2013)


*Artist: Monsieur Boniface
*Album: Minutes De Sable
*Year: 2013
*Genre: Psychedelic Post-Rock/Ambient/Jazz
*Country: France
*Format: mp3@CBR320kbps
*Size: 103MB

Tracklist:
1. Intra Muros 06:10
2. Cerrado 04:20
3. Nostos 06:15
4. Horizonte 04:22
5. Giro Del Mondo 02:49
6. Dor 04:39
7. Arcadia 05:57
8. Etere 05:46
9. Tintern Abbey 04:38
******************************
Total playing time: 45:00




[more=Extended info]Lundi Galilao: all instruments (A Very Old Ghost Behind The Farm, Dead Mountain Mouth, NoPlaceForMan, Prognathe)[/more]

[more=Technical info]
Input File: 04 Horizonte.mp3
Channels : 2
Sample Rate : 44100
Precision : 16-bit
Duration : 00:04:22.62 = 11581674 samples = 19696.7 CDDA sectors
File Size : 10.7M
Bit Rate : 326k
Sample Encoding: MPEG audio (layer I, II or III)
Comments :
Title=Horizonte
Artist=Monsieur Boniface
Album=Minutes de Sable
Tracknumber=4
Year=2013
Genre=Experimental

[/more]

Register
(3) A.L.Rapsod, Ash_1980, Olethros,
Mar 16 2019, 17:39:44 Noplaceforman - O [ep] (2008)


*Artist: Noplaceforman
*Album: O [ep]
*Year: 2008
*Genre: Instrumental Progressive Metal/Post-Rock
*Country: France
*Format: mp3@VBR215kbps
*Size: 28MB

Tracklist:
1. Breathe 04:12
2. In Vast Silent Depths 10:24
3. Oceano Nox 03:30
******************************
Total playing time: 18:07


Preview 2

[more=Extended info]A musical duo featuring Lundi Galilao (A Very Old Ghost Behind The Farm, Dead Mountain Mouth, Monsieur Boniface, Prognathe)[/more]

[more=Technical info]
Input File: 01_-_Breathe.mp3
Channels : 2
Sample Rate : 44100
Precision : 16-bit
Duration : 00:04:12.45 = 11132913 samples = 18933.5 CDDA sectors
File Size : 6.71M
Bit Rate : 213k
Sample Encoding: MPEG audio (layer I, II or III)
Comments :
Title=Breathe
Artist=NoPlaceForMan
Album=O
Tracknumber=1
Year=2008
Genre=Instrumental Rock

[/more]

Register
(5) artscald, Olethros, Rosen, SatanicPanzer, wreak,
Mar 13 2019, 12:27:00 Dead Mountain Mouth - Phtos (2016)


*Artist: Dead Mountain Mouth
*Album: Phtos
*Year: 2016
*Genre: Psychedelic/Avant-Garde Sludge
*Country: France
*Format: mp3@CBR320kbps
*Size: 116MB

Tracklist:
1. Born From The Tides 03:52
2. Delusions And Ghosts 03:19
3. A Call 03:59
4. Up To The Sun 05:44
5. Rejoice 02:07
6. Burst 04:02
7. Sermo In Monte 03:07
8. Axis Mundi 04:00
9. The Waste Land 20:27
******************************
Total playing time: 50:40





[more=Extended info]Lundi Galilao - all instruments and vocals (A Very Old Ghost Behind The Farm, Monsieur Boniface, NoPlaceForMan, Prognathe)[/more]

[more=Technical info]
Input File: 02 Delusions and Ghosts.mp3
Channels : 2
Sample Rate : 44100
Precision : 16-bit
Duration : 00:03:19.06 = 8778722 samples = 14929.8 CDDA sectors
File Size : 8.21M
Bit Rate : 330k
Sample Encoding: MPEG audio (layer I, II or III)
Comments :
Title=Delusions and Ghosts
Artist=Dead Mountain Mouth
Album=Phtos
Tracknumber=2
Year=2016
Genre=Metal

[/more]

Register
(10) artscald, dalek, denver, marilin, Olethros, Rosen, stub888, VALERY, wreak, Нигилист,

38 Pages V   1 2 3 > » 
- Lo-Fi Version Support form
Copyrights and abuse reports form
Time is now: 21st July 2019 - 21:59:30