Welcome Guest ( Log In | Register )

История благодарностей участнику Evgundel ::: Спасибо сказали: 3195 раз(а)
Дата поста: В теме: За сообщение: Спасибо сказали:
Nov 12 2019, 13:08:14 Sepultura - The Mediator Between Head And Hands Must Be The Heart (2013)
320 kbps (+ scans), 180 mb:
Register
(1) plfan93,
Nov 3 2019, 16:48:40 Azoic - Gateways (2012)
newer links (320):
Register

P.S. да, конечно, стиль можно точнее обозначить Black/Death Metal либо Blackened Death Metal
(1) MortSathynr,
Oct 31 2019, 13:17:48 Svartidauði - Revelations Of The Red Sword (2018)
FLAC (tracks), 335 mb:
Register
(2) HelenVaughan, nikolay81,
Oct 16 2019, 12:10:35 Almyrkvi - Umbra (2017)
newer links (320):
Register
(2) doomTemplar, Legacy100,
Sep 26 2019, 18:18:09 Naðra - Allir Vegir Til Glötunar (2016)
320 (newer link):
Register
(2) nadin85, nikolay81,
Sep 23 2019, 05:48:20 Naðra - Eitur [demo] (2014)
320 (newer links):
Register
(1) thenecromancer,
Aug 29 2019, 08:45:55 Cartographs - Safe Travels [ep] (2014)


*Artist: Cartographs
*Album: Safe Travels [ep]
*Year: 2014
*Genre: Post-Hardcore/Post-Metal
*Country: Denmark
*Format: mp3@CBR320kbps
*Size: 48MB

Tracklist:
1. Reminisce 03:33
2. Safe Travels 04:08
3. The Mountains We Move 03:38
4. Trails 02:50
5. The Promised Land 06:35
******************************
Total playing time: 20:46






[more=Extended info]Joachim Jensen - vocals
Oliver Stokholm - vocals
Caspar Schaap - guitar
Frederik Thelin - guitar
Anton Dyrby - bass
Morten Scholl - drums[/more]

[more=Technical info]
Input File: 01 Reminisce.mp3
Channels : 2
Sample Rate : 44100
Precision : 16-bit
Duration : 00:03:33.59 = 9419231 samples = 16019.1 CDDA sectors
File Size : 8.65M
Bit Rate : 324k
Sample Encoding: MPEG audio (layer I, II or III)
Comments :
Title=Reminisce
Artist=Cartographs
Album=Safe Travels
Tracknumber=1
Year=2014

[/more]

Register
(5) artscald, murian, Olethros, Rosen, wreak,
Jul 24 2019, 10:19:19 Temple - Structures In Chaos (2012)
newer links (320):
Register
(1) atavist,
Jul 21 2019, 13:41:31 Astronoid - Stargazer [ep] (2013)
more links (320):
Register
(1) Yorker,
Jul 19 2019, 14:56:47 Astronoid - November [ep] (2012)
newer links (320):
Register
(2) kim666, Yorker,
Jul 15 2019, 04:22:05 The King Is Blind - The Deficiencies Of Man [ep] (2014)
320 kbps, 39 mb:
Register
(1) AndreFrancis,
Jul 13 2019, 09:01:02 The King Is Blind - The Deficiencies Of Man [ep] (2014)


*Artist: The King Is Blind
*Album: The Deficiencies Of Man [ep]
*Year: 2014
*Genre: Death/Doom Metal
*Country: United Kingdom
*Format: flac
*Size: 123MB

Tracklist:
1. A Thousand Burning Temples 04:00
2. Of Osiris & Execration 04:58
3. Thorns That Pierce The Skull 03:46
4. Revelation, Apocalypse 03:19
******************************
Total playing time: 16:05





[more=Extended info]Lee James Appleton - lead & rhythm guitars (ex-Entwined [UK])
Stephen John Tovey - vocals, bass (ex-Entwined [UK])
Paul Alan Ryan-Reader - lead & rhythm guitars (Evil Forest, Nine Covens, ex-Cradle Of Filth, ex-The Blood Divine)
Barnaby Joseph Monger - drums (Nine Covens, Raw Noise, ex-Extreme Noise Terror, ex-Vessel [UK])[/more]

Register
(5) AndreFrancis, artscald, Olethros, Rosen, sergsazan,
Jul 8 2019, 15:07:59 I Warned You - Breathing The Scarlets (2012)
320 kbps, 81 mb:
Register
(1) DiegoMassakre,
Jun 30 2019, 17:00:36 Cutterred Flesh - Dying In Pieces (2013)
320 kb/s, 72 mb:
Register
(2) Corpuscul, WarmasterChorus,
Jun 26 2019, 12:17:41 Piah Mater - Memories Of Inexistence (2014)
newer links (320):
Register
(1) wendigo,
Jun 17 2019, 16:54:14 Obastra - Ii [ep] (2018)


*Artist: Obastra
*Album: Ii [ep]
*Year: 2018
*Genre: Progressive Brutal Death Metal/Deathcore
*Country: United States
*Format: mp3@CBR320kbps
*Size: 52MB

Tracklist:
1. Mire 05:15
2. Entropy 03:23
3. Mark Of The Bog Witch 03:09
4. Still Air, Loss 01:24
5. Embers In The Fog 06:03
******************************
Total playing time: 19:16





[more=Extended info]Rocky Chavez - guitars
Kyle Shearn - bass (ex-Feast [US, Ca], ex-Logistic Slaughter)
Zack Taylor - lead vocals

Kendric DiStefano - session drums (Amethyst Falls, Logistic Slaughter, ex-Airs, ex-Augurs, ex-Septicaemia [US], ex-Xenotaph [US] (live))[/more]

[more=Technical info]
Input File: 02 Entropy.mp3
Channels : 2
Sample Rate : 44100
Precision : 16-bit
Duration : 00:03:23.09 = 8956137 samples = 15231.5 CDDA sectors
File Size : 8.27M
Bit Rate : 326k
Sample Encoding: MPEG audio (layer I, II or III)
Comments :
Title=Entropy
Artist=Obastra
Album=II
Tracknumber=2
Year=2018
Genre=Death Metal

[/more]

Register
(8) artscald, GorAtheist, Hell_Is_Here, kimkayoung, Olethros, Rosen, wreak, Волос,
Jun 14 2019, 10:12:00 Path To Extinction - Path To Extinction [ep] (2014)


*Artist: Path To Extinction
*Album: Path To Extinction [ep]
*Year: 2014
*Genre: Death Metal/Grind
*Country: Canada
*Format: mp3@CBR320kbps
*Size: 47MB

Tracklist:
1. Decorated Demons 03:44
2. The Horseman 04:12
3. Indoctrination Of Filth 03:35
4. Unholy Retribution 04:01
5. Tyrannic Reign 04:27
******************************
Total playing time: 20:01




[more=Extended info]Mike Ballard - guitar
Arjun Gill - guitar (Premonition [Sau], Wake [Can], ex-Moosifix)
Aaron Lang - bass (Plaguebringer [Can])
Kurtis Offet - vocals
Ted Reekie - drums (Sub-Atomic Chaos, Urheimat [Can] (live))[/more]

[more=Technical info]
Input File: 01 Decorated Demons.mp3
Channels : 2
Sample Rate : 44100
Precision : 16-bit
Duration : 00:03:44.06 = 9881222 samples = 16804.8 CDDA sectors
File Size : 9.10M
Bit Rate : 325k
Sample Encoding: MPEG audio (layer I, II or III)
Comments :
Title=Decorated Demons
Artist=Path to Extinction
Album=Path to Extinction
Tracknumber=1
Year=2014
Genre=Death Metal

[/more]

Register
(8) artscald, GorAtheist, Hell_Is_Here, Olethros, Rosen, vyacheslav, wreak, Герб,
Jun 13 2019, 10:57:27 Sub-Atomic Chaos - The Anti-Matter [ep] (2011)
320 kbps, 56 mb:
Register
(5) MEmethuselah, TDM, Vital157, Луч, Язва,
Jun 11 2019, 12:48:12 Sigil - Mutagen (2013)


*Artist: Sigil
*Album: Mutagen
*Year: 2013
*Genre: Black Metal/Hardcore
*Country: Canada
*Format: mp3@CBR320kbps
*Size: 47MB

Tracklist:
1. Antipodes 02:53
2. Slave Driver 01:49
3. Oppressor 01:48
4. Cartilage Ropes 02:07
5. Sacrosanct 03:00
6. Abyssal Defiance 03:50
7. Bending The Fog 03:17
8. Cathartic Avulsions 01:36
******************************
Total playing time: 20:23






[more=Extended info]Clennon Aranha - vocals (Sub-Atomic Chaos)
Peter Tyukasz - guitar, bass, recording engineering (Alder [Can], ex-Moradin, ex-Ominosity)
David Horrocks - drums, mixing, mastering (Alder [Can], Numenorean, ex-Hrom [Can], ex-Moradin, ex-Ominosity, ex-Sub-Atomic Chaos, Dark Forest [Can] (live), ex-Black Pestilence (live))[/more]

[more=Technical info]
Input File: 02 Slave Driver.mp3
Channels : 2
Sample Rate : 44100
Precision : 16-bit
Duration : 00:01:49.80 = 4842092 samples = 8234.85 CDDA sectors
File Size : 4.45M
Bit Rate : 325k
Sample Encoding: MPEG audio (layer I, II or III)
Comments :
Title=Slave Driver
Artist=Sigil
Album=Mutagen
Tracknumber=2
Year=2013
Genre=Black Metal/Hardcore

[/more]

Register
(8) ahp, GorAtheist, lestllk, Olethros, Rosen, Sanctus, vasiljev_sergej, wreak,
Jun 6 2019, 12:16:51 Death Motif - The Algorithm Said No [ep] (2019)


*Artist: Death Motif
*Album: The Algorithm Said No [ep]
*Year: 2019
*Genre: Blackened Sludge/Technical Death Metal
*Country: United States
*Format: mp3@CBR320kbps
*Size: 28MB

Tracklist:
1. Collapse 03:52
2. Ephialtes Is Jealous Again 03:41
3. Gallows Humor 03:23
******************************
Total playing time: 10:58




[more=Extended info]Andy Bonnie - guitar, vocals (Sigil [US])
Donner Maldonado - bass, vocals
Pete Murray - drums[/more]

[more=Technical info]
Input File: 02 Ephialtes is Jealous Again.mp3
Channels : 2
Sample Rate : 44100
Precision : 16-bit
Duration : 00:03:41.58 = 9771766 samples = 16618.6 CDDA sectors
File Size : 9.00M
Bit Rate : 325k
Sample Encoding: MPEG audio (layer I, II or III)
Comments :
Title=Ephialtes is Jealous Again
Artist=Death Motif
Album=The Algorithm Said No
Tracknumber=2
Year=2019
Genre=Metal

[/more]

Register
(6) artscald, Hell_Is_Here, Olethros, Ostinato, Rosen, wreak,
Jun 6 2019, 06:24:19 Death Motif - Stay Alone (2018)
newer links (320):
Register
(2) artscald, thenecromancer,
Jun 5 2019, 13:16:08 Death Motif - The Water [ep] (2015)
newer links (320):
Register
(3) artscald, thenecromancer, wendigo,
Jun 4 2019, 17:53:25 Death Motif - A Filthy Crown [ep] (2014)
newer links (320):
Register

P.S. здесь в кач-ве ударника еще был Josh Dawkins (Dead to a Dying World, ex-Lions of Tsavo). а Nikos Riekstins - на последующем ипи.
(2) artscald, wendigo,
Jun 2 2019, 08:25:28 Unmothered - Unmothered [ep] (2012)
newer links (320):
Register
(1) stumpheavyrock,
May 17 2019, 10:59:56 The Infected - The Afterparty [single] (2012)


*Artist: The Infected
*Album: The Afterparty [single]
*Year: 2012
*Genre: Punk/Thrash/Heavy Metal
*Country: United States
*Format: mp3@CBR320kbps
*Size: 24MB

Tracklist:
1. No Idea 03:02
2. Digital Age 02:43
3. Refuse 04:20
******************************
Total playing time: 10:06







[more=Extended info]'The Infected has honed their sound to a unique blend of rock, metal, and punk that is accessible, captivating, lightning fast, and all their own.'

Clay Bail - guitar, vocals
Buck Foley - bass, vocals
Matt Gonzalez - drums (Typesetter)
Nate Madden - guitar, vocals (Immortal Bird, Roman Ring)[/more]

[more=Technical info]
Input File: 01 No Idea.mp3
Channels : 2
Sample Rate : 44100
Precision : 16-bit
Duration : 00:03:02.06 = 8028714 samples = 13654.3 CDDA sectors
File Size : 7.44M
Bit Rate : 327k
Sample Encoding: MPEG audio (layer I, II or III)
Comments :
Title=No Idea
Artist=The Infected
Album=The Afterparty
Tracknumber=1
Year=2012
Genre=Punk/Metal

[/more]

Register
(5) gwar, METALHUNTER, Olethros, pichileon, Rosen,

39 Pages V   1 2 3 > » 
- Lo-Fi Version Support form
Copyrights and abuse reports form
Time is now: 17th November 2019 - 10:22:27