Welcome Guest ( Log In | Register )

История благодарностей участнику Oskulum ::: Спасибо сказали: 9427 раз(а)
Дата поста: В теме: За сообщение: Спасибо сказали:
Feb 21 2020, 09:00:26 Лучший советчик МА - Часть 6 (Хеви) - Тур 1, Общий сбор
Pokolgép - Totális Metál (1986)

[youtube]gV8Yw6WVpKQ[/youtube]
(2) Daale, infiltrator,
Feb 15 2020, 12:19:54 Testament - The Ritual (1992)
ЦИТАТА(Mick Dundee @ Feb 15 2020, 13:17:17) *
Сегодня на МА день Тестамента ? 20.gif

Это как с праздником 14 февраля, нужно любить не раз в год, а каждый день 19.gif
(1) Old Vyaine,
Feb 8 2020, 23:14:36 Svartby - Riv, Hugg Och Bit (2009)
Решил я, значит, продегустировать статистику за мой любимый год в Ласте. И первенство самого прослушиваемого альбома ушло:
Svartby - Riv, Hugg Och Bit

Второе место и третье:
Candlemass - Death Magic Doom
Delain - April Rain
(1) Old Vyaine,
Jan 15 2020, 13:25:34 Лучший советчик МА - Часть 5 (Прог) - Тур 1, Общий сбор
обоже, здесь я участвовать не буду.
(2) garmonbozia, infiltrator,
Dec 17 2019, 08:27:50 Samael - Eternal (1999)
ЦИТАТА(quicksand @ Dec 17 2019, 09:03:19) *
Reign of light?

On Earth
(2) infiltrator, quicksand,
Dec 17 2019, 07:44:54 Артур Беркут - Твоё Второе Я (2019)
Моё второе ты
(2) infiltrator, vosmidesijatye,
Dec 6 2019, 09:37:54 Лучший советчик МА - Часть 4 (Блэк) - Тур 1, Общий сбор
ЦИТАТА(vosmidesijatye @ Dec 6 2019, 10:35:17) *
А, это та группа где сын николаса кейджа поигрывает 25.gif

Наигрался уже
(1) Deze,
Dec 6 2019, 09:28:42 Лучший советчик МА - Часть 4 (Блэк) - Тур 1, Общий сбор
Вобще Дезик диктатуру развел тут, понимаишь, буду в ЕСПЧ подавать и разводить бунд 25.gif

Eyes of Noctum - Inceptum (2009)

[youtube]cBw_aBuOiVk[/youtube]
(1) Deze,
Dec 3 2019, 09:33:00 Behemoth - I Loved You At Your Darkest (2018)
ЦИТАТА(BleedingSun @ Dec 3 2019, 10:01:41) *
С концертами - везёт вам, приехали б в Киев - я б поехал.

Киев 12 мая
(1) BleedingSun,
Nov 13 2019, 12:42:59 Лучший советчик МА - Часть 3 (Трэш) - Тур 2, Рейтингование
3 альбома прослушал, блин, все как один сплошной трек, вроде и не тошнит, вроде и ниче так, но ставить всем одни нули или единицы тоже не хорошо =\
(1) Kazoth,
Oct 28 2019, 11:23:02 Karna - Гуцул-Метал (2017)


*Artist: Karna
*Album: Гуцул-Метал
*Year: 2017
*Genre: Folk Metal
*Country: Ukraine
*Format: mp3@CBR320kbps
*Size: 74MB

Tracklist:
01. 7 трембіт 02:56
02. Party на Прикарпатті 03:26
03. Ватра 03:22
04. Вітролом 03:08
05. Полтергейст 03:37
06. Планета Земля 03:10
07. Гуцулметал 04:33
08. Моримух 03:35
09. Туман 03:11
******************************
Total playing time: 30:58



[more=Technical info]
Input File: 02 Party на Прикарпатті.mp3
Channels : 2
Sample Rate : 44100
Precision : 16-bit
Duration : 00:03:25.42 = 9058802 samples = 15406.1 CDDA sectors
File Size : 8.22M
Bit Rate : 320k
Sample Encoding: MPEG audio (layer I, II or III)
Comments :
Title=Party на Прикарпатті
Artist=Карна
Album=Гуцул-метал
Tracknumber=02/9
Year=2017-11-17
Genre=Nu-Metal

[/more]

Register
(19) apostol_13, Aresson, artscald, Cartman223, chipsgott, gwar, karpenka, kessler, Mogozoz, Olethros, Rosen, sanaan, senecazm, sergsazan, stone88, terron, VALERY, varlam4, Сварог Барг,
Oct 26 2019, 07:07:46 Karna - Гуцул-Метал (2017)


*Artist: Karna
*Album: Гуцул-Метал
*Year: 2017
*Genre: Folk Metal
*Country: Ukraine
*Format: mp3@CBR320kbps
*Size: 74MB

Tracklist:
01. 7 трембіт (02:56)
02. Party на Прикарпатті (03:26)
03. Ватра (03:22)
04. Вітролом (03:08)
05. Полтергейст (03:37)
06. Планета Земля (03:10)
07. Гуцулметал (04:33)
08. Моримух (03:35)
09. Туман (03:11)
******************************
Total playing time: 30:58



[more=Technical info]
Input File: 02 - Party на Прикарпатті.mp3
Channels : 2
Sample Rate : 44100
Precision : 16-bit
Duration : 00:03:25.42 = 9058802 samples = 15406.1 CDDA sectors
File Size : 8.22M
Bit Rate : 320k
Sample Encoding: MPEG audio (layer I, II or III)
Comments :
Title=Party на Прикарпатті
Artist=Карна
Album=Гуцул-метал
Tracknumber=02/9
Year=2017-11-17
Genre=Nu-Metal

[/more]

Register
(2) Aresson, Dionis,
Oct 10 2019, 10:54:41 Svartby - Big Boss (2019)
Свартбю pray.gif Когда они уже напишут шото уровня Riv Hug Oh Bit hmm.gif
(1) Daecadance,
Oct 8 2019, 11:12:42 Rotting Christ - The Heretics (2019)
(6) Chasm, Foneg, infiltrator, plfan93, Thiarnan, vosmidesijatye,
Oct 4 2019, 16:17:33 Лучший советчик МА - Часть 2 (Дум) - Тур 1, Общий сбор
Деземорфин свернул меня с финской дорожки, поэтому заменю своё на Mental Home - Black Art (1998)

[youtube]B8sVgX1IdSQ[/youtube]
(1) Deze,
Oct 3 2019, 09:06:39 Children Of Bodom - Follow The Reaper (2000)
ЦИТАТА(BleedingSun @ Oct 3 2019, 11:00:35) *
Oskulum,
11 годных треков из 16ти - действительно стоит... Ок, отложу немного в копилку.
Вопрос снимается... Они сегодня играют. Я почему-то решил, что в ноябре. Жаль(
Я ж не с Киева сам.

То ты, наверно, с Апокалиптикой перепутал. Они в ноябре, и в Днепре тоже.
(1) BleedingSun,
Sep 13 2019, 18:08:45 Megadeth - Youthanasia [remastered 2004] (1994)
Во чо нашел

[youtube]RyX6JF3O_Ws[/youtube]
(1) Old Vyaine,
Sep 12 2019, 06:51:17 Лучший советчик МА - Часть 1 (Дэт) - Тур 2
А нет такого, чтоб за свой релиз не голосовать?
(3) Alexis The Best, infiltrator, mirotvorets,
Sep 11 2019, 06:46:02 Новости Folk/Pagan/Viking
Да, хорошо! На 25 секунде крутой финт 20.gif ие-ие-ау
(2) BleedingSun, infiltrator,
Sep 3 2019, 11:41:01 Hypocrisy - The Final Chapter (1997)
ЦИТАТА(Bloodn Lord @ Aug 28 2019, 11:58:14) *
Кстати, понял, что реально не помню 99ый)) от слова ВООБЩЕ. Пойду переслушаю, может тоже и в мою топку что-то залетит))


Ня

[youtube]gXMJlibvPFA[/youtube]
(1) Bloodn Lord,
Aug 27 2019, 15:58:26 Hypocrisy - The Final Chapter (1997)
ЦИТАТА(Bloodn Lord @ Aug 27 2019, 17:02:36) *
Смотри, аккуратнее 15.gif
Не всё может прогореть))


(2) Bloodn Lord, Old Vyaine,
Aug 27 2019, 12:56:28 Hypocrisy - The Final Chapter (1997)
ЦИТАТА(Bloodn Lord @ Aug 27 2019, 10:51:13) *
99 - в топку))

И в мою! Шоб прям распирало!




(5) Bloodn Lord, Emm Human, Exorcist, Old Vyaine, plfan93,
Jul 13 2019, 16:32:45 Scooter - No Time To Chill (1998)
ЦИТАТА(vosmidesijatye @ Jul 12 2019, 15:15:47) *
*Album: No Time To Chill

Не согласен, под Eyes Without A Face очень даже Chill
(1) vosmidesijatye,
Jul 11 2019, 16:12:30 Хуковые песни - 2018 (финал состоялся)
Amorphis - The Golden Elk
Ihsahn - Twin Black Angels
Tribulation - The Lament
(1) randyhermit,
May 16 2019, 15:06:07 Earth - Full Upon Her Burning Lips (2019)
О, Земеля энто хорошо
(2) infiltrator, vosmidesijatye,

75 Pages V   1 2 3 > » 
- Lo-Fi Version Support form
Copyrights and abuse reports form
Time is now: 26th February 2020 - 21:05:21