Welcome Guest ( Log In | Register )

История благодарностей участнику Gelukas ::: Спасибо сказали: 40656 раз(а)
Дата поста: В теме: За сообщение: Спасибо сказали:
Dec 21 2018, 10:05:38 Azking - Ohse [ep] (2018)


*Artist: Azking
*Album: Ohse [ep]
*Year: 2018
*Genre: Melodic Death Metal
*Country: Japan
*Format: mp3@CBR320kbps
*Size: 54MB

Tracklist:
1. Intro 01:00
2. Ohse 04:10
3. Kaikyutan 04:15
4. Oshimu Kohin 05:13
5. Wasurenagusa 03:56
6. Aware Toraware 04:55
******************************
Total playing time: 23:29




[more=Technical info]
Input File: 02 Ohse.mp3
Channels : 2
Sample Rate : 44100
Precision : 16-bit
Duration : 00:04:10.87 = 11063235 samples = 18815 CDDA sectors
File Size : 10.1M
Bit Rate : 323k
Sample Encoding: MPEG audio (layer I, II or III)
Comments :
Title=Ohse
Artist=Azking
Album=Ohse
Tracknumber=2
Year=2018
Genre=9

[/more]

Register
(9) artscald, BugEyes, Mogozoz, Olethros, Rosen, satanist666, socrates9, varlam4, zhol,
Dec 21 2018, 09:53:30 Eyes Unclouded - The End Of The Seasons (2018)


*Artist: Eyes Unclouded
*Album: The End Of The Seasons
*Year: 2018
*Genre: Melodic Death Metal/Metalcore
*Country: Japan
*Format: mp3@CBR320kbps
*Size: 100MB

Tracklist:
1. Awakening
2. 未完
3. Coexistence
4. 明日の向こうへ変える方向
5. 鼓動
6. 確信保つ羅針盤、この心臓
7. ソノメノマエニ
8. Last Hope
9. 忘却
10. 思考停止
11. The End of the Seasons
******************************
Total playing time: 41:18




[more=Technical info]
Input File: 02. Mikan.mp3
Channels : 2
Sample Rate : 44100
Precision : 16-bit
Duration : 00:04:09.54 = 11004626 samples = 18715.4 CDDA sectors
File Size : 10.5M
Bit Rate : 338k
Sample Encoding: MPEG audio (layer I, II or III)
Comments :
Title=Mikan
Artist=Eyes Unclouded
Album=The End of the Seasons
Tracknumber=2/11
Year=2018
Genre=Metal
Discnumber=1/1

[/more]

Register
(8) artscald, gwynnbleid, Mogozoz, Olethros, Rosen, satanist666, talismanFS, Unkle Jonny,
Dec 20 2018, 16:02:20 In Nothingness - Into The Nothingness​.​.​. [ep] (2017)


*Artist: In Nothingness
*Album: Into The Nothingness​.​.​. [ep]
*Year: 2017
*Genre: Melodic Death Metal
*Country: Japan
*Format: mp3@CBR320kbps
*Size: 49MB

Tracklist:
1. At the Graveyard of Forgotten Dreams... 04:08
2. When the Last Sunset Falls 05:09
3. The Winds of Endless Sorrow 05:51
4. Into the Nothingness... 05:48
******************************
Total playing time: 20:56




[more=Technical info]
Input File: 02 When the Last Sunset Falls.mp3
Channels : 2
Sample Rate : 44100
Precision : 16-bit
Duration : 00:05:09.41 = 13645025 samples = 23205.8 CDDA sectors
File Size : 12.5M
Bit Rate : 324k
Sample Encoding: MPEG audio (layer I, II or III)
Comments :
Title=When the Last Sunset Falls
Artist=In Nothingness
Album=Into the Nothingness...
Tracknumber=2
Year=2017
Genre=9

[/more]

Register
(9) artscald, BugEyes, csgmnk, Mogozoz, Olethros, Ostinato, Rosen, satanist666, zhol,
Dec 20 2018, 15:43:44 Alphoenix - Final Crusades (2017)


*Artist: Alphoenix
*Album: Final Crusades
*Year: 2017
*Genre: Melodic Death Metal/Metalcore
*Country: Japan
*Format: mp3@CBR320kbps
*Size: 100MB

Tracklist:
1. The Final Crusade 01:23 (instrumental)
2. Give Me Fire 04:03
3. Foreshadow 03:58
4. Tragic Night Falls 05:33
5. Into the Ashes 04:09
6. Rise 03:23
7. City of Phoenix 03:54
8. Last Ignition 04:18
9. Cygnus 04:22
10. Noir Rain 04:21
11. Reincarnation 04:22
******************************
Total playing time: 43:46




[more=Technical info]
Input File: 02 - Give Me Fire.mp3
Channels : 2
Sample Rate : 44100
Precision : 16-bit
Duration : 00:04:03.28 = 10728560 samples = 18245.9 CDDA sectors
File Size : 9.72M
Bit Rate : 320k
Sample Encoding: MPEG audio (layer I, II or III)
Comments :
Title=Give It All to the Fire
Artist=Alphoenix
Album=Final Crusades
Tracknumber=2
Year=2017
Genre=Metal

[/more]

Register
(7) artscald, csgmnk, Mogozoz, Olethros, Rosen, satanist666, Unkle Jonny,
Dec 20 2018, 15:19:04 Ares - Divine Creation (2015)


*Artist: Ares
*Album: Divine Creation
*Year: 2015
*Genre: Melodic Death Metal
*Country: Japan
*Format: mp3@CBR320kbps
*Size: 131MB

Tracklist:
1. Antares 01:15
2. Chaotic Wind Blows 04:41
3. Slaves of Destiny 05:32
4. Divine Creation 05:04
5. New Created Sky 04:42
6. Nightfall of Sorrow 03:34
7. Eternal Rest 03:33
8. After the Agony
 05:50
9. Hate in Your Heart 05:24
10. The Seaborn Goddess 06:02
11. Despairing Cry 05:19
12. Forlorn Palace 06:18
******************************
Total playing time: 57:14




[more=Technical info]
Input File: 02 - Chaotic Wind Blows.mp3
Channels : 2
Sample Rate : 44100
Precision : 16-bit
Duration : 00:04:43.31 = 12493795 samples = 21248 CDDA sectors
File Size : 11.3M
Bit Rate : 320k
Sample Encoding: MPEG audio (layer I, II or III)
Comments :
Artist=Ares
Album=Divine Creation
Tracknumber=2
Year=2015
Genre=9

[/more]

Register
(7) artscald, kiol1, Mogozoz, Olethros, Rosen, satanist666, varlam4,
Dec 17 2018, 09:37:37 Skycrater - Echoes From The Past (2018)


*Artist: Skycrater
*Album: Echoes From The Past
*Year: 2018
*Genre: Heavy Metal
*Country: China
*Format: mp3@CBR320kbps
*Size: 179MB

Tracklist:
1. The Frozen Valley 06:52
2. The Sorcerer 05:11
3. The Forges of Ingur 08:06
4. The King's Death 05:45
5. Other Land 04:52
6. The Black Wolf 05:24
7. Elsorth's Fire 04:33
8. Sirens' Song 06:11
9. The Tree and the Wolf 05:27
10. A Shameless King 06:32
11. From Story to Legend 07:15
12. Banished Into Night 05:55
13. Mammon 05:47
******************************
Total playing time: 1:17:50


Website

[more=Technical info]
Input File: 02. The Sorcerer.mp3
Channels : 2
Sample Rate : 44100
Precision : 16-bit
Duration : 00:05:11.76 = 13748704 samples = 23382.1 CDDA sectors
File Size : 12.5M
Bit Rate : 321k
Sample Encoding: MPEG audio (layer I, II or III)
Comments :
Title=The Sorcerer
Artist=Skycrater
Album=Echoes from the Past
Tracknumber=2
Year=2018
Genre=(9)
Discnumber=1

[/more]

Register
(9) artscald, aviacademy, csgmnk, Mogozoz, Olethros, Rosen, Rover, sergsazan, terron,
Dec 12 2018, 14:54:08 Power Of Pussy - Alternative Space (2017)


*Artist: Power Of Pussy
*Album: Alternative Space
*Year: 2017
*Genre: Melodic Death Metal/Grindcore
*Country: Slovakia
*Format: mp3@CBR320kbps
*Size: 79MB

Tracklist:
1. Destroyers of worlds 04:02
2. Feast 03:46
3. Deception 04:37
4. Rozsudok (Peklo na veky) 02:58
5. Alternative Space 04:43 (instrumental)
6. Genocidal orgy 03:41
7. Masters of creation 03:16
8. Born to... 03:40
9. Ciento Cincuenta Pollas 03:33
******************************
Total playing time: 34:16

Bandzone


[more=Technical info]
Input File: 02 Feast.mp3
Channels : 2
Sample Rate : 44100
Precision : 16-bit
Duration : 00:03:46.27 = 9978331 samples = 16970 CDDA sectors
File Size : 9.06M
Bit Rate : 320k
Sample Encoding: MPEG audio (layer I, II or III)
Comments :
Artist=Power Of Pussy
Album=Alternative Space
Tracknumber=2
Year=2017
Genre=9

[/more]

Register
(8) artscald, metala, METALHUNTER, Olethros, Rosen, satanist666, zhol, Герб,
Dec 12 2018, 14:05:14 Power Of Pussy - Undead [compilation] (2016)


*Artist: Power Of Pussy
*Album: Undead [compilation]
*Year: 2016
*Genre: Death Metal/Grindcore
*Country: Slovakia
*Format: mp3@CBR320kbps
*Size: 109MB

Tracklist:
1. Closer to Satan 03:44
2. How Horrid 04:16
3. The Goat by the Moat 02:34
4. Alcohol 02:43
5. Holy War 03:43
6. Death and Destruction 03:44
7. Lose to Win 05:06
8. Boobs and Swords 05:07
9. Piece by Piece 03:24
10. Undead 04:44
11. Dream 03:46
12. Long Deads Longevity 05:06
******************************
Total playing time: 47:57




[more=Technical info]
Input File: 02. How Horrid.mp3
Channels : 2
Sample Rate : 44100
Precision : 16-bit
Duration : 00:04:16.07 = 11292511 samples = 19205 CDDA sectors
File Size : 10.2M
Bit Rate : 320k
Sample Encoding: MPEG audio (layer I, II or III)
Comments :
Artist=Power Of Pussy
Album=Undead
Year=2016
Genre=9

[/more]

Register
(8) artscald, metala, METALHUNTER, Olethros, Rosen, satanist666, vyacheslav, Герб,
Dec 12 2018, 13:59:20 Sage - Rhymes For The Dead (2017)


*Artist: Sage
*Album: Rhymes For The Dead
*Year: 2017
*Genre: Doom/Groove/Stoner Metal
*Country: Czech Republic
*Format: mp3@CBR128kbps
*Size: 32MB

Tracklist:
1. King Death
2. Kiss of Snake
3. XXXIII
4. Black Ravens and White Skin
5. Dance with Death
6. Soldier of Emptiness
7. Love Theatre
8. Colder Than Cold
9. Vracejte konve na místo (Master's Hammer cover)
10. Born for Satan
11. Lost Souls
******************************
Total playing time: 34:21

Bandzone


[more=Technical info]
Input File: 04 - Black Ravens And White Skin.mp3
Channels : 2
Sample Rate : 44100
Precision : 16-bit
Duration : 00:03:18.06 = 8734402 samples = 14854.4 CDDA sectors
File Size : 3.17M
Bit Rate : 128k
Sample Encoding: MPEG audio (layer I, II or III)
Comments :
Artist=Sage
Album=Rhymes For The Dead
Year=2017
Genre=(9)

[/more]

Register
(3) artscald, marilin, Rosen,
Dec 12 2018, 08:13:12 Svor - Tam, Kde Sa Chodí Umierať [ep] (2017)


*Artist: Svor
*Album: Tam, Kde Sa Chodí Umierať [ep]
*Year: 2017
*Genre: Depressive Black Metal
*Country: Slovakia
*Format: mp3@CBR237kbps
*Size: 23MB

Tracklist:
1. Tam, kde sa chodí umierať 13:30
******************************
Total playing time: 13:30


Bandzone

[more=Technical info]
Input File: 01 Tam, kde sa chodí umierať.mp3
Channels : 2
Sample Rate : 44100
Precision : 16-bit
Duration : 00:13:30.16 = 35728100 samples = 60762.1 CDDA sectors
File Size : 24.1M
Bit Rate : 238k
Sample Encoding: MPEG audio (layer I, II or III)
Comments :
Title=Tam, kde sa chodí umierať
Artist=Svor
Album=Tam, kde sa chodí umierať
Tracknumber=1
Year=2017
Genre=9

[/more]

Register
(10) 1968_janeart, artscald, kim666, Olethros, Rosen, satanist666, SilentNidhogg, Tyrone, varlam4, vasiljev_sergej,
Dec 12 2018, 08:08:16 Bone Orchard - In Umbra Mortis [demo] (2017)


*Artist: Bone Orchard
*Album: In Umbra Mortis [demo]
*Year: 2017
*Genre: Melodic Death/Doom Metal
*Country: Czech Republic
*Format: mp3@CBR128kbps
*Size: 49MB

Tracklist:
1. Erratio - Intro 06:05 (instrumental)
2. In Absentia Luci Tenebrae Vincunt 08:05
3. Subterranean Oceans of Death 08:39
4. The Wanderer 07:43
5. Nocturnal Lands 04:48
6. Immortal Black Clouds 08:29
7. The End 08:56
******************************
Total playing time: 52:45



[more=Technical info]
Input File: 02 In Absentia Luci Tenebrae Vincunt.mp3
Channels : 2
Sample Rate : 44100
Precision : 16-bit
Duration : 00:08:05.84 = 21425720 samples = 36438.3 CDDA sectors
File Size : 7.78M
Bit Rate : 128k
Sample Encoding: MPEG audio (layer I, II or III)
Comments :
Artist=Bone Orchard
Album=In Umbra Mortis
Year=2017
Genre=(9)

[/more]

Register
(4) artscald, Rosen, satanist666, thenecromancer,
Dec 7 2018, 15:53:27 Mike Stamper - Extended By Error (2017)


*Artist: Mike Stamper
*Album: Extended By Error
*Year: 2017
*Genre: Instrumental/Melodic Progressive Metal
*Country: Spain
*Format: mp3@CBR320kbps
*Size: 116MB

Tracklist:
1. Echoes Of The Error (Intro) 02:08
2. Refactor (feat. Dani Villamil) 04:41
3. The North I Lost 03:56
4. Deja Vu 03:34
5. Hard Reset (The Process Of Oblivion) 02:54
6. Deadlocks 03:40
7. Resilient (feat. Nathan Cifuentes) 03:26
8. The Red-Black Tree 04:22
9. The Sorrow Nebula (feat. Andrés García) 06:17
10. Innerwar (Out Of Bounds) 04:24
11. Denial Of Service 03:12
12. Divided By Zero 03:00
13. Timeout 04:44
******************************
Total playing time: 50:18




[more=Technical info]
Input File: 02 Refactor (feat. Dani Villamil).mp3
Channels : 2
Sample Rate : 44100
Precision : 16-bit
Duration : 00:04:41.41 = 12410005 samples = 21105.5 CDDA sectors
File Size : 11.4M
Bit Rate : 324k
Sample Encoding: MPEG audio (layer I, II or III)
Comments :
Title=Refactor (feat. Dani Villamil)
Artist=Mike Stamper
Album=Extended By Error
Tracknumber=2
Year=2017

[/more]

Register
(7) artscald, brain2025, csgmnk, ironyserg, Ogidni, Olethros, Rosen,
Dec 7 2018, 15:33:08 Las Ovejas De Érebo - El Comienzo De Un Fin (2017)


*Artist: Las Ovejas De Érebo
*Album: El Comienzo De Un Fin
*Year: 2017
*Genre: Melodic Death/Groove Metal
*Country: Argentina
*Format: mp3@CBR320kbps
*Size: 111MB

Tracklist:
1. The Barbarian 04:59
2. El precio de la historia 04:18
3. En el desierto 03:17
4. Sociedad infame 03:45
5. Oscura libertad 04:39
6. Fuckland 04:10
7. Dueños del mundo 04:46
8. Sensación de hostilidad 04:20
9. T.N.T (Tu nato talento) 04:42
10. Nación que sangra 03:47
11. El último hombre hablante 04:19
******************************
Total playing time: 47:02





[more=Technical info]
Input File: 02.El precio de la historia.mp3
Channels : 2
Sample Rate : 44100
Precision : 16-bit
Duration : 00:04:17.18 = 11341770 samples = 19288.7 CDDA sectors
File Size : 10.6M
Bit Rate : 331k
Sample Encoding: MPEG audio (layer I, II or III)
Comments :
Title=El precio de la historia
Artist=Las Ovejas De Érebo
Album=El Comienzo De Un Fin
Tracknumber=2
Year=2017
Genre=Death Metal

[/more]

Register
(6) artscald, Foneg, ironjuan, Olethros, Rosen, snot,
Dec 7 2018, 15:08:03 Hiddenland - Fuego En El Alma [ep] (2016)


*Artist: Hiddenland
*Album: Fuego En El Alma [ep]
*Year: 2016
*Genre: Melodic Death/Folk Metal
*Country: Ecuador
*Format: mp3@CBR128kbps
*Size: 15MB

Tracklist:
1. Fuego en el alma (Intro Pasillo) 05:31
2. Promesa 06:19
3. Abadonna 04:12
******************************
Total playing time: 16:02




[more=Technical info]
Input File: 02 - Promesa.mp3
Channels : 2
Sample Rate : 44100
Precision : 16-bit
Duration : 00:06:19.12 = 16718972 samples = 28433.6 CDDA sectors
File Size : 6.05M
Bit Rate : 128k
Sample Encoding: MPEG audio (layer I, II or III)
Comments :
Title=Promesa
Artist=Hiddenland
Album=Fuego en el Alma
Tracknumber=2
Year=2016
Genre=9

[/more]

Register
(8) artscald, Cartman223, Druidir, fabriziomagno, gwar, Rosen, satanist666, sunstone,
Dec 7 2018, 15:02:42 Dead 3 Days - Born In Abyss [demo] (2012)


*Artist: Dead 3 Days
*Album: Born In Abyss [demo]
*Year: 2012
*Genre: Death/Groove Metal
*Country: Canada
*Format: mp3@VBR316kbps
*Size: 47MB

Tracklist:
1. Born in Abyss 03:34
2. Puppet for the Machine of Greed and Dominance 02:51
3. Fear 01:17
4. Realm of Death 03:54
5. Save Your Own Damn Grace 03:57
6. Falling of Skies 04:49
******************************
Total playing time: 20:22

Preview 1


[more=Technical info]
Input File: 02 - Realm Of Death.mp3
Channels : 2
Sample Rate : 44100
Precision : 16-bit
Duration : 00:03:53.33 = 10289633 samples = 17499.4 CDDA sectors
File Size : 9.30M
Bit Rate : 319k
Sample Encoding: MPEG audio (layer I, II or III)
Comments :
Title=Realm Of Death
Artist=Dead 3 Days
Album=Born In Abyss
Tracknumber=2
Year=2012
Genre=9

[/more]

Register
(4) artscald, Olethros, Rosen, Svafrlami,
Dec 7 2018, 14:47:46 Deathsquad - Stay One (2018)


*Artist: Deathsquad
*Album: Stay One
*Year: 2018
*Genre: Deathcore
*Country: Russian Federation
*Format: mp3@CBR320kbps
*Size: 75MB

Tracklist:
1. Our Blood 03:52
2. Suffering 03:39
3. Kill Love 04:00
4. STFU 03:19
5. No Respect 02:50
6. We Are Here 04:05
7. M.O.B. 03:47
8. Hard Life 03:16
9. Zero Morals 03:39
******************************
Total playing time: 32:27




[more=Technical info]
Input File: 02. Suffering.mp3
Channels : 2
Sample Rate : 44100
Precision : 16-bit
Duration : 00:03:40.02 = 9702794 samples = 16501.4 CDDA sectors
File Size : 8.84M
Bit Rate : 322k
Sample Encoding: MPEG audio (layer I, II or III)
Comments :
Title=Suffering
Artist=Deathsquad
Album=Stay One
Tracknumber=2/9
Year=2018
Genre=Deathcore

[/more]

Register
(4) artscald, Foneg, Olethros, Rosen,
Dec 5 2018, 15:00:01 Antigod - W.R.A.T.H. (2018)


*Artist: Antigod
*Album: W.R.A.T.H.
*Year: 2018
*Genre: Death/Thrash Metal
*Country: Czech Republic
*Format: mp3@VBR195kbps
*Size: 50MB

Tracklist:
1. Evacuate
2. Iron
3. Panzertrain
4. Steamgod
5. Close
6. Siberia
7. Volunteer
8. Orders
9. Wrath
10. Frontline
11. Revolt
12. Battalion
13. Casualties
******************************
Total playing time: 35:10



Bandzone

[more=Technical info]
Input File: 02 Iron.mp3
Channels : 2
Sample Rate : 44100
Precision : 16-bit
Duration : 00:02:10.75 = 5765899 samples = 9805.95 CDDA sectors
File Size : 3.28M
Bit Rate : 201k
Sample Encoding: MPEG audio (layer I, II or III)
Comments :
Title=ANTIGOD / Iron
Artist=Antigod
Album=W.R.A.T.H.
Tracknumber=2/13
Year=2018
Genre=9

[/more]

Register
(10) AHBAnep, andreikun, artscald, infiltrator, jollo, METALHUNTER, Olethros, Rosen, varlam4, wgs73,
Dec 5 2018, 14:43:34 Forgotten Silence - Kras (2018)


*Artist: Forgotten Silence
*Album: Kras
*Year: 2018
*Genre: Progressive Rock/Jazz
*Country: Czech Republic
*Format: mp3@CBR320kbps
*Size: 128MB

Tracklist:
1. Výpustek 07:42
2. Wolfsgrotte 1420 12:20
3. I AM A692 08:39
4. K nejdelšímu systému 09:41
5. Čajový muž 08:13
6. Cesta Suchým žlebem /Kateřinská/ 09:28
******************************
Total playing time: 56:03



Bandzone

[more=Technical info]
Input File: 02 Forgotten Silence - Wolfsgrotte 1420.mp3
Channels : 2
Sample Rate : 44100
Precision : 16-bit
Duration : 00:12:20.27 = 32645907 samples = 55520.2 CDDA sectors
File Size : 29.6M
Bit Rate : 320k
Sample Encoding: MPEG audio (layer I, II or III)
Comments :
Title=Wolfsgrotte 1420
Artist=Forgotten Silence
Album=Kras
Tracknumber=2
Year=2018
Genre=17

[/more]

Register
(5) BlackTroll, spazm, yuratroll, Дерсу Узала, Нигилист,
Jan 25 2018, 14:14:26 Insolvency - Antagonism Of The Soul (2018)


*Artist: Insolvency
*Album: Antagonism Of The Soul
*Year: 2018
*Genre: Melodic Death Metal/Metalcore
*Country: France
*Format: mp3@CBR320kbps
*Size: 113MB

Tracklist:
1. Divided
2. Tears of the World
3. Antagonism of the Soul
4. Violation
5. Black Moon
6. Hope
7. I'm Revulsed by Death
8. This War Is Not for You
9. A Leaving Life, A New Beginning
10. Your Lost Soul
11. Death Wish
******************************
Total playing time: 49:28

Preview 1

[more=Technical info]
Input File: 02. Tears of the World.mp3
Channels : 2
Sample Rate : 44100
Precision : 16-bit
Duration : 00:04:25.67 = 11715915 samples = 19925 CDDA sectors
File Size : 10.6M
Bit Rate : 320k
Sample Encoding: MPEG audio (layer I, II or III)
Comments :
Title=Tears of the World
Artist=Insolvency
Album=Antagonism of the Soul
Tracknumber=2/11
Year=2018
Genre=9
Discnumber=1/1

[/more]

Register
(8) Bloodn Lord, kimkayoung, metala, Mogozoz, Rosen, Rover, SymbyoticEntity, varlam4,
Jan 17 2018, 10:43:20 Sin Dogma - Rehearsal [demo] (2015)


*Artist: Sin Dogma
*Album: Rehearsal [demo]
*Year: 2015
*Genre: Thrash/Death Metal
*Country: Ecuador
*Format: mp3@VBR319kbps
*Size: 35MB

Tracklist:
1. Intro 00:37
2. Escapa 03:12
3. Soledad 03:32
4. Sin Dogma 03:02
5. Augurio del Poder 02:12
6. Threatening Skies (Obituary cover) 02:20
******************************
Total playing time: 14:55



[more=Technical info]
Input File: 3. Soledad.mp3
Channels : 2
Sample Rate : 44100
Precision : 16-bit
Duration : 00:03:32.04 = 9350744 samples = 15902.6 CDDA sectors
File Size : 8.79M
Bit Rate : 332k
Sample Encoding: MPEG audio (layer I, II or III)
Comments :
Title=Soledad
Artist=Sin Dogma
Album=Rehearsal
Tracknumber=3
Year=2015
Genre=12

[/more]

Register
(3) METALHUNTER, Rosen, varlam4,
Jan 17 2018, 10:36:49 Stingray - Legend [ep] (1986)


*Artist: Stingray
*Album: Legend [ep]
*Year: 1986
*Genre: Melodic Heavy/Power Metal/Hard Rock
*Country: Japan
*Format: mp3@CBR192kbps
*Size: 24MB

Tracklist:
1. Seijyaku No Oka E 01:11
2. Seiki Eno Densetsu 04:59
3. Jerusalem Break 03:42
4. Andromeda Crisis 03:14
5. 神の砦 (Carmine Rose) 04:06
******************************
Total playing time: 17:12



[more=Technical info]
Input File: 02 Seiki Eno Densetsu.mp3
Channels : 2
Sample Rate : 44100
Precision : 16-bit
Duration : 00:04:58.89 = 13180873 samples = 22416.5 CDDA sectors
File Size : 7.17M
Bit Rate : 192k
Sample Encoding: MPEG audio (layer I, II or III)
Comments :
Title=Seiki Eno Densetsu
Artist=Stingray
Album=Legend
Tracknumber=2
Year=1986
Genre=9

[/more]

Register
(5) Mogozoz, pasha98, Rosen, varlam4, wgs73,
Jan 17 2018, 10:32:20 Goel - Redención (2013)


*Artist: Goel
*Album: Redención
*Year: 2013
*Genre: Death Metal
*Country: Bolivia
*Format: mp3@CBR128kbps
*Size: 19MB

Tracklist:
1. Intro - Redención 01:47
2. Te alabaré 02:12
3. Eterno y Salvador 02:37
4. Holocausto 01:57
5. Cristo pelea por ti 01:47
6. Oh! Hashem 03:08
7. Jesús mi buen pastor 03:21
8. El Evangelio 03:31
******************************
Total playing time: 20:20



[more=Technical info]
Input File: 02 Te Alabare.mp3
Channels : 2
Sample Rate : 44100
Precision : 16-bit
Duration : 00:02:12.25 = 5832093 samples = 9918.53 CDDA sectors
File Size : 2.12M
Bit Rate : 128k
Sample Encoding: MPEG audio (layer I, II or III)
Comments :
Title=Te Alabare
Artist=Goel
Album=RedenciГіn
Tracknumber=2
Year=2013
Genre=9

[/more]

Register
(2) METALHUNTER, Rosen,
Jan 17 2018, 10:01:17 Genocide - Sacrificing Night At The Cemetery [ep] (2017)


*Artist: Genocide
*Album: Sacrificing Night At The Cemetery [ep]
*Year: 2017
*Genre: Brutal Death Metal
*Country: Myanmar
*Format: mp3@CBR320kbps
*Size: 29MB

Tracklist:
1. Murderous Featherhead 01:54
2. Sacrificing Night at the Cemetery 02:49
3. Slam on Her Virginity 02:38
4. Devayakka Nesivita 02:21
5. Ponenaka Titetaenya (Poltergeist) 02:47
******************************
Total playing time: 12:29




[more=Technical info]
Input File: 02.Sacrificing Night At The Cemetey.mp3
Channels : 2
Sample Rate : 48000
Precision : 16-bit
Duration : 00:02:49.32 = 8127360 samples ~ 12699 CDDA sectors
File Size : 6.84M
Bit Rate : 323k
Sample Encoding: MPEG audio (layer I, II or III)
Comments :
Title=02.Sacrificing Night At The Cemetery
Artist=Genocide
Album=Sacrificing Night At The Cemetery EP (2K17)
Tracknumber=2/5
Year=2017
Genre=9

[/more]

Register
(3) Rosen, varlam4, vyacheslav,
Jan 17 2018, 08:49:11 Lago Gris - Lamento De Un ángel (2016)


*Artist: Lago Gris
*Album: Lamento De Un ángel
*Year: 2016
*Genre: Gothic Metal
*Country: Ecuador
*Format: mp3@VBR317kbps
*Size: 109MB

Tracklist:
1. Insomnia 03:09
2. Anatema 06:18
3. Naturaleza 04:18
4. Instante de dolor 03:40
5. Hacia el más allá 06:43
6. Lluvia y fuego 04:53
7. Soledad 05:19
8. Lamento de un ángel 04:29
9. Cautivo por la tristeza 05:01
10. Bajo la luna 04:07
******************************
Total playing time: 47:57




[more=Technical info]
Input File: 02 - LAGO GRIS - ANATEMA.mp3
Channels : 2
Sample Rate : 44100
Precision : 16-bit
Duration : 00:06:14.07 = 16496619 samples = 28055.5 CDDA sectors
File Size : 14.9M
Bit Rate : 318k
Sample Encoding: MPEG audio (layer I, II or III)
Comments :
Title=ANATEMA
Artist=Lago Gris
Album=Lamento de un ?ngel
Tracknumber=2
Year=2016
Genre=9

[/more]

Register
(9) Alpha_Prime, Cartman223, csgmnk, ctulhudagon, cuerpofalaz, gwynnbleid, HMHamster, Rosen, varlam4,
Jan 17 2018, 08:40:55 Kraken - Kraken VI: Sobre Esta Tierra (2016)


*Artist: Kraken
*Album: Kraken VI: Sobre Esta Tierra
*Year: 2016
*Genre: Heavy Metal/Hard Rock
*Country: Colombia
*Format: mp3@CBR320kbps
*Size: 109MB

Tracklist:
1. Sobre esta tierra 05:31
2. Flores de trébol 05:16
3. No importa que mientas 05:24
4. Hojarascas 04:50
5. Hazte a un lado 04:41
6. Sueño libertario 05:43
7. Resiste 05:16
8. Noches bohemias 05:25
9. La barca de los locos 04:57
******************************
Total playing time: 47:03




[more=Technical info]
Input File: 02 - Flores de Tr?bol.mp3
Channels : 2
Sample Rate : 44100
Precision : 16-bit
Duration : 00:05:16.61 = 13962501 samples = 23745.8 CDDA sectors
File Size : 12.9M
Bit Rate : 326k
Sample Encoding: MPEG audio (layer I, II or III)
Comments :
Title=02 - Flores de TrГ©bol
Artist=Kraken
Album=Kraken VI: Sobre Esta Tierra
Tracknumber=2
Year=2016
Genre=Heavy Metal

[/more]

Register
(2) Rosen, varlam4,

230 Pages V   1 2 3 > » 
- Lo-Fi Version Support form
Copyrights and abuse reports form
Time is now: 16th September 2019 - 15:37:18