Welcome Guest ( Log In | Register )

История благодарностей участнику Gelukas ::: Спасибо сказали: 45170 раз(а)
Дата поста: В теме: За сообщение: Спасибо сказали:
Jul 2 2020, 13:39:32 Decrial - Desires Unfold [demo] (1993)
Register
(1) thenecromancer,
Jun 25 2020, 13:48:04 Drops Of Heart - Stargazers (2020)


*Artist: Drops Of Heart
*Album: Stargazers
*Year: 2020
*Genre: Modern Melodic Death Metal/Metalcore
*Country: Russian Federation
*Format: mp3@CBR320kbps
*Size: 144MB

Tracklist:
1. Echoes
2. Frost Grip
3. Knot
4. Escapist
5. Lull
6. Starlight
7. Modern Madness 04:03
8. Coffin
9. Exodus
10. Death Lover
11. Discoverers
12. Stargazers
******************************
Total playing time: 59:26




[more=Technical info]
Input File: 03. Knot.mp3
Channels : 2
Sample Rate : 44100
Precision : 16-bit
Duration : 00:06:00.83 = 15912427 samples = 27062 CDDA sectors
File Size : 15.2M
Bit Rate : 337k
Sample Encoding: MPEG audio (layer I, II or III)
Comments :
Title=Knot
Artist=Drops of Heart
Album=Stargazers
Tracknumber=3/12
Year=2020
Genre=9

[/more]

Register
(9) chipsgott, csgmnk, infiltrator, Ludwig Hagen, Lukittaz, Olethros, Sanctus, talismanFS, VALERY,
Jun 19 2020, 08:58:19 Labyrinth Spell - At The Blackest Corners Of Existence (2020)


*Artist: Labyrinth Spell
*Album: At The Blackest Corners Of Existence
*Year: 2020
*Genre: Black Metal
*Country: Brazil
*Format: mp3@CBR128kbps
*Size: 39MB

Tracklist:
1. Unholy Night 05:49
2. Prometheist 07:06
3. Horned King Throned Forever 06:29
4. Rigor Mortis 04:54
5. Wounds That Never Heal 04:57
6. Dead Inside 06:15
7. The Eternal Essence of Blackness 06:44
******************************
Total playing time: 42:14




[more=Technical info]
Input File: 01 Unholy Night.mp3
Channels : 2
Sample Rate : 44100
Precision : 16-bit
Duration : 00:05:49.66 = 15419786 samples = 26224.1 CDDA sectors
File Size : 5.60M
Bit Rate : 128k
Sample Encoding: MPEG audio (layer I, II or III)
Comments :
Artist=Labyrinth Spell
Album=At the Blackest Corners of Existence
Year=2020
Genre=9

[/more]

Register
(3) infiltrator, Olethros, Wail,
Jun 19 2020, 08:50:41 Gefrorene Fee - Schneegeist (2020)


*Artist: Gefrorene Fee
*Album: Schneegeist
*Year: 2020
*Genre: Atmospheric Black Metal/Ambient
*Country: Brazil
*Format: mp3@CBR320kbps
*Size: 94MB

Tracklist:
1. Stilleben 07:07
2. Nachtschnee 05:56
3. Schneegeist 08:38
4. Storm Grimm 06:34
5. Winterfrost Howl 06:14
6. Anthem of the Snow Spirits 05:22
******************************
Total playing time: 39:51




[more=Technical info]
Input File: 2881240.jpg

[/more]

Register
(8) dimpa, Druidir, infiltrator, Jorn777, oldvarg, Olethros, randumbum, senecazm,
Jun 15 2020, 07:46:56 Dead City Crown - Our Blood Apocalyptic [ep] (2020)


*Artist: Dead City Crown
*Album: Our Blood Apocalyptic [ep]
*Year: 2020
*Genre: Melodic Death Metal
*Country: United States
*Format: mp3@CBR320kbps
*Size: 43MB

Tracklist:
1. Until the Bitter End 03:35
2. Our Blood Apocalyptic 03:42
3. Through the Ashes of Man 03:36
4. In Revolt 03:53
5. Autumn's May 03:55
******************************
Total playing time: 18:41




[more=Technical info]
Input File: 02. Our Blood Apocalyptic.mp3
Channels : 2
Sample Rate : 44100
Precision : 16-bit
Duration : 00:03:42.58 = 9815690 samples = 16693.4 CDDA sectors
File Size : 9.02M
Bit Rate : 324k
Sample Encoding: MPEG audio (layer I, II or III)
Comments :
Title=Our Blood Apocalyptic
Artist=Dead City Crown
Album=Our Blood Apocalyptic
Tracknumber=2/5
Year=2020
Genre=Metal
Discnumber=1/1

[/more]

Register
(11) BugEyes, djsema4, GuldenDraak, infiltrator, kiol1, Lukittaz, Mogozoz, Olethros, sergsazan, VALERY, zhol,
Jun 9 2020, 06:43:20 Diary About My Nightmares - Forbidden Anger (2020)


*Artist: Diary About My Nightmares
*Album: Forbidden Anger
*Year: 2020
*Genre: Melodic Death Metal
*Country: Germany
*Format: mp3@CBR320kbps
*Size: 113MB

Tracklist:
1. Urt La Bu Tral
2. Lost In Lines
3. Close To The Border
4. Deathinfection
5. Hate
6. Ewigkeit
7. First Class Suicide
8. Forbidden Anger
9. Across The Street
10. Hall Of Fame
******************************
Total playing time: 48:05




[more=Technical info]
Input File: 02. Lost In Lines.mp3
Channels : 2
Sample Rate : 44100
Precision : 16-bit
Duration : 00:03:36.36 = 9541520 samples = 16227.1 CDDA sectors
File Size : 9.03M
Bit Rate : 334k
Sample Encoding: MPEG audio (layer I, II or III)
Comments :
Title=Lost In Lines
Artist=Diary About My Nightmares
Album=Forbidden Anger
Tracknumber=2/10
Year=2020
Genre=9

[/more]

Register
(22) AHBAnep, Andrew, apostol_13, BugEyes, chipsgott, DenisKov, infiltrator, infozahist, Lukittaz, multizwilling, older68, Rosen, sergsazan, serjred, talismanFS, terron, VALERY, White28, Winterdark, zhol, Герб, Сварог Барг,
Jun 8 2020, 08:48:48 Powerwolf - The Symphony Of Sin (2020)


*Artist: Powerwolf
*Album: The Symphony Of Sin
*Year: 2020
*Genre: Rock Opera
*Country: Germany
*Format: mp3@CBR320kbps
*Size: 107MB

Tracklist:
1. Fire & Forgive 04:33
2. Demons Are a Girl’s Best Friend 03:39
3. Killers with the Cross 04:06
4. Incense and Iron 03:59
5. Where the Wild Wolves Have Gone 04:15
6. Stossgebet 03:55
7. Nightside of Siberia 03:55
8. The Sacrament of Sin 03:29
9. Venom of Venus 03:31
10. Nighttime Rebel 04:05
11. Fist by Fist (Sacralize or Strike) 03:31
12. Midnight Madonna 03:31
******************************
Total playing time: 46:29




[more=Technical info]
Input File: 3 - Killers with the Cross (Orchestral Version).mp3
Channels : 2
Sample Rate : 44100
Precision : 16-bit
Duration : 00:04:06.59 = 10874443 samples = 18494 CDDA sectors
File Size : 9.96M
Bit Rate : 323k
Sample Encoding: MPEG audio (layer I, II or III)
Comments :
Title=Killers with the Cross (Orchestral Version)
Artist=Powerwolf
Album=The Symphony of Sin
Tracknumber=3
Year=2020
Genre=Metal
Discnumber=1

[/more]

Register
(9) Aresson, Druidir, gwar, HMHamster, infiltrator, Lukittaz, multizwilling, oldvarg, Olethros,
Jun 5 2020, 14:03:40 Tokyomorbidedge - Tokyomorbidedge [ep] (2020)


*Artist: Tokyomorbidedge
*Album: Tokyomorbidedge [ep]
*Year: 2020
*Genre: Death/Thrash Metal/Grindcore
*Country: Japan
*Format: mp3@CBR320kbps
*Size: 25MB

Tracklist:
1. Zombieland 02:26
2. Virtual Grave 02:04
3. Fastfreak 01:06
4. 人間爆弾 01:49
5. 修羅シュラク 01:20
6. Death Idol Thrasher 02:17
******************************
Total playing time: 11:02




[more=Technical info]
Input File: 02. Virtual Grave.mp3
Channels : 2
Sample Rate : 44100
Precision : 16-bit
Duration : 00:02:04.37 = 5484629 samples = 9327.6 CDDA sectors
File Size : 4.97M
Bit Rate : 320k
Sample Encoding: MPEG audio (layer I, II or III)
Comments :
Title=VIRTUAL GRAVE
Artist=TokyoMorbidEdge
Album=TokyoMorbidedge
Tracknumber=2
Year=2020
Genre=9

[/more]

Register
(7) boby9052, infiltrator, Lukittaz, marilin, Olethros, Rosen, vyacheslav,
Jun 5 2020, 13:56:27 Head - Corona De Barro (2020)


*Artist: Head
*Album: Corona De Barro
*Year: 2020
*Genre: Groove Metal/Metalcore
*Country: Argentina
*Format: mp3@CBR320kbps
*Size: 142MB

Tracklist:
1. Pacto 05:44
2. Corona de barro 03:32
3. Juzgar 05:09
4. Instinto 04:46
5. Es hoy 04:57
6. Solo al final 04:38
7. Abraxas 05:30
8. Despertar 04:42
9. Head 05:04
10. Tiempo atrás 17:44
******************************
Total playing time: 1:01:46




[more=Technical info]
Input File: 02 Corona de Barro.mp3
Channels : 2
Sample Rate : 44100
Precision : 16-bit
Duration : 00:03:32.78 = 9383554 samples = 15958.4 CDDA sectors
File Size : 8.63M
Bit Rate : 324k
Sample Encoding: MPEG audio (layer I, II or III)
Comments :
Title=Corona de Barro
Artist=Head
Album=Corona De Barro
Tracknumber=2
Year=2020
Genre=9

[/more]

Register
(3) infiltrator, Lukittaz, Rosen,
Jun 5 2020, 13:49:57 Ancestro - Ancestro (2019)


*Artist: Ancestro
*Album: Ancestro
*Year: 2019
*Genre: Progressive Doom Metal/Stoner Rock
*Country: Peru
*Format: mp3@CBR128kbps
*Size: 38MB

Tracklist:
1. I 00:56
2. II 07:52
3. III 04:27
4. IV 06:51
5. V 08:24
6. VI 13:12
******************************
Total playing time: 41:42




[more=Technical info]
Input File: 2.- II.mp3
Channels : 2
Sample Rate : 44100
Precision : 16-bit
Duration : 00:07:52.44 = 20834692 samples = 35433.1 CDDA sectors
File Size : 7.56M
Bit Rate : 128k
Sample Encoding: MPEG audio (layer I, II or III)
Comments :
Artist=Ancestro
Album=Ancestro
Year=2019
Genre=9

[/more]

Register
(3) infiltrator, Olethros, VALERY,
Jun 5 2020, 07:16:01 Kalkumakuñ - Profundidad Abismal [ep] (2016)


*Artist: Kalkumakuñ
*Album: Profundidad Abismal [ep]
*Year: 2016
*Genre: Black/Thrash Metal
*Country: Chile
*Format: mp3@CBR320kbps
*Size: 61MB

Tracklist:
1. Introducción - Ruptura del Ad Mapu 02:23
2. Confinados al mal 03:50
3. Profundidad abismal 02:59
4. Trelke Wekufe 05:06
5. Interludio 04:37 (instrumental)
6. Total misantropia 03:36
7. Kalkumakuñ 04:08
******************************
Total playing time: 26:39




[more=Technical info]
Input File: 02 Confinados al Mal.mp3
Channels : 2
Sample Rate : 44100
Precision : 16-bit
Duration : 00:03:51.48 = 10208400 samples = 17361.2 CDDA sectors
File Size : 9.32M
Bit Rate : 322k
Sample Encoding: MPEG audio (layer I, II or III)
Comments :
Title=Confinados al Mal
Artist=Kalkumaku?
Album=Profundidad abismal
Tracknumber=2
Year=2016
Genre=9

[/more]

Register
(9) infiltrator, Lukittaz, marilin, Olethros, Rosen, sergsazan, stumpheavyrock, Styx, Wail,
Jun 5 2020, 06:55:52 Arsenico - Fucking & Gore Thrash [ep] (2011)


*Artist: Arsenico
*Album: Fucking & Gore Thrash [ep]
*Year: 2011
*Genre: Old School Thrash/Speed Metal
*Country: Chile
*Format: mp3@CBR320kbps
*Size: 37MB

Tracklist:
1. Headshot 02:27
2. No Peace, No Christ, Only Death! 04:22
3. We Are Disstortion 02:33
4. Power Thrashing Death (Whiplash Cover) 03:58
5. N.B.K. (Natural Born Killer) (Bonus) 02:37
******************************
Total playing time: 15:57



[more=Technical info]
Input File: 02 - No Peace, No Christ... Only Death.mp3
Channels : 2
Sample Rate : 44100
Precision : 16-bit
Duration : 00:04:22.25 = 11565313 samples = 19668.9 CDDA sectors
File Size : 10.5M
Bit Rate : 320k
Sample Encoding: MPEG audio (layer I, II or III)
Comments :
Title=No Peace, No Christ... Only Death
Artist=Arsenico
Album=Fucking & Gore Thrash
Tracknumber=2
Year=2011
Genre=9
Discnumber=1

[/more]

Register
(12) Darkness, gwar, infiltrator, Lukittaz, marilin, Olethros, Rosen, sergsazan, stumpheavyrock, Styx, varlam4, Wail,
Jun 5 2020, 06:24:11 Waiting For Nadia - La Ultima Palabra (2014)


*Artist: Waiting For Nadia
*Album: La Ultima Palabra
*Year: 2014
*Genre: Progressive Metalcore/Post-Hardcore
*Country: Cuba
*Format: mp3@CBR320kbps
*Size: 96MB

Tracklist:
1. Decisiones
2. Nadia
3. Un Kmbio en Mi
4. Nuestra Meta
5. Falsa Ilusion
6. Seres
7. E=mc2
8. Regresa
9. Sueño Despierto
10. Imita y Fracasa
11. Javelin (deathcore bonus track)
******************************
Total playing time: 41:37




[more=Technical info]
Input File: 02-Nadia.mp3
Channels : 2
Sample Rate : 44100
Precision : 16-bit
Duration : 00:03:33.89 = 9432681 samples = 16042 CDDA sectors
File Size : 8.63M
Bit Rate : 323k
Sample Encoding: MPEG audio (layer I, II or III)
Comments :
Title=Nadia
Artist=Waiting for Nadia
Album=La Ultima Palabra
Tracknumber=2
Year=2014
Genre=Core

[/more]

Register
(5) infiltrator, Lukittaz, NoSurrender84, Olethros, Rosen,
Jun 3 2020, 13:37:05 Luxúria De Lillith - Gehennom (2019)


*Artist: Luxúria De Lillith
*Album: Gehennom
*Year: 2019
*Genre: Melodic Black Metal
*Country: Brazil
*Format: mp3@CBR192kbps
*Size: 65MB

Tracklist:
1. Aos Filhos de Asmodeus
2. Natureza Revelada
3. Asmodeus
4. Jahannam
5. A Festa dos Mortos
6. As Serpentes do Sol
7. Dark Energy
8. Jaheem
9. Fúria Carnal
10. Coração de Dragão
11. Gehennom
******************************
Total playing time: 47:39




[more=Technical info]
Input File: 03 Asmodeus.mp3
Channels : 2
Sample Rate : 44100
Precision : 16-bit
Duration : 00:03:43.51 = 9856791 samples = 16763.2 CDDA sectors
File Size : 5.37M
Bit Rate : 192k
Sample Encoding: MPEG audio (layer I, II or III)
Comments :
Artist=Lux?ria de Lillith
Album=Gehennom
Year=2019
Genre=9

[/more]

Register
(8) atavist, disney666, infiltrator, kim666, Korpse, Olethros, sergsazan, thenecromancer,
Jun 3 2020, 13:22:21 Infestus - Dresses Of Darkness [ep] (2017)


*Artist: Infestus
*Album: Dresses Of Darkness [ep]
*Year: 2017
*Genre: Gothic/Death Metal
*Country: Venezuela
*Format: mp3@CBR128kbps
*Size: 19MB

Tracklist:
1. Vampirica
2. My Mournful Charlotte
3. The Shadow of the Vampire
4. Lobizon
5. Blood Matriarch
******************************
Total playing time: 20:13




[more=Technical info]
Input File: 02 - My Mournful Charlotte.mp3
Channels : 2
Sample Rate : 44100
Precision : 16-bit
Duration : 00:05:02.19 = 13326755 samples = 22664.5 CDDA sectors
File Size : 5.00M
Bit Rate : 132k
Sample Encoding: MPEG audio (layer I, II or III)
Comments :
Title=My Mournful Charlotte
Artist=Infestus
Album=Dresses of Darkness
Tracknumber=2
Year=2017-06-06
Genre=9
Discnumber=1

[/more]

Register
(6) Cartman223, infiltrator, Olethros, valera2010, VALERY, vikt11,
Jun 3 2020, 09:51:39 Area 55 - One Ocean (2020)


*Artist: Area 55
*Album: One Ocean
*Year: 2020
*Genre: Melodic Hard Rock/Heavy Metal
*Country: United States
*Format: mp3@CBR320kbps
*Size: 101MB

Tracklist:
1. Into the Void
2. Save Me
3. Far Away
4. Tell Me Why
5. The Enemy
6. Wake Me Up
7. One Life, One Soul
8. Break the Chains
9. Rev My Soul
10. Motions of the Storm
11. Behind the Black
******************************
Total playing time: 43:57




[more=Technical info]
Input File: 02 - Save Me.mp3
Channels : 2
Sample Rate : 44100
Precision : 16-bit
Duration : 00:04:27.20 = 11783432 samples = 20039.9 CDDA sectors
File Size : 10.7M
Bit Rate : 321k
Sample Encoding: MPEG audio (layer I, II or III)
Comments :
Title=Save Me
Artist=Area 55
Album=One Ocean
Tracknumber=02
Year=2020
Genre=Metal
Discnumber=1

[/more]

Register
(9) infiltrator, Lukittaz, Mogozoz, oldvarg, Olethros, Rosen, Rover, senecazm, varlam4,
Jun 3 2020, 09:36:46 Denial Of Light - The Terminal Hour We All Fade (2020)


*Artist: Denial Of Light
*Album: The Terminal Hour We All Fade
*Year: 2020
*Genre: Death/Doom Metal
*Country: Brazil
*Format: mp3@CBR128kbps
*Size: 50MB

Tracklist:
1. Denial 05:17
2. Borderline 05:12
3. Morphine 05:02
4. Amidmost Praises 02:46
5. No Will to Strive 06:32
6. In My Pale Heart 05:41
7. Never Ending Strain 07:08
8. In Silence We Decay 05:31
9. Within Derelict Walls 07:03
10. The Terminal Hour We All Fade 04:21
******************************
Total playing time: 54:33




[more=Technical info]
Input File: 02 Borderline.mp3
Channels : 2
Sample Rate : 44100
Precision : 16-bit
Duration : 00:05:12.48 = 13780324 samples = 23435.9 CDDA sectors
File Size : 5.00M
Bit Rate : 128k
Sample Encoding: MPEG audio (layer I, II or III)
Comments :
Artist=Denial of Light
Album=The Terminal Hour We All Fade
Year=2020
Genre=(9)

[/more]

Register
(8) craP_cillA, infiltrator, kranger, Lukittaz, Olethros, sergsazan, VALERY, vov7609,
Jun 2 2020, 08:36:34 Captain Black Beard - Sonic Forces (2020)


*Artist: Captain Black Beard
*Album: Sonic Forces
*Year: 2020
*Genre: AOR/Melodic Rock
*Country: Sweden
*Format: mp3@CBR320kbps
*Size: 97MB

Tracklist:
1. Headlights
2. Lights & Shadows
3. Disco Volante
4. Tonight
5. Sonic Forces
6. Time To Deliver
7. Midnight Cruiser
8. Young Hearts
9. Gotham City
10. Emptiness
******************************
Total playing time: 41:53




[more=Technical info]
Input File: 01 - Headlights.mp3
Channels : 2
Sample Rate : 44100
Precision : 16-bit
Duration : 00:03:35.66 = 9510386 samples = 16174.1 CDDA sectors
File Size : 8.70M
Bit Rate : 323k
Sample Encoding: MPEG audio (layer I, II or III)
Comments :
Title=Headlights
Artist=Captain Black Beard
Album=Sonic Forces
Tracknumber=1
Year=2020
Genre=Classical / Rock
Discnumber=1

[/more]

Register
(4) infiltrator, JPV, Lukittaz, Olethros,
May 29 2020, 14:33:33 Molested - Cruciomundus [ep] (2020)


*Artist: Molested
*Album: Cruciomundus [ep]
*Year: 2020
*Genre: Brutal Death Metal
*Country: United States
*Format: mp3@CBR320kbps
*Size: 51MB

Tracklist:
1. Posthumous Precognizations of an Abacinated Prophet 03:30
2. Bound by Severed Ligaments and Molested by an Extradimensional Deity 02:58
3. Gagging on Chunks of Genital Meat 02:18
4. Chamber of Decapitated Angels 03:22
5. The Excruciating Sound of Innocents Choking on Scalding Fetid Seminal Discharge 04:20
******************************
Total playing time: 16:28




[more=Technical info]
Input File: 02 Bound by Severed Ligaments and Molested by an Extradimensional Deity.mp3
Channels : 2
Sample Rate : 44100
Precision : 16-bit
Duration : 00:02:58.09 = 7853725 samples = 13356.7 CDDA sectors
File Size : 9.99M
Bit Rate : 449k
Sample Encoding: MPEG audio (layer I, II or III)
Comments :
Title=Bound By Severed Ligaments And Molested By An Extradimensional Deity
Artist=Molested
Album=Cruciomundus
Tracknumber=2
Year=2020
Genre=Slamming Brutal Death Metal

[/more]

Register
(9) cesar, Hell_Is_Here, infiltrator, multizwilling, older68, Olethros, Orgasmik, Rosen, vyacheslav,
May 29 2020, 14:23:30 H-Tray - Suspend The Hours (2011)


*Artist: H-Tray
*Album: Suspend The Hours
*Year: 2011
*Genre: Thrash Metal/Metalcore
*Country: France
*Format: mp3@CBR320kbps
*Size: 81MB

Tracklist:
1. Suspend the Hours 04:10
2. Feeling Storm Between 04:22
3. Deathblow to Your Ego 04:56
4. Building Our Decline 03:07
5. Straddle the Horizon 01:45
6. As a Dust in the Complex Mechanic 04:16
7. Kick Some Ass 02:12
8. Poverty's Not Mental Beggar 04:56
9. Loneliness in the Masses 01:44
10. The Sum of Your Misfortunes 04:00
******************************
Total playing time: 35:28




[more=Technical info]
Input File: 06. As a dust in the complex mechanic.mp3
Channels : 2
Sample Rate : 44100
Precision : 16-bit
Duration : 00:04:16.20 = 11298420 samples = 19215 CDDA sectors
File Size : 10.2M
Bit Rate : 320k
Sample Encoding: MPEG audio (layer I, II or III)
Comments :
Title=As a dust in the complex mechanic
Artist=H-Tray
Album=Suspend the Hours
Tracknumber=06
Year=2011
Genre=Metal

[/more]

Register
(8) atavist, boby9052, Darkness, infiltrator, Olethros, Rosen, stumpheavyrock, terron,
May 29 2020, 14:15:48 Clayman - Clayman [ep] (2016)


*Artist: Clayman
*Album: Clayman [ep]
*Year: 2016
*Genre: Melodic Death Metal
*Country: Japan
*Format: mp3@CBR320kbps
*Size: 41MB

Tracklist:
1. UMC
2. No,68
3. Beast of Mustache
4. The Neetest
******************************
Total playing time: 17:44




[more=Technical info]
Input File: 2-No.68.mp3
Channels : 2
Sample Rate : 44100
Precision : 16-bit
Duration : 00:04:18.15 = 11384371 samples = 19361.2 CDDA sectors
File Size : 10.3M
Bit Rate : 320k
Sample Encoding: MPEG audio (layer I, II or III)
Comments :
Artist=Clayman
Album=Clayman
Year=2016
Genre=9

[/more]

Register
(10) AHBAnep, BugEyes, infiltrator, Lukittaz, Olethros, randumbum, Rosen, sergsazan, VALERY, zhol,
May 29 2020, 14:09:07 Wither Without You - Akathisia (2020)


*Artist: Wither Without You
*Album: Akathisia
*Year: 2020
*Genre: Melodic Doom/Death Metal
*Country: United States
*Format: mp3@CBR320kbps
*Size: 92MB

Tracklist:
1. Akathisia 05:12
2. Relapse 04:53
3. Paradox 04:19
4. Dead Issues 03:10
5. Nameless 06:01
6. Anhedonia 05:19
7. My Dying Breath 05:42
8. Despair Isn't Enough 05:06
******************************
Total playing time: 39:42




[more=Technical info]
Input File: 02 - Relapse.mp3
Channels : 2
Sample Rate : 44100
Precision : 16-bit
Duration : 00:04:53.45 = 12941233 samples = 22008.9 CDDA sectors
File Size : 11.8M
Bit Rate : 323k
Sample Encoding: MPEG audio (layer I, II or III)
Comments :
Title=Relapse
Artist=Wither Without You
Album=Akathisia
Tracknumber=2
Year=2020
Genre=Metal
Discnumber=1

[/more]

Register
(17) 0x13, cesar, DenisKov, HMHamster, infiltrator, Mares, multizwilling, Olethros, Rosen, russ777, senecazm, sergsazan, Shadechaser, stumpheavyrock, VALERY, zhol, Сварог Барг,
May 29 2020, 14:02:58 Yawning Earth - Yawning Earth [ep] (2020)


*Artist: Yawning Earth
*Album: Yawning Earth [ep]
*Year: 2020
*Genre: Death Metal
*Country: United States
*Format: mp3@CBR320kbps
*Size: 27MB

Tracklist:
1. Life Inside the Biosphere 03:00
2. Passing Yekaterina Bridge 04:32
3. Lungs of the Earth 04:15 instrumental
******************************
Total playing time: 11:47



[more=Technical info]
Input File: 01 Life Inside The Biosphere.mp3
Channels : 2
Sample Rate : 44100
Precision : 16-bit
Duration : 00:03:00.65 = 7966489 samples = 13548.5 CDDA sectors
File Size : 7.33M
Bit Rate : 325k
Sample Encoding: MPEG audio (layer I, II or III)
Comments :
Title=Life Inside The Biosphere
Artist=Yawning Earth
Album=Yawning Earth
Tracknumber=1
Year=2020
Genre=9

[/more]

Register
(7) cesar, chipsgott, infiltrator, Olethros, Rosen, VALERY, vyacheslav,
May 29 2020, 13:58:58 Darkened Souls - And The Light Cries Upon Us (2012)


*Artist: Darkened Souls
*Album: And The Light Cries Upon Us
*Year: 2012
*Genre: Dark/Melodic Death/Doom Metal
*Country: Finland
*Format: mp3@CBR128kbps
*Size: 34MB

Tracklist:
1. Circle
2. Dark Morning
3. Enemy
4. Senses (When the World Is Lost)
5. Under the Dark Sun
6. When Light Cries upon Us
******************************
Total playing time: 36:58




[more=Technical info]
Input File: 02 - Dark Morning.mp3
Channels : 2
Sample Rate : 44100
Precision : 16-bit
Duration : 00:04:07.47 = 10913207 samples = 18559.9 CDDA sectors
File Size : 3.97M
Bit Rate : 128k
Sample Encoding: MPEG audio (layer I, II or III)
Comments :
Title=Dark Morning
Artist=Darkened Souls
Album=And the Light Cries upon Us
Tracknumber=02/06
Year=2012-00-00
Genre=9

[/more]

Register
(7) infiltrator, Olethros, sergsazan, stumpheavyrock, TeamatSE, VALERY, zhol,
May 29 2020, 13:51:03 Gwendydd - Human Nature (2020)


*Artist: Gwendydd
*Album: Human Nature
*Year: 2020
*Genre: Groove Metal/Metalcore
*Country: Bulgaria
*Format: mp3@CBR320kbps
*Size: 76MB

Tracklist:
1. The Dawn (Intro) 01:30 (instrumental)
2. Addiction 03:10
3. Human Nature 03:49
4. D.I.D. 03:37
5. Виновен (Guilty) 02:51
6. 21st Century Ignorance 02:19
7. The Nightmare Ends Tomorrow 04:43
8. Suicide 03:27
9. Lapse of Humanity 03:30
10. Suicide (Acoustic) 03:21
******************************
Total playing time: 32:17




[more=Technical info]
Input File: 02 - Addiction.mp3
Channels : 2
Sample Rate : 44100
Precision : 16-bit
Duration : 00:03:10.45 = 8398669 samples = 14283.5 CDDA sectors
File Size : 7.84M
Bit Rate : 329k
Sample Encoding: MPEG audio (layer I, II or III)
Comments :
Title=Addiction
Artist=Gwendydd
Album=Human Nature
Tracknumber=2
Year=2020
Genre=9

[/more]

Register
(7) Bregon, chipsgott, infiltrator, Lukittaz, Olethros, Rosen, stumpheavyrock,

249 Pages V   1 2 3 > » 
- Lo-Fi Version Support form
Copyrights and abuse reports form
Time is now: 7th July 2020 - 17:17:20