Welcome Guest ( Log In | Register )

История благодарностей участнику Gelukas ::: Спасибо сказали: 43623 раз(а)
Дата поста: В теме: За сообщение: Спасибо сказали:
Apr 3 2020, 12:39:48 Phsycopath - Nightmare Remains [ep] (2019)


*Artist: Phsycopath
*Album: Nightmare Remains [ep]
*Year: 2019
*Genre: Melodic Death Metal
*Country: Chile
*Format: mp3@CBR320kbps
*Size: 42MB

Tracklist:
1. Wolf Path
2. Confrontation
3. Nightmare Remains
4. Larry
5. Hell's Butcher
******************************
Total playing time: 16:23



[more=Technical info]
Input File: 02. Confrontation.mp3
Channels : 2
Sample Rate : 44100
Precision : 16-bit
Duration : 00:04:13.17 = 11164753 samples = 18987.7 CDDA sectors
File Size : 11.0M
Bit Rate : 348k
Sample Encoding: MPEG audio (layer I, II or III)
Comments :
Title=Confrontation
Artist=Phsycopath
Album=Nightmare Remains
Tracknumber=2
Year=2019
Genre=9

[/more]

Register
(6) BugEyes, chipsgott, infiltrator, Olethros, sergsazan, VALERY,
Apr 3 2020, 11:59:52 Kadaver Dolls - Kadaver Dolls (2019)


*Artist: Kadaver Dolls
*Album: Kadaver Dolls
*Year: 2019
*Genre: Groove Metal
*Country: United States
*Format: mp3@CBR320kbps
*Size: 80MB

Tracklist:
1. Shadows 05:07
2. This Moment 04:06
3. Don't Let Me Go 04:03
4. All Over 03:30
5. Path Of Evil 02:50
6. 13 04:36
7. Stubborn Love 04:48
8. Empty Headed 04:28
******************************
Total playing time: 33:28




[more=Technical info]
Input File: 02 - This Moment.mp3
Channels : 2
Sample Rate : 44100
Precision : 16-bit
Duration : 00:04:06.93 = 10889437 samples = 18519.5 CDDA sectors
File Size : 10.3M
Bit Rate : 333k
Sample Encoding: MPEG audio (layer I, II or III)
Comments :
Title=This Moment
Artist=Kadaver Dolls
Album=Kadaver Dolls
Tracknumber=2
Year=2019
Genre=Metal

[/more]

Register
(3) boby9052, infiltrator, Olethros,
Apr 3 2020, 11:53:33 Morbosatan - Morbosatan [demo] (2014)


*Artist: Morbosatan
*Album: Morbosatan [demo]
*Year: 2014
*Genre: Death/Black/Thrash Metal
*Country: Peru
*Format: mp3@CBR128kbps
*Size: 15MB

Tracklist:
1. Bloody Ritual Begin 02:22
2. Morbid Genocide 03:11
3. Morbosatán 04:52
4. Ritual inmortal 03:29
5. Sádico Satanás 02:57
******************************
Total playing time: 16:51




[more=Technical info]
Input File: 2.- Morbid Genocide.mp3
Channels : 2
Sample Rate : 44100
Precision : 16-bit
Duration : 00:03:11.63 = 8450707 samples = 14372 CDDA sectors
File Size : 3.07M
Bit Rate : 128k
Sample Encoding: MPEG audio (layer I, II or III)
Comments :
Artist=Morbosatan
Album=Morbosatan
Year=2014
Genre=9

[/more]

Register
(4) infiltrator, Olethros, stumpheavyrock, Wail,
Apr 3 2020, 09:55:25 Raze Your Gods - Deliver Us Some Evil (2019)


*Artist: Raze Your Gods
*Album: Deliver Us Some Evil
*Year: 2019
*Genre: Melodic Deathcore/Groove Metal
*Country: Austria
*Format: mp3@CBR320kbps
*Size: 104MB

Tracklist:
1. The Kraken 04:19
2. A Pack of Alphas 04:16
3. Burn All Bridges 03:44
4. Black Soap Venom 05:25
5. Raze Your Gods 05:01
6. We, the People 04:19
7. The Right of the Stronger 04:14
8. Edging Sanity 04:31
9. Anger Beats Tactics 03:12
10. The Purest Form of Evil 04:40
******************************
Total playing time: 43:41




[more=Technical info]
Input File: 02. A Pack Of Alphas.mp3
Channels : 2
Sample Rate : 44100
Precision : 16-bit
Duration : 00:04:16.25 = 11300713 samples = 19218.9 CDDA sectors
File Size : 10.7M
Bit Rate : 335k
Sample Encoding: MPEG audio (layer I, II or III)
Comments :
Title=A Pack Of Alphas
Artist=Raze Your Gods
Album=Deliver Us Some Evil
Tracknumber=2
Year=2019
Genre=Metal

[/more]

Register
(7) chipsgott, infiltrator, Olethros, sadmannn, stumpheavyrock, Typhoid, zhol,
Apr 3 2020, 09:49:36 Sindicato De Macuarros - Bosque Mágico (2019)


*Artist: Sindicato De Macuarros
*Album: Bosque Mágico
*Year: 2019
*Genre: Progressive Melodic Death/Heavy Metal
*Country: Mexico
*Format: mp3@CBR320kbps
*Size: 74MB

Tracklist:
1. Caldo de Guajolote 04:09
2. El cumpleaños del hijo del diablo 03:45
3. Queso de cabra 03:21
4. Muere el perro viejo 03:23
5. New World Symphony (Trail of Tears) 03:15
6. Niño tecnológico 02:24
7. Desaparecido 03:20
8. Bach-Werke-Verzeichnis 1060 (Allegro) 02:16 (instrumental)
9. Náufrago 04:09
10. Licuado de calzón 02:04
******************************
Total playing time: 32:06




[more=Technical info]
Input File: 02. El Cumpleaños del Hijo del Diablo.mp3
Channels : 2
Sample Rate : 44100
Precision : 16-bit
Duration : 00:03:45.81 = 9958397 samples = 16936 CDDA sectors
File Size : 9.11M
Bit Rate : 323k
Sample Encoding: MPEG audio (layer I, II or III)
Comments :
Title=El Cumpleaños del Hijo del Diablo
Artist=Sindicato de Macuarros
Album=Bosque Mágico
Tracknumber=2
Year=2019
Genre=Metal

[/more]

Register
(3) chipsgott, infiltrator, Olethros,
Apr 3 2020, 09:40:15 Surplus - Sarcastic Crucifixion Of (2018)


*Artist: Surplus
*Album: Sarcastic Crucifixion Of
*Year: 2018
*Genre: Progressive Metal/Rock
*Country: Iran
*Format: mp3@VBR263kbps
*Size: 60MB

Tracklist:
1. Bitter Invasion 01:34
2. A Morning Walk 07:30
3. Requiem for a Planet 08:14
4. Scream (feat. Shadi Movahedi) 07:20
5. Nocturnal 05:02
6. Sweet Invasion 01:38
******************************
Total playing time: 31:18




[more=Technical info]
Input File: 02 A Morning Walk.mp3
Channels : 2
Sample Rate : 44100
Precision : 16-bit
Duration : 00:07:33.09 = 19981401 samples = 33982 CDDA sectors
File Size : 15.1M
Bit Rate : 267k
Sample Encoding: MPEG audio (layer I, II or III)
Comments :
Title=A Morning Walk
Artist=Surplus
Album=Sarcastic Crucifixion of
Tracknumber=2
Year=2018
Genre=Metal/Rock

[/more]

Register
(3) infiltrator, Olethros, senecazm,
Apr 3 2020, 09:25:58 Venator - Demo 2013 [demo] (2013)


*Artist: Venator
*Album: Demo 2013 [demo]
*Year: 2013
*Genre: Melodic Death Metal
*Country: Canada
*Format: mp3@CBR320kbps
*Size: 38MB

Tracklist:
1. The Weapon of Fear 06:08
2. Slaves of Times 04:17
3. Pull the Joker 06:02
******************************
Total playing time: 16:27




[more=Technical info]
Input File: 02. Slaves of Time.mp3
Channels : 2
Sample Rate : 44100
Precision : 16-bit
Duration : 00:04:17.90 = 11373170 samples = 19342.1 CDDA sectors
File Size : 10.4M
Bit Rate : 323k
Sample Encoding: MPEG audio (layer I, II or III)
Comments :
Title=Slaves of Time
Artist=Venator
Album=Demo
Tracknumber=2
Year=2013
Genre=9

[/more]

Register
(4) infiltrator, Olethros, VALERY, zhol,
Apr 3 2020, 09:18:28 Zelichant - Presence Unknown [ep] (2014)


*Artist: Zelichant
*Album: Presence Unknown [ep]
*Year: 2014
*Genre: Melodic Death Metal
*Country: Mexico
*Format: mp3@CBR320kbps
*Size: 64MB

Tracklist:
1. Stay Away 04:13
2. Evil in Darkness 04:44
3. Presence Unknown 04:19
4. City in Madness 03:51
5. Borderline Mentality 04:37
6. Keepers of the Truth 06:04
******************************
Total playing time: 27:48




[more=Technical info]
Input File: 02. Evil in Darkness.mp3
Channels : 2
Sample Rate : 44100
Precision : 16-bit
Duration : 00:04:44.83 = 12560915 samples = 21362.1 CDDA sectors
File Size : 11.4M
Bit Rate : 320k
Sample Encoding: MPEG audio (layer I, II or III)
Comments :
Artist=Zelichant
Album=Presence Unknown
Year=2014
Genre=(9)

[/more]

Register
(5) chipsgott, infiltrator, Olethros, sergsazan, VALERY,
Apr 3 2020, 09:14:14 Zelichant - Awaken From Reality (2015)


*Artist: Zelichant
*Album: Awaken From Reality
*Year: 2015
*Genre: Melodic Death Metal
*Country: Mexico
*Format: mp3@CBR192kbps
*Size: 57MB

Tracklist:
1. Dreaming 01:47 (instrumental)
2. Awaken from Reality 03:46
3. Perversion 05:06
4. Frozen 03:44
5. Screaming from the Inner Self 04:25
6. Third Chance 04:59
7. Gnosis 03:36
8. Trance 04:36
9. Enemy of Myself 04:52
10. Fly Together 04:54
******************************
Total playing time: 41:45




[more=Technical info]
Input File: 02. Awaken from Reality.mp3
Channels : 2
Sample Rate : 44100
Precision : 16-bit
Duration : 00:03:46.63 = 9994515 samples = 16997.5 CDDA sectors
File Size : 5.44M
Bit Rate : 192k
Sample Encoding: MPEG audio (layer I, II or III)
Comments :
Artist=Zelichant
Album=Awaken from Reality
Year=2015
Genre=9

[/more]

Register
(6) BugEyes, chipsgott, infiltrator, Olethros, sergsazan, VALERY,
Apr 3 2020, 09:04:46 Sandglass - Искупление [ep] (2013)


*Artist: Sandglass
*Album: Искупление [ep]
*Year: 2013
*Genre: Groove Metal/Hardcore
*Country: Belarus
*Format: mp3@CBR256kbps
*Size: 24MB

Tracklist:
1. Гнев
2. Искупление
3. Ломай клетки
******************************
Total playing time: 13:17




[more=Technical info]
Input File: 02. Искупление.mp3
Channels : 2
Sample Rate : 44100
Precision : 16-bit
Duration : 00:05:24.26 = 14299910 samples = 24319.6 CDDA sectors
File Size : 10.4M
Bit Rate : 256k
Sample Encoding: MPEG audio (layer I, II or III)
Comments :
Title=Искупление
Artist=Sandglass
Album=Искупление
Tracknumber=2
Year=2013
Genre=9

[/more]

Register
(2) infiltrator, Olethros,
Apr 3 2020, 08:58:04 Sextuple Venesection - Initial Worship [ep] (2014)


*Artist: Sextuple Venesection
*Album: Initial Worship [ep]
*Year: 2014
*Genre: Melodic Death Metal
*Country: Russian Federation
*Format: mp3@CBR320kbps
*Size: 61MB

Tracklist:
1. Intro (SOS Theme) 00:44
2. Slave of Satan 05:36
3. Addicted to Your Mother's Anus 03:46
4. Fappy Bird 03:00
5. Slave of Satan (Instrumental) 05:36
6. Addicted to Your Mother's Anus (Instrumental) 03:46
7. Fappy Bird (Instrumental) 03:00
******************************
Total playing time: 25:28




[more=Technical info]
Input File: 02. Slave Of Satan.mp3
Channels : 2
Sample Rate : 48000
Precision : 16-bit
Duration : 00:05:36.51 = 16152336 samples ~ 25238 CDDA sectors
File Size : 13.8M
Bit Rate : 329k
Sample Encoding: MPEG audio (layer I, II or III)
Comments :
Title=Slave Of Satan
Artist=Sextuple Venesection
Album=Initial Worship
Tracknumber=2
Year=2014
Genre=9

[/more]

Register
(2) infiltrator, Olethros,
Apr 3 2020, 08:50:00 Serpentheir - Undertones Of Yore [ep] (2017)


*Artist: Serpentheir
*Album: Undertones Of Yore [ep]
*Year: 2017
*Genre: Melodic Death Metal
*Country: United Kingdom
*Format: mp3@CBR320kbps
*Size: 37MB

Tracklist:
1. Embased... Bold! 02:17
2. Sun and Other Daymares 04:37
3. Polarity of the Man 05:02
4. Undertone of Yore 04:07
******************************
Total playing time: 16:03




[more=Technical info]
Input File: 02. Sun and Other Daymares.mp3
Channels : 2
Sample Rate : 44100
Precision : 16-bit
Duration : 00:04:37.72 = 12247584 samples = 20829.2 CDDA sectors
File Size : 11.2M
Bit Rate : 324k
Sample Encoding: MPEG audio (layer I, II or III)
Comments :
Title=Sun and Other Daymares
Artist=Serpentheir
Album=Undertones of Yore
Tracknumber=2
Year=2017
Genre=Metal

[/more]

Register
(7) BugEyes, chipsgott, infiltrator, Olethros, sergsazan, VALERY, zhol,
Apr 3 2020, 08:41:22 Notas De Sangre - Predicando El Terror [ep] (2014)


*Artist: Notas De Sangre
*Album: Predicando El Terror [ep]
*Year: 2014
*Genre: Thrash/Death Metal/Metalcore
*Country: Argentina
*Format: mp3@CBR128kbps
*Size: 22MB

Tracklist:
1. Renacer 02:17
2. Santos Godino 03:40
3. Sin Retorno 03:20
4. Sometido 04:58
5. Memoria 02:06
6. Deseos Oscuros 03:32
7. Charco de Sangre 04:10
******************************
Total playing time: 24:03




[more=Technical info]
Input File: 02 Santos Godino.mp3
Channels : 2
Sample Rate : 44100
Precision : 16-bit
Duration : 00:03:43.04 = 9836108 samples = 16728.1 CDDA sectors
File Size : 3.57M
Bit Rate : 128k
Sample Encoding: MPEG audio (layer I, II or III)
Comments :
Title=Santos Godino
Artist=Notas De Sangre
Album=Predicando El Terror
Year=2014
Genre=9

[/more]

Register
(3) infiltrator, Niknne, Olethros,
Apr 3 2020, 08:36:35 Iron Krill - Prognosis (2013)


*Artist: Iron Krill
*Album: Prognosis
*Year: 2013
*Genre: Melodic Metalcore
*Country: United States
*Format: mp3@CBR320kbps
*Size: 94MB

Tracklist:
1. Reach Out 04:50
2. Chasing Paradise 04:05
3. Letting Go 04:24
4. For Eternity 03:48
5. Anything and Anyone 03:54
6. The Life You Left 04:11
7. ALACATAAD 02:36
8. Ode to Billy 05:09
9. Incorruptible 03:04
10. The Last Voice 04:32
******************************
Total playing time: 40:33




[more=Technical info]
Input File: 02. Chasing Paradise.mp3
Channels : 2
Sample Rate : 44100
Precision : 16-bit
Duration : 00:04:05.90 = 10844366 samples = 18442.8 CDDA sectors
File Size : 9.92M
Bit Rate : 323k
Sample Encoding: MPEG audio (layer I, II or III)
Comments :
Title=Chasing Paradise
Artist=Iron Krill
Album=Prognosis
Tracknumber=2
Year=2013
Genre=9

[/more]

Register
(2) infiltrator, zhol,
Apr 3 2020, 08:34:15 Iron Krill - Treatment (2019)


*Artist: Iron Krill
*Album: Treatment
*Year: 2019
*Genre: Symphonic/Progressive/Melodic Metalcore
*Country: United States
*Format: mp3@CBR320kbps
*Size: 134MB

Tracklist:
1. More Than Apathy 05:28
2. Through Your Eyes (ft. Daniela Rojas) 05:39
3. Smoking in a Smart Car 02:53
4. The Leap (ft. Anton Sobolkov) 03:52
5. Worth the Wait 04:48
6. End the Lie 03:34
7. Dead Pledge 04:16
8. Answers and Anguish (ft. Nomi) 04:01
9. When People Care 04:40
10. We Could 03:19
11. Los Subterráneos (ft. Matias Rosembach de Guacho Culëbra) 04:34
12. Us 02:30
13. Stay Hungry 08:24
******************************
Total playing time: 57:58




[more=Technical info]
Input File: 02. Through Your Eyes (ft. Daniela Rojas).mp3
Channels : 2
Sample Rate : 44100
Precision : 16-bit
Duration : 00:05:39.64 = 14977948 samples = 25472.7 CDDA sectors
File Size : 13.7M
Bit Rate : 323k
Sample Encoding: MPEG audio (layer I, II or III)
Comments :
Title=Through Your Eyes (ft. Daniela Rojas)
Artist=Iron Krill
Album=Treatment
Tracknumber=2
Year=2019
Genre=9

[/more]

Register
(3) infiltrator, Olethros, Сварог Барг,
Apr 1 2020, 14:35:09 Year Zero - Year Zero [ep] (2015)


*Artist: Year Zero
*Album: Year Zero [ep]
*Year: 2015
*Genre: Melodic Death Metal
*Country: United States
*Format: mp3@VBR279kbps
*Size: 39MB

Tracklist:
1. Intro 02:41
2. Keeping the Flame 05:29
3. Unwind 05:17
4. Beneath the Dark Sun 05:44
******************************
Total playing time: 19:11



[more=Technical info]
Input File: 02 Keeping the Flame.mp3
Channels : 2
Sample Rate : 44100
Precision : 16-bit
Duration : 00:05:29.98 = 14552030 samples = 24748.4 CDDA sectors
File Size : 11.6M
Bit Rate : 281k
Sample Encoding: MPEG audio (layer I, II or III)
Comments :
Title=Keeping the Flame
Artist=Year Zero
Album=Year Zero
Tracknumber=2
Year=2015
Genre=9

[/more]

Register
(8) BugEyes, chipsgott, infiltrator, oldvarg, Olethros, sergsazan, wanderer73, zhol,
Apr 1 2020, 13:26:27 Cold Hard Truth - Intimidation (2020)


*Artist: Cold Hard Truth
*Album: Intimidation
*Year: 2020
*Genre: Brutal Death Metal/Deathcore
*Country: United Kingdom
*Format: mp3@CBR320kbps
*Size: 74MB

Tracklist:
1. Gamechanger 01:48
2. Intimidation 02:35
3. Silver or Lead (feat. Tito Fury) 03:34
4. Line of Fire 02:56
5. Murder Capital (feat. Andrew Revulsion) 02:51
6. Heartcheck 03:11
7. Ballad of Lost Souls 01:03
8. Silence and Gunsmoke (feat. Joey SKC) 03:01
9. I Know Where You Live 03:33
10. Boston Knife Attack 03:04
11. Fenside Limepit 03:26
******************************
Total playing time: 31:02




[more=Technical info]
Input File: 02 Intimidation.mp3
Channels : 2
Sample Rate : 44100
Precision : 16-bit
Duration : 00:02:35.62 = 6862974 samples = 11671.7 CDDA sectors
File Size : 6.47M
Bit Rate : 333k
Sample Encoding: MPEG audio (layer I, II or III)
Comments :
Title=Intimidation
Artist=Cold Hard Truth
Album=Intimidation
Tracknumber=2/11
Year=2020
Genre=9
Discnumber=1/1

[/more]

Register
(6) atavist, GorAtheist, infiltrator, maochen, Olethros, popen13,
Apr 1 2020, 13:21:46 Appalling Testimony - Feed To Survive [ep] (2019)


*Artist: Appalling Testimony
*Album: Feed To Survive [ep]
*Year: 2019
*Genre: Brutal Death Metal
*Country: Ukraine
*Format: mp3@CBR320kbps
*Size: 30MB

Tracklist:
1. Intro 00:40 (instrumental)
2. Overthrow to Decapitate 04:20
3. Embalmed in the Name of Science 03:34
4. Sequestered and Rotten Alive 02:54
5. Outro 01:15 (instrumental)
******************************
Total playing time: 12:43




[more=Technical info]
Input File: 02. Overthrow To Decapitate.mp3
Channels : 2
Sample Rate : 44100
Precision : 16-bit
Duration : 00:04:25.30 = 11699598 samples = 19897.3 CDDA sectors
File Size : 10.6M
Bit Rate : 320k
Sample Encoding: MPEG audio (layer I, II or III)
Comments :
Title=Overthrow To Decapitate
Artist=Appalling Testimony
Album=Feed to Survive
Tracknumber=02
Year=2019
Genre=9

[/more]

Register
(4) infiltrator, LUCASDEATH, maochen, Olethros,
Apr 1 2020, 13:16:58 Adipocere Necrophilia - First Ep - One [ep] (2020)


*Artist: Adipocere Necrophilia
*Album: First Ep - One [ep]
*Year: 2020
*Genre: Brutal Death Metal
*Country: Japan
*Format: mp3@CBR128kbps
*Size: 18MB

Tracklist:
1. King Kong 02:12
2. Married Wee-wee 02:08
3. Three B Killer 03:05
4. 60, Driving, Burst!!!! 02:24
5. Side Business? 03:16
6. Vomit Shop 02:15
7. Zero 02:14
******************************
Total playing time: 17:34




[more=Technical info]
Input File: 02 Married wee-wee.mp3
Channels : 2
Sample Rate : 44100
Precision : 16-bit
Duration : 00:02:08.41 = 5662925 samples = 9630.82 CDDA sectors
File Size : 2.31M
Bit Rate : 144k
Sample Encoding: MPEG audio (layer I, II or III)
Comments :
Title=Married wee-wee
Artist=Adipocere Necrophilia
Album=One
Tracknumber=2
Year=2020
Genre=9

[/more]

Register
(3) GorAtheist, infiltrator, Olethros,
Apr 1 2020, 09:45:49 Wrath Upon Eden - The Wake Of Tragedy (2020)


*Artist: Wrath Upon Eden
*Album: The Wake Of Tragedy
*Year: 2020
*Genre: Melodic Metalcore
*Country: United States
*Format: mp3@CBR320kbps
*Size: 108MB

Tracklist:
1. ...and all will come to darkness 01:29
2. Statues 03:45
3. Hero (feat. Chris Clancy) 04:32
4. The Wake Of Tragedy 05:04
5. Through The Years 05:35
6. In Memory 05:58
7. Harboring Sorrow 01:23
8. Cast Away 03:07
9. Hymns Of Infinity 04:27
10. Counterfeit (feat. Jasun Tipton) 04:22
11. Recovery 03:47
12. Of Light, I Have Become 03:20
******************************
Total playing time: 46:49




[more=Technical info]
Input File: 02 - Statues.mp3
Channels : 2
Sample Rate : 44100
Precision : 16-bit
Duration : 00:03:45.14 = 9928454 samples = 16885.1 CDDA sectors
File Size : 9.08M
Bit Rate : 323k
Sample Encoding: MPEG audio (layer I, II or III)
Comments :
Title=Statues
Artist=Wrath Upon Eden
Album=The Wake Of Tragedy
Tracknumber=2
Year=2020
Genre=Metal
Discnumber=1

[/more]

Register
(5) chipsgott, DenisKov, infiltrator, Olethros, zhol,
Apr 1 2020, 09:39:04 Zuldar - Zabalandi (2003)


*Artist: Zuldar
*Album: Zabalandi
*Year: 2003
*Genre: Melodic Death Metal
*Country: Spain
*Format: mp3@CBR320kbps
*Size: 82MB

Tracklist:
1. Intro
2. Hasieratik
3. Zabalandi
4. Berria
5. Joño
6. Hiltzailea
7. Etsaiak
8. Zein
9. Harritxoa berotzen
******************************
Total playing time: 35:47




[more=Technical info]
Input File: 02. Hasieratik.mp3
Channels : 2
Sample Rate : 48000
Precision : 16-bit
Duration : 00:04:57.99 = 14303376 samples ~ 22349 CDDA sectors
File Size : 11.9M
Bit Rate : 320k
Sample Encoding: MPEG audio (layer I, II or III)
Comments :
Title=Hasieratik
Artist=Zuldar
Album=Zabalandi
Tracknumber=2
Year=2003
Genre=(9)

[/more]

Register
(3) infiltrator, Olethros, zhol,
Apr 1 2020, 09:31:25 Stercore - Indifference (2019)


*Artist: Stercore
*Album: Indifference
*Year: 2019
*Genre: Death Metal/Groovy Deathcore
*Country: Slovakia
*Format: mp3@CBR320kbps
*Size: 69MB

Tracklist:
1. Indifference
2. Dreams
3. Delirium
4. Humanity
5. Desperate
6. Brother
7. Empyreum
8. Parallax
9. Marionette
10. Thorns
******************************
Total playing time: 28:59


Bandzone


[more=Technical info]
Input File: 03. Delirium.mp3
Channels : 2
Sample Rate : 44100
Precision : 16-bit
Duration : 00:03:05.80 = 8193604 samples = 13934.7 CDDA sectors
File Size : 7.76M
Bit Rate : 334k
Sample Encoding: MPEG audio (layer I, II or III)
Comments :
Title=Delirium
Artist=Stercore
Album=Indifference
Tracknumber=03
Year=2019
Genre=9
Discnumber=1

[/more]

Register
(4) atavist, infiltrator, jollo, Olethros,
Apr 1 2020, 09:23:30 Nefasto - Humo Y Muerte [demo] (2018)


*Artist: Nefasto
*Album: Humo Y Muerte [demo]
*Year: 2018
*Genre: Death/Doom/Sludge Metal
*Country: Peru
*Format: mp3@CBR128kbps
*Size: 33MB

Tracklist:
1. Funebrarum Fumarentum 10:20
2. Ritual Nefasto 13:13
3. Smoke of Death 06:21
4. Critical Madness (Autopsy cover) 05:35
******************************
Total playing time: 35:29




[more=Technical info]
Input File: 2.- Ritual Nefasto.mp3
Channels : 2
Sample Rate : 44100
Precision : 16-bit
Duration : 00:13:13.75 = 35004463 samples = 59531.4 CDDA sectors
File Size : 12.7M
Bit Rate : 128k
Sample Encoding: MPEG audio (layer I, II or III)
Comments :
Artist=Nefasto
Album=Humo y Muerte
Year=2018
Genre=9

[/more]

Register
(3) infiltrator, marilin, Olethros,
Apr 1 2020, 06:16:54 Decrepit Depravity - ...And Then It Became Murder [single] (2020)


*Artist: Decrepit Depravity
*Album: ...And Then It Became Murder [single]
*Year: 2020
*Genre: Slamming Brutal Death Metal
*Country: Sweden
*Format: mp3@CBR320kbps
*Size: 15MB

Tracklist:
1. ...and Then It Became Murder 02:10
2. We Bite 01:13
3. Post-Mortal Genital Penetration 03:14
******************************
Total playing time: 6:37




[more=Technical info]
Input File: 03 Post-mortal genital penetration (bonus).mp3
Channels : 2
Sample Rate : 44100
Precision : 16-bit
Duration : 00:03:14.70 = 8586446 samples = 14602.8 CDDA sectors
File Size : 7.86M
Bit Rate : 323k
Sample Encoding: MPEG audio (layer I, II or III)
Comments :
Title=Post-Mortal Genital Penetration (Bonus)
Artist=Decrepit Depravity
Album=...and Then It Became Murder
Tracknumber=3
Year=2020
Genre=9

[/more]

Register
(3) infiltrator, maochen, Olethros,
Apr 1 2020, 06:10:37 Ripping Flesh - Conqueror Of Cosmos [ep] (2020)


*Artist: Ripping Flesh
*Album: Conqueror Of Cosmos [ep]
*Year: 2020
*Genre: Technical Brutal Death Metal
*Country: Colombia
*Format: mp3@CBR320kbps
*Size: 45MB

Tracklist:
1. Intro - The Embrace of Darkness 01:45
2. Conqueror of Cosmos 02:53
3. Leviathan Rises 03:33
4. Abolishing Mortality 03:32
5. Apocalyptic Vortex (feat. David Jacome) 03:31
6. Abolishing Mortality (feat. Diego Guerrero) 03:32
******************************
Total playing time: 18:46




[more=Technical info]
Input File: 2. Conqueror Of Cosmos.mp3
Channels : 2
Sample Rate : 44100
Precision : 16-bit
Duration : 00:02:53.83 = 7665947 samples = 13037.3 CDDA sectors
File Size : 7.21M
Bit Rate : 332k
Sample Encoding: MPEG audio (layer I, II or III)
Comments :
Title=Conqueror Of Cosmos
Artist=Ripping Flesh
Album=Conqueror Of Cosmos
Tracknumber=2
Year=2020
Genre=9

[/more]

Register
(3) chipsgott, infiltrator, Olethros,

243 Pages V   1 2 3 > » 
- Lo-Fi Version Support form
Copyrights and abuse reports form
Time is now: 5th April 2020 - 14:45:45