Welcome Guest ( Log In | Register )

История благодарностей участнику Gelukas ::: Спасибо сказали: 46303 раз(а)
Дата поста: В теме: За сообщение: Спасибо сказали:
Sep 17 2021, 09:22:13 Absurd Conflict - Point Of Crisis (2007)
Re-up:
Register


ЦИТАТА(helldawn @ Sep 2 2021, 23:21:07) *
reup please smile3.gif

(1) Wail,
Sep 17 2021, 09:21:16 Absurd Conflict - 10 Years Of Depression And Beers [compilation] (2009)
Re-up:
Register


ЦИТАТА(helldawn @ Sep 2 2021, 23:20:33) *
reup please smile3.gif

(1) Wail,
Aug 27 2021, 08:03:55 Xskull8 - From Sin To Sinners (2021)


*Artist: Xskull8
*Album: From Sin To Sinners
*Year: 2021
*Genre: Alternative Metal
*Country: Slovenia
*Format: mp3@CBR320kbps
*Size: 87MB

Tracklist:
1. Your Final Act
2. Same Fools
3. Light It Up
4. Wet Bed
5. A Minute 4 Tomorrow
6. Leaves Are Falling
7. Little Miss Perfect
8. Engine Of Doom
9. Queen Of The Night
10. My Worst Enemy
******************************
Total playing time: 38:12



[more=Technical info]
Input File: 04 - Light It Up.mp3
Channels : 2
Sample Rate : 44100
Precision : 16-bit
Duration : 00:03:04.22 = 8123882 samples = 13816.1 CDDA sectors
File Size : 7.36M
Bit Rate : 320k
Sample Encoding: MPEG audio (layer I, II or III)
Comments :
Title=Light It Up
Artist=Xskull8
Album=From Sin to Sinners
Tracknumber=4
Year=2021
Genre=Alternative Metal

[/more]

Register
(3) Cartman223, gwar, Olethros,
Aug 27 2021, 07:33:04 Shadow Of Corvus - Separation (2021)


*Artist: Shadow Of Corvus
*Album: Separation
*Year: 2021
*Genre: Melodic Death Metal
*Country: United States
*Format: mp3@CBR320kbps
*Size: 94MB

Tracklist:
1. The Flood of Pestilence 02:23
2. Phantoms of the Mire 04:11
3. The Legend: Mvt I - Arise 03:27
4. Virtues 03:32
5. Night 03:42
6. Separation 06:22
7. The Legend: Mvt II - Forest of the Fallen 05:17
8. Ovanför 03:37
9. Path of Red 04:24
10. The Legend: Mvt III - Blood of Our Sunset 03:27
******************************
Total playing time: 40:22




[more=Technical info]
Input File: 02. Phantoms of the Mire.mp3
Channels : 2
Sample Rate : 44100
Precision : 16-bit
Duration : 00:00:00.25 = 11069 samples = 18.8248 CDDA sectors
File Size : 10.2M
Bit Rate : 324M
Sample Encoding: MPEG audio (layer I, II or III)
Comments :
Title=Phantoms of the Mire
Artist=Shadow of Corvus
Album=Separation
Tracknumber=2
Year=2021
Genre=9
Discnumber=1

[/more]

Register
(12) BugEyes, caro, chipsgott, infozahist, Mogozoz, Olethros, sergsazan, stumpheavyrock, supremo, VALERY, wreak, zhol,
Aug 10 2021, 07:36:08 Entardecer - Days Not Lived In A Letter [ep] (2020)


*Artist: Entardecer
*Album: Days Not Lived In A Letter [ep]
*Year: 2020
*Genre: Atmospheric Black Metal
*Country: Brazil
*Format: mp3@CBR320kbps
*Size: 52MB

Tracklist:
1. I Hope Start Over 05:00 instrumental
2. If the Sky Was Cloudy 07:41 instrumental
3. Too Late to Regrets 04:18 instrumental
4. Happy Times 05:37
******************************
Total playing time: 22:36




[more=Technical info]
Input File: 02 If the Sky Was Cloudy.mp3
Channels : 2
Sample Rate : 44100
Precision : 16-bit
Duration : 00:07:41.90 = 20369614 samples = 34642.2 CDDA sectors
File Size : 18.5M
Bit Rate : 321k
Sample Encoding: MPEG audio (layer I, II or III)
Comments :
Title=If the Sky Was Cloudy
Artist=Entardecer
Album=Days Not Lived in a Letter
Tracknumber=2
Year=2020
Genre=9

[/more]

Register
(10) caro, kim666, Mencae77, Olethros, sergsazan, SilentNidhogg, supremo, Taakeferd, VALERY, varlam4,
Aug 10 2021, 07:30:30 Death Chaos - Prologue In Death & Chaos [ep] (2016)


*Artist: Death Chaos
*Album: Prologue In Death & Chaos [ep]
*Year: 2016
*Genre: Old School Death Metal
*Country: Brazil
*Format: mp3@CBR320kbps
*Size: 71MB

Tracklist:
1. You Die I Smile 06:12
2. Death Division 06:39
3. House of Madness 05:50
4. Erased Sky 06:23
5. You Are Not You 05:38
******************************
Total playing time: 30:42




[more=Technical info]
Input File: 2 - Death Division.mp3
Channels : 2
Sample Rate : 44100
Precision : 16-bit
Duration : 00:06:38.21 = 17560885 samples = 29865.5 CDDA sectors
File Size : 16.1M
Bit Rate : 324k
Sample Encoding: MPEG audio (layer I, II or III)
Comments :
Title=Death Division
Artist=Death Chaos
Album=Prologue in Death & Chaos
Tracknumber=2
Year=2016
Genre=Metal
Discnumber=1

[/more]

Register
(15) andreikun, caro, denver, Hell_Is_Here, Marek, METALHUNTER, Olethros, sergsazan, stumpheavyrock, Taakeferd, Tino, VALERY, varlam4, vyacheslav, Xtohar,
Aug 10 2021, 07:17:46 Dark Paramount - Adhuc Perversa (2020)


*Artist: Dark Paramount
*Album: Adhuc Perversa
*Year: 2020
*Genre: Black Metal
*Country: Brazil
*Format: mp3@CBR128kbps
*Size: 29MB

Tracklist:
1. Fillis Daemonium Pestilentiae 02:33
2. Oh! Sir Remphan, Dark Paramount 06:34
3. Wolferian Metempsychosis 06:40
4. Gehenna 06:16
5. Noite de Sabá 04:54
6. Black Phallus 04:48
******************************
Total playing time: 31:45




[more=Technical info]
Input File: 03 Wolferian Metempsychosis.mp3
Channels : 2
Sample Rate : 44100
Precision : 16-bit
Duration : 00:06:40.57 = 17665225 samples = 30042.9 CDDA sectors
File Size : 6.41M
Bit Rate : 128k
Sample Encoding: MPEG audio (layer I, II or III)
Comments :
Artist=Dark Paramount
Album=Adhuc Perversa
Year=2020
Genre=9

[/more]

Register
(4) kim666, Olethros, thenecromancer, Wail,
Aug 6 2021, 12:33:03 Neurotic Machinery - Cognitive Dissonance (2017)


*Artist: Neurotic Machinery
*Album: Cognitive Dissonance
*Year: 2017
*Genre: Progressive Death Metal
*Country: Czech Republic
*Format: mp3@CBR320kbps
*Size: 84MB

Tracklist:
1. Cage 04:09
2. Depraved 03:24
3. Where the End Begins 03:52
4. Traitor 04:29
5. Echoes 03:05
6. Distance 03:12
7. Ire 04:18
8. Solace 03:47
9. Noise 04:15
******************************
Total playing time: 34:31




[more=Technical info]
Input File: 02 Depraved.mp3
Channels : 2
Sample Rate : 44100
Precision : 16-bit
Duration : 00:03:25.54 = 9064402 samples = 15415.6 CDDA sectors
File Size : 8.35M
Bit Rate : 325k
Sample Encoding: MPEG audio (layer I, II or III)
Comments :
Title=Depraved
Artist=Neurotic Machinery
Album=Cognitive Dissonance
Tracknumber=2
Year=2017
Genre=Metal
Discnumber=1

[/more]

Register
(15) caro, chipsgott, Hell_Is_Here, kimkayoung, Marek, METALHUNTER, MMMMM, Olethros, samokot, supremo, Taakeferd, VALERY, vyacheslav, wreak, yuratroll,
Aug 6 2021, 12:28:59 Neurotic Machinery - Causality Principle (2015)


*Artist: Neurotic Machinery
*Album: Causality Principle
*Year: 2015
*Genre: Progressive Death Metal
*Country: Czech Republic
*Format: mp3@CBR320kbps
*Size: 84MB

Tracklist:
1. Equillibrium 4.2 03:48
2. Man Who Wasn't There 04:52
3. Infinity 04:52
4. Adrift 04:32
5. The Apallic Syndrome 04:30
6. Prozaic Night 01:18
7. Descend 04:19
8. All of Us 04:31
9. Schizoid Witness 04:03
******************************
Total playing time: 36:45




[more=Technical info]
Input File: 03 Infinity.mp3
Channels : 2
Sample Rate : 44100
Precision : 16-bit
Duration : 00:04:52.92 = 12917728 samples = 21968.9 CDDA sectors
File Size : 11.7M
Bit Rate : 320k
Sample Encoding: MPEG audio (layer I, II or III)
Comments :
Title=Infinity
Artist=Neurotic Machinery
Album=Causality Principle
Tracknumber=3/9
Year=2015
Genre=22

[/more]

Register
(14) caro, chipsgott, Hell_Is_Here, kimkayoung, Marek, metala, METALHUNTER, Olethros, supremo, Taakeferd, VALERY, vyacheslav, wreak, yuratroll,
Aug 6 2021, 12:15:11 Elysium - Labyrinth Of Fallen Angels (2019)


*Artist: Elysium
*Album: Labyrinth Of Fallen Angels
*Year: 2019
*Genre: Symphonic Gothic/Folk Metal
*Country: Italy
*Format: mp3@CBR320kbps
*Size: 100MB

Tracklist:
1. Black Hole
2. Evanescent
3. Before the End
4. Turn Around
5. Fight for All Your Love
6. Close to You
7. Siren
8. Higher State of Consciousness
9. Nobody Knows
10. Here I Am
******************************
Total playing time: 43:49




[more=Technical info]
Input File: 02 - Evanescent.mp3
Channels : 2
Sample Rate : 44100
Precision : 16-bit
Duration : 00:03:37.12 = 9574904 samples = 16283.9 CDDA sectors
File Size : 8.72M
Bit Rate : 321k
Sample Encoding: MPEG audio (layer I, II or III)
Comments :
Title=Evanescent
Artist=Elysium
Album=Labyrinth of Fallen Angels
Tracknumber=2
Year=2019
Genre=Symphonic / Folk / Gothic Rock (Female Vox)
Discnumber=1

[/more]

Register
(18) ace73pq, Alpha_Prime, Bregon, caro, Cartman223, chipsgott, gwar, gwynnbleid, kimkayoung, Mogozoz, oldvarg, Olethros, sergsazan, supremo, Taakeferd, VALERY, wreak, zhol,
Aug 4 2021, 13:49:55 Moral Insanity - Hatred (2000)


*Artist: Moral Insanity
*Album: Hatred
*Year: 2000
*Genre: Melodic Death Metal
*Country: Czech Republic
*Format: mp3@CBR320kbps
*Size: 116MB

Tracklist:
1. Intro 01:43 (instrumental)
2. Hatred 04:22
3. Re-Inkarnation 04:31
4. Fallen Angel 04:42
5. Flight to the Light 06:39
6. I'm Immortal 07:46
7. The Animals 03:38
8. Why Me? (Paranoia) 02:52
9. Secret of Life 04:41
10. Slave of Dreams 05:33
11. The Voice of Conscious 04:22
******************************
Total playing time: 50:49


Bandzone

[more=Technical info]
Input File: 02 Hatred.mp3
Channels : 2
Sample Rate : 44100
Precision : 16-bit
Duration : 00:04:22.35 = 11569503 samples = 19676 CDDA sectors
File Size : 10.5M
Bit Rate : 320k
Sample Encoding: MPEG audio (layer I, II or III)
Comments :
Artist=Moral Insanity
Album=Hatred
Tracknumber=2
Year=2000
Genre=9

[/more]

Register
(13) caro, fr47, METALHUNTER, Mogozoz, Olethros, sergsazan, stumpheavyrock, Svafrlami, Taakeferd, VALERY, wanderer73, wreak, zhol,
Aug 4 2021, 08:58:49 Necrocock - Bipolární Noci (2021)


*Artist: Necrocock
*Album: Bipolární Noci
*Year: 2021
*Genre: Experimental/Post-Metal/Post-Rock
*Country: Czech Republic
*Format: mp3@CBR224kbps
*Size: 75MB

Tracklist:
1. Za starou saunou
2. Bipolární noci
3. Mimika
4. Zabil jsem posvátnýho hulmana
5. Cassiopeia
6. Vakace
7. Hádej, kde jsme včera byli
8. Jídelní hudba pro princeznu Karolínku
9. Únos
10. Když se dívky bojí
11. Jack staví dům
12. Saigon lady
******************************
Total playing time: 46:19


Bandzone

[more=Technical info]
Input File: 02 Bipolární noci.mp3
Channels : 2
Sample Rate : 44100
Precision : 16-bit
Duration : 00:03:58.69 = 10526405 samples = 17902 CDDA sectors
File Size : 6.73M
Bit Rate : 225k
Sample Encoding: MPEG audio (layer I, II or III)
Comments :
Title=bipolarni noci
Artist=Necrocock
Album=Bipol?rn? noci
Tracknumber=2
Year=2021
Genre=12

[/more]

Register
(9) aleon, Buregon, cancer1974, Chasm, mirotvorets, Mist13Signifier, obituarydark, UlvhedinGrom, Wail,
Jun 30 2021, 12:45:00 Within Temptation - Shed My Skin [ep] (2021)


*Artist: Within Temptation
*Album: Shed My Skin [ep]
*Year: 2021
*Genre: Symphonic/Alternative Metal
*Country: Netherlands
*Format: mp3@CBR320kbps
*Size: 57MB

Tracklist:
1. Shed My Skin 04:30
2. The Purge 04:16
3. Entertain You 03:31
4. Shed My Skin 04:30 instrumental
5. The Purge 04:21 instrumental
6. Entertain You 03:31 instrumental
******************************
Total playing time: 24:39




[more=Technical info]
Input File: 01 - Shed My Skin.mp3
Channels : 2
Sample Rate : 44100
Precision : 16-bit
Duration : 00:04:30.00 = 11907000 samples = 20250 CDDA sectors
File Size : 10.9M
Bit Rate : 324k
Sample Encoding: MPEG audio (layer I, II or III)
Comments :
Title=Shed My Skin
Artist=Within Temptation/Annisokay
Album=Shed My Skin
Tracknumber=1
Year=2021-25-06
Genre=9
Discnumber=1

[/more]

Register
(25) after21allD, Aresson, boby9052, djsema4, GorAtheist, gwar, gwynnbleid, Hell_Is_Here, HMHamster, Kasper969, kimkayoung, Lanceatum, Metalass, Olethros, Reverend, Rover, sergsazan, Shadechaser, talismanFS, terron, thenecromancer, varlam4, wreak, yuratroll, Сварог Барг,
Jun 11 2021, 06:58:06 Blood Prophecy - In Your Chaos (2021)


*Artist: Blood Prophecy
*Album: In Your Chaos
*Year: 2021
*Genre: Melodic Death Metal
*Country: Japan
*Format: mp3@CBR320kbps
*Size: 77MB

Tracklist:
1. In Your Chaos 01:23 (instrumental)
2. The World on the Fire 03:56
3. I Feel Regret 04:54
4. Selfishness 05:11
5. Enthrone of Tyrant 04:03
6. Phobia 05:16
7. Deep Darkness of Spirit 06:02
8. Gone with the Wind 02:25 (instrumental)
******************************
Total playing time: 33:10




[more=Technical info]
Input File: Blood Prphecy - In Your Chaos - 02 The World On The Fire.mp3
Channels : 2
Sample Rate : 44100
Precision : 16-bit
Duration : 00:03:56.08 = 10411172 samples = 17706.1 CDDA sectors
File Size : 9.53M
Bit Rate : 323k
Sample Encoding: MPEG audio (layer I, II or III)
Comments :
Title=The World On The Fire
Artist=Blood Prphecy
Album=In Your Chaos
Tracknumber=2
Year=2021
Genre=9

[/more]

Register
(19) chipsgott, gwynnbleid, HMHamster, infiltrator, Lukittaz, metalwoman, Mogozoz, Olethros, sergsazan, Taakeferd, talismanFS, VALERY, varlam4, Wail, wanderer73, wn129aa, wreak, zhol, Сварог Барг,
Apr 12 2021, 14:51:06 Dengel & Frozen Cross & Lunar Eclipse & Armour - Valkyrie's Prediction [split] (2007)
Re-up:

Register


Enjoy!
(1) Veggr,
Apr 8 2021, 14:41:05 The Wood's Silence - The Lost Romantics [demo] (2000)
Yes, I did. bye.gif

ЦИТАТА(thenecromancer @ Mar 28 2021, 22:05:22) *
Found? ...or not yet?? hmm.gif

(2) infiltrator, thenecromancer,
Apr 1 2021, 09:14:00 Shadow Zeus - Shadow Zeus (2007)


*Artist: Shadow Zeus
*Album: Shadow Zeus
*Year: 2007
*Genre: Melodic Death Metal/Metalcore
*Country: Japan
*Format: mp3@CBR320kbps
*Size: 94MB

Tracklist:
1. 死叫 04:17
2. 永遠 04:02
3. 覚醒 04:31
4. 幻想 05:40
5. 新生 04:34
6. 希望 03:24
7. 破壊 05:11
8. 虚無 03:40
9. 惨劇 04:31
10. 終幕 01:17
******************************
Total playing time: 41:07



[more=Technical info]
Input File: 02. 永遠.mp3
Channels : 2
Sample Rate : 44100
Precision : 16-bit
Duration : 00:04:02.27 = 10683931 samples = 18170 CDDA sectors
File Size : 9.69M
Bit Rate : 320k
Sample Encoding: MPEG audio (layer I, II or III)
Comments :
Artist=Shadow Zeus
Album=Shadow Zeus
Tracknumber=2
Year=2007
Genre=9

[/more]

Register
(4) infiltrator, Olethros, Svafrlami, zhol,
Apr 1 2021, 08:54:40 Wirbelwind - Time To Realize [ep] (2021)


*Artist: Wirbelwind
*Album: Time To Realize [ep]
*Year: 2021
*Genre: Melodic Death Metal
*Country: Japan
*Format: mp3@CBR320kbps
*Size: 50MB

Tracklist:
1. Time to Realize
2. Break the Wall
3. Lament
4. Arctic Tempest
5. One Day Forever
******************************
Total playing time: 21:40




[more=Technical info]
Input File: 02 - Break the Wall.mp3
Channels : 2
Sample Rate : 44100
Precision : 16-bit
Duration : 00:03:37.11 = 9574551 samples = 16283.2 CDDA sectors
File Size : 8.69M
Bit Rate : 320k
Sample Encoding: MPEG audio (layer I, II or III)
Comments :
Artist=Wirbelwind
Album=Time to Realize
Tracknumber=2
Year=2021
Genre=9

[/more]

Register
(17) AHBAnep, BugEyes, chipsgott, djsema4, gwynnbleid, infiltrator, lldma, LokoMadriz, Lukittaz, Luminous, Mogozoz, oldvarg, Olethros, Taakeferd, VALERY, wreak, zhol,
Jan 15 2021, 15:19:24 Mercury Eye - Promo 2010 [demo] (2010)
Re-up:

Register


Enjoy!
(2) thenecromancer, Veggr,
Jan 15 2021, 15:04:44 Umbrtka - Komíny Smrti (2019)


*Artist: Umbrtka
*Album: Komíny Smrti
*Year: 2019
*Genre: Atmospheric Black Metal/Avant-Garde
*Country: Czech Republic
*Format: mp3@CBR128kbps
*Size: 47MB

Tracklist:
1. Půjčovna strojů 05:01
2. Krátké klání 03:11
3. Mlsat v jeřábu 05:46
4. Dílna 04:15
5. Papání 05:23
6. Komíny smrti 09:03
7. Roudenský okruh 04:48
8. Tvář českého podzimu 02:55
9. Kód 02:30
10. Ustanovení 06:27
******************************
Total playing time: 49:19




[more=Technical info]
Input File: 02 Krátké klání.mp3
Channels : 2
Sample Rate : 44100
Precision : 16-bit
Duration : 00:03:11.57 = 8448369 samples = 14368 CDDA sectors
File Size : 3.21M
Bit Rate : 134k
Sample Encoding: MPEG audio (layer I, II or III)
Comments :
Title=kratke klani
Artist=Umbrtka
Album=Kom?ny smrti
Tracknumber=2
Year=2019
Genre=Black Metal

[/more]

Register
(7) avather, infiltrator, Olethros, Rosen, varlam4, vasiljev_sergej, yuratroll,
Jan 15 2021, 12:22:54 Insinistra - Art Of Slavery [ep] (2020)


*Artist: Insinistra
*Album: Art Of Slavery [ep]
*Year: 2020
*Genre: Symphonic Metal
*Country: Czech Republic
*Format: mp3@CBR320kbps
*Size: 49MB

Tracklist:
1. Weeping Spell 04:48
2. The Epoch of Wrath 04:45
3. Snowbound 04:46
4. Lullaby for the Damned 06:37
******************************
Total playing time: 20:56




[more=Technical info]
Input File: 02. The Epoch of Wrath.mp3
Channels : 2
Sample Rate : 44100
Precision : 16-bit
Duration : 00:04:46.61 = 12639413 samples = 21495.6 CDDA sectors
File Size : 11.8M
Bit Rate : 328k
Sample Encoding: MPEG audio (layer I, II or III)
Comments :
Title=The Epoch of Wrath
Artist=Insinistra
Album=Art of Slavery
Tracknumber=2
Year=2020
Genre=Symphonic Metal

[/more]

Register
(13) after21allD, Cartman223, chipsgott, djsema4, gwar, infiltrator, Mogozoz, Olethros, randumbum, Rosen, sergsazan, wreak, Сварог Барг,
Jan 15 2021, 12:19:44 Falcar - I Am Your Destiny (2020)


*Artist: Falcar
*Album: I Am Your Destiny
*Year: 2020
*Genre: Symphonic Power Metal
*Country: Czech Republic
*Format: mp3@CBR320kbps
*Size: 130MB

Tracklist:
1. Shade of Tales 00:40
2. I Am Your Destiny 06:51
3. Bloodshed 05:28
4. Jester's Mask 06:28
5. Hic Sunt Leones, Pt. 1: The Lion Within 04:21
6. Hic Sunt Leones, Pt. 2: The Price for Deliverance 04:52
7. Unchained 05:17
8. The Metal Crusade 03:17
9. Death on Black Wings 04:29
10. Inn of the Last Home 05:44
11. The Clarion Call 08:03
12. Destiny Changes 01:22
******************************
Total playing time: 56:52




[more=Technical info]
Input File: 02 - I Am Your Destiny.mp3
Channels : 2
Sample Rate : 44100
Precision : 16-bit
Duration : 00:06:50.00 = 18081000 samples = 30750 CDDA sectors
File Size : 16.4M
Bit Rate : 321k
Sample Encoding: MPEG audio (layer I, II or III)
Comments :
Artist=Falcar
Album=I Am Your Destiny
Year=2020
Genre=9

[/more]

Register
(18) ace73pq, after21allD, aviacademy, boby9052, Cartman223, gwar, gwynnbleid, Herrant, infiltrator, Lukittaz, Mogozoz, Olethros, Rosen, Rover, sergsazan, Taakeferd, wreak, Сварог Барг,
Jan 15 2021, 10:51:23 Nāv - Arcizlo (2020)


*Artist: Nāv
*Album: Arcizlo
*Year: 2020
*Genre: Black Metal
*Country: Czech Republic
*Format: mp3@CBR320kbps
*Size: 102MB

Tracklist:
1. March Towards the Dying Sun 05:31
2. False Messiah 02:24
3. Shadow of Man 04:03
4. Hang the Saints 05:01
5. Fallen 04:18
6. Lost Kingdom 04:38
7. The Enabler 02:42
8. Gaia 05:06
9. Looking into Abyss 04:28
10. Pick Your Poison 06:03
******************************
Total playing time: 44:14




[more=Technical info]
Input File: 02 False Messiah.mp3
Channels : 2
Sample Rate : 44100
Precision : 16-bit
Duration : 00:02:24.88 = 6389340 samples = 10866.2 CDDA sectors
File Size : 5.93M
Bit Rate : 328k
Sample Encoding: MPEG audio (layer I, II or III)
Comments :
Title=False Messiah
Artist=Nāv
Album=Arcizlo
Tracknumber=2
Year=2020
Genre=9

[/more]

Register
(21) AlexSmith, atavist, caro, cesar, djsema4, infiltrator, kim666, Marek, Olethros, Ostinato, randumbum, robertho777, Rosen, SilentNidhogg, Taakeferd, VALERY, varlam4, vasiljev_sergej, wreak, yuratroll, дивин,
Jan 15 2021, 10:47:38 Nāv - Smrtci (2019)


*Artist: Nāv
*Album: Smrtci
*Year: 2019
*Genre: Black Metal
*Country: Czech Republic
*Format: mp3@CBR320kbps
*Size: 75MB

Tracklist:
1. Eternal Surreal 03:21
2. Corpse of Time 04:28
3. Night Bies 03:27
4. Funeral of God 05:22
5. Sigil of Sulfur 02:58
6. Repentance 04:53
7. Celestial Doom 07:42
******************************
Total playing time: 32:11




[more=Technical info]
Input File: NĀV - Smrtci - 02 Corpse of Time.mp3
Channels : 2
Sample Rate : 44100
Precision : 16-bit
Duration : 00:04:28.55 = 11843187 samples = 20141.5 CDDA sectors
File Size : 10.9M
Bit Rate : 324k
Sample Encoding: MPEG audio (layer I, II or III)
Comments :
Title=Corpse of Time
Artist=NĀV
Album=Smrtci
Tracknumber=2
Year=2019
Genre=9

[/more]

Register
(19) AlexSmith, atavist, caro, cesar, djsema4, infiltrator, kim666, Marek, Olethros, Ostinato, randumbum, Rosen, SilentNidhogg, Taakeferd, VALERY, varlam4, vasiljev_sergej, wreak, yuratroll,
Jan 15 2021, 10:42:33 Bloody Obsession - Inevitable Death (2020)


*Artist: Bloody Obsession
*Album: Inevitable Death
*Year: 2020
*Genre: Old School Death Metal
*Country: Czech Republic
*Format: mp3@CBR320kbps
*Size: 95MB

Tracklist:
1. Despair and Vator 07:00
2. Exhaustion and Hypotermia 04:46
3. Broken Spirit and Lost Hopes 04:18
4. Ears and Curses 05:28
5. Greed and Lust 05:02
6. Rising Sun Part I: Ten Thousand Years 04:09
7. Rising Sun Part II: Last Sunrise 04:56
8. Heavy Steel and Blazing Fire 05:48
******************************
Total playing time: 41:27


Bandzone

[more=Technical info]
Input File: 02 Exhaustion and Hypotermia.mp3
Channels : 2
Sample Rate : 44100
Precision : 16-bit
Duration : 00:04:46.38 = 12629358 samples = 21478.5 CDDA sectors
File Size : 11.4M
Bit Rate : 320k
Sample Encoding: MPEG audio (layer I, II or III)
Comments :
Title=Exhaustion and Hypotermia
Artist=Bloody Obsession
Album=Inevitable Death
Tracknumber=2
Year=2020
Genre=22

[/more]

Register
(31) andreikun, Andrew, atavist, caro, cesar, djsema4, infiltrator, jollo, Marek, metalboll, METALHUNTER, multizwilling, Olethros, Ostinato, randumbum, Rosen, SadistikSlayer, SaintVitus, Samaritianin, Satyr, sergsazan, Storky, stumpheavyrock, Taakeferd, THROWER666, VALERY, varlam4, wreak, yuratroll, zhol, Луч,

251 Pages V   1 2 3 > » 
- Lo-Fi Version Support form
Copyrights and abuse reports form
Time is now: 24th September 2021 - 01:42:46