Welcome Guest ( Log In | Register )

История благодарностей участнику Gelukas ::: Спасибо сказали: 45585 раз(а)
Дата поста: В теме: За сообщение: Спасибо сказали:
Oct 16 2020, 07:32:27 Nouseyesuon - Death Is Nothing To Us (2020)


*Artist: Nouseyesuon
*Album: Death Is Nothing To Us
*Year: 2020
*Genre: Symphonic/Black Metal
*Country: Brazil
*Format: mp3@CBR320kbps
*Size: 129MB

Tracklist:
1. Chaos Magick - Opus 1 07:37
2. Hypatia - Opus 2 06:13
3. Mayan Underworld - Opus 3 05:32
4. Memento Mori - Opus 4 05:40
5. Danse Macabre - Opus 5 06:45
6. My Unacceptable Desire - Opus 6 05:53
7. Miss Ives - Opus 7 04:45
8. Ars Moriendi - Opus 8 05:08
9. Epicedium - Opus 9 07:53
******************************
Total playing time: 55:26




[more=Technical info]
Input File: 03 - Mayan Underworld - Opus 3.mp3
Channels : 2
Sample Rate : 44100
Precision : 16-bit
Duration : 00:05:32.00 = 14641200 samples = 24900 CDDA sectors
File Size : 13.5M
Bit Rate : 326k
Sample Encoding: MPEG audio (layer I, II or III)
Comments :
Title=Mayan Underworld - Opus 3
Artist=Nouseyesuon
Album=Death Is Nothing to Us
Tracknumber=3
Year=2020-01-10
Genre=9
Discnumber=1

[/more]

Register
(18) 1968_janeart, Altkiller, caro, frituz3, infiltrator, kim666, Lukittaz, metala, metalwoman, multizwilling, Olethros, randumbum, Rosen, Shadechaser, VALERY, varlam4, vasiljev_sergej, Сварог Барг,
Oct 7 2020, 10:34:16 Kaar - Kaarový Eso [demo] (2009)
ЦИТАТА(Ablloom @ Sep 11 2020, 09:30:35) *
Gelukas,

hello friend could you send this album again i'm not able to download it,

thanks in advance


Register
(1) thenecromancer,
Sep 18 2020, 14:54:42 Roraima - Araguaney [ep] (2020)


*Artist: Roraima
*Album: Araguaney [ep]
*Year: 2020
*Genre: Instrumental/Atmospheric Black Metal
*Country: Venezuela
*Format: mp3@CBR128kbps
*Size: 22MB

Tracklist:
1. Araguaney I 07:21
2. Araguaney II 06:04
3. Araguaney III 02:47
4. Araguaney IV 07:20
******************************
Total playing time: 23:32




[more=Technical info]
Input File: 02 Araguaney II.mp3
Channels : 2
Sample Rate : 44100
Precision : 16-bit
Duration : 00:06:04.49 = 16074185 samples = 27337 CDDA sectors
File Size : 5.92M
Bit Rate : 130k
Sample Encoding: MPEG audio (layer I, II or III)
Comments :
Title=Araguaney II
Artist=Roraima
Album=Araguaney
Tracknumber=2/4
Year=2020
Genre=9

[/more]

Register
(5) 1968_janeart, infiltrator, legion01, Olethros, Rosen,
Sep 18 2020, 14:46:14 Blake - Back To The Light (2020)


*Artist: Blake
*Album: Back To The Light
*Year: 2020
*Genre: Neoclassical/Power Metal
*Country: Colombia
*Format: mp3@CBR320kbps
*Size: 97MB

Tracklist:
1. Ouverture 02:09 (instrumental)
2. The Beginning 06:28
3. Spirit of Heroes 04:54
4. Canon in B minor 04:44 (instrumental)
5. Palabras finales 06:26
6. Un día no muy lejano 05:18
7. Octubre 05:44
8. Amante inmortal 06:36
******************************
Total playing time: 42:19



[more=Technical info]
Input File: 02 - The Beginning.mp3
Channels : 2
Sample Rate : 44100
Precision : 16-bit
Duration : 00:06:28.33 = 17125529 samples = 29125 CDDA sectors
File Size : 15.5M
Bit Rate : 320k
Sample Encoding: MPEG audio (layer I, II or III)
Comments :
Title=The Beginning
Artist=Blake
Album=Back to the Light
Tracknumber=02
Year=2020
Genre=9
Discnumber=1

[/more]

Register
(17) after21allD, aviacademy, boby9052, Bregon, csgmnk, flamandez, gwar, infiltrator, Lukittaz, metala, Olethros, Phlebotomized, Rosen, Rover, varlam4, wreak, Сварог Барг,
Sep 18 2020, 12:00:18 Malsrud - The Disclosure (2020)


*Artist: Malsrud
*Album: The Disclosure
*Year: 2020
*Genre: Melodic Death Metal/Metalcore
*Country: Sweden
*Format: mp3@CBR320kbps
*Size: 130MB

Tracklist:
1. Redemption 05:03
2. Chainsaw Reptile 05:59
3. Karma 06:31
4. Deceived 03:37
5. The Girl in Red 04:39
6. The King and Queen 04:19
7. Poisoned 01:51
8. Avert the Disclosure 04:20
9. Written in Your Blood 04:51
10. The Blackening 05:31
11. Six Feet Under 04:42
12. The Secret is Out 05:14
******************************
Total playing time: 56:37




[more=Technical info]
Input File: 02 - Chainsaw Reptile.mp3
Channels : 2
Sample Rate : 44100
Precision : 16-bit
Duration : 00:05:59.36 = 15847908 samples = 26952.2 CDDA sectors
File Size : 14.4M
Bit Rate : 322k
Sample Encoding: MPEG audio (layer I, II or III)
Comments :
Title=Chainsaw Reptile
Artist=Malsrud
Album=The Disclosure
Tracknumber=2
Year=2020
Genre=9
Discnumber=1

[/more]

Register
(12) Barlak, caro, chipsgott, DenisKov, infiltrator, Lukittaz, Mogozoz, Olethros, Rosen, VALERY, wreak, zhol,
Sep 18 2020, 11:46:01 Nudo - Rabia (2020)


*Artist: Nudo
*Album: Rabia
*Year: 2020
*Genre: Heavy/Power Metal
*Country: Spain
*Format: mp3@CBR320kbps
*Size: 138MB

Tracklist:
1. Redención
2. Piel de serpiente
3. Motivos para luchar
4. Al fin
5. Rabia
6. Sangre en el sol
7. Tras el cristal
8. Perdedor
9. Corazón herido
10. Velando por ti
11. Trata de escapar
12. Motivos para luchar
******************************
Total playing time: 59:51




[more=Technical info]
Input File: 02 - Piel de Serpiente.mp3
Channels : 2
Sample Rate : 44100
Precision : 16-bit
Duration : 00:00:00.29 = 12569 samples = 21.3759 CDDA sectors
File Size : 11.6M
Bit Rate : 325M
Sample Encoding: MPEG audio (layer I, II or III)
Comments :
Title=Piel De Serpiente
Artist=Nudo
Album=Rabia
Tracknumber=02/12
Year=2020
Genre=Heavy/Power Metal
Discnumber=1/1

[/more]

Register
(13) aviacademy, boby9052, Dark Sage, Herrant, infiltrator, Lukittaz, Olethros, randumbum, robertho777, Rosen, Rover, wreak, Сварог Барг,
Sep 18 2020, 11:13:02 Miea - Chaos And Perfections (2020)


*Artist: Miea
*Album: Chaos And Perfections
*Year: 2020
*Genre: Progressive/Stoner Metal/Rock
*Country: Czech Republic
*Format: mp3@CBR320kbps
*Size: 85MB

Tracklist:
1. Mammatus 05:07
2. Under the Healing Stone 04:28
3. Epiphany of Dying Sun 03:37
4. Your Priest Can't Heal Me 05:50
5. Once Again 04:35
6. Heavy in My Bones 03:12
7. Comfort of Nothing 10:00
******************************
Total playing time: 36:49




[more=Technical info]
Input File: 2 - Under the Healing Stone.mp3
Channels : 2
Sample Rate : 44100
Precision : 16-bit
Duration : 00:04:28.74 = 11851390 samples = 20155.4 CDDA sectors
File Size : 10.8M
Bit Rate : 322k
Sample Encoding: MPEG audio (layer I, II or III)
Comments :
Title=Under the Healing Stone
Artist=Miea
Album=Chaos and Perfections
Tracknumber=2
Year=2020
Genre=Rock
Discnumber=1

[/more]

Register
(8) after21allD, caro, infiltrator, Olethros, Rosen, SatanicPanzer, stumpheavyrock, wreak,
Sep 18 2020, 09:42:50 Albert Works - How To Sing About Despair (2020)


*Artist: Albert Works
*Album: How To Sing About Despair
*Year: 2020
*Genre: Melodic Death Metal/Metalcore
*Country: Japan
*Format: mp3@CBR320kbps
*Size: 154MB

Tracklist:
1. Intro (instrumental)
2. You see Moonlight Hull Cur
3. Call Her, Rally Call
4. End You RE : Curse Sun
5. Cheer KING
6. Is Our Theory
7. Awe Could Bow, Root Me
8. You Keen Early, Two Are
9. LEAN
10. Mean I Said, It Not Read
11. To The Mean And Me
12. Emotional Daybreak
13. SUCK Learn Are Your Knell
14. My Abysmal Overflow
15. Fuzzy You Key Yawn
******************************
Total playing time: 1:07:31




[more=Technical info]
Input File: 05 Cheer KING.mp3
Channels : 2
Sample Rate : 44100
Precision : 16-bit
Duration : 00:03:43.69 = 9864861 samples = 16777 CDDA sectors
File Size : 8.95M
Bit Rate : 320k
Sample Encoding: MPEG audio (layer I, II or III)
Comments :
Artist=Albert Works
Album=HOW TO SING ABOUT DESPAIR
Year=2020
Genre=9

[/more]

Register
(11) chipsgott, infiltrator, Lukittaz, Mogozoz, Olethros, Rosen, TeamatSE, VALERY, varlam4, wreak, zhol,
Sep 11 2020, 14:42:13 Ammyt - New Perspectives (2020)


*Artist: Ammyt
*Album: New Perspectives
*Year: 2020
*Genre: Melodic Death Metal
*Country: Germany
*Format: mp3@CBR320kbps
*Size: 97MB

Tracklist:
1. The Horror of Habit 01:16
2. Phobia 03:36
3. As Leaves Turn Red 05:31
4. Dreamcatcher 04:26
5. Valkyr 04:44
6. Stranded 04:18
7. Mask in the Mirror 04:30
8. To Reach the Shore 02:25
9. City of Memories 03:46
10. No Time to Waste 03:57
11. To Reach the Shore (Bonus Version) 02:25
******************************
Total playing time: 40:54




[more=Technical info]
Input File: 02 - Phobia.mp3
Channels : 2
Sample Rate : 44100
Precision : 16-bit
Duration : 00:03:36.54 = 9549590 samples = 16240.8 CDDA sectors
File Size : 8.93M
Bit Rate : 330k
Sample Encoding: MPEG audio (layer I, II or III)
Comments :
Title=Phobia
Artist=Ammyt
Album=New Persepctives
Tracknumber=2
Year=2020
Genre=9

[/more]

Register
(21) BugEyes, chipsgott, infiltrator, infozahist, kranger, Lukittaz, Mares, MMMMM, Mogozoz, Morgoth, Olethros, randumbum, Rosen, sergsazan, talismanFS, TeamatSE, VALERY, varlam4, wreak, zhol, Сварог Барг,
Jul 31 2020, 12:53:38 Ben Dallas - Epic Metal Time (2020)


*Artist: Ben Dallas
*Album: Epic Metal Time
*Year: 2020
*Genre: Instrumental Melodic Death Metal
*Country: United States
*Format: mp3@CBR320kbps
*Size: 109MB

Tracklist:
1. Valhalla 05:39
2. The Emissary 04:54
3. Peshmerga 03:58
4. Limbic Loop 05:30
5. Seafarer 03:12
6. Metalie 02:11
7. Elon's Musk 03:11
8. Olmec 05:10
9. Doomsayer 05:22
10. Spaghettified 08:17
******************************
Total playing time: 47:24



[more=Technical info]
Input File: 03. Peshmerga.mp3
Channels : 2
Sample Rate : 44100
Precision : 16-bit
Duration : 00:03:58.88 = 10534608 samples = 17916 CDDA sectors
File Size : 9.63M
Bit Rate : 323k
Sample Encoding: MPEG audio (layer I, II or III)
Comments :
Title=Peshmerga
Artist=Ben Dallas
Album=Epic Metal Time
Tracknumber=3/10
Year=2020
Genre=9
Discnumber=1/1

[/more]

Register
(14) chipsgott, dimitriusk, djsema4, infiltrator, metala, noyz, Olethros, randumbum, Rosen, varlam4, wanderer73, wreak, zhol, скептик,
Jul 13 2020, 06:24:55 Autumn Nostalgie - Esse Est Percipi (2020)


*Artist: Autumn Nostalgie
*Album: Esse Est Percipi
*Year: 2020
*Genre: Post-Black Metal/Ambient
*Country: Slovakia
*Format: mp3@CBR320kbps
*Size: 103MB

Tracklist:
1. Prologue 01:36 (instrumental)
2. Fallen Leaves 05:48
3. The Hidden Lake of the Forest 08:41
4. Eternal Joy on the Mountain of Loneliness 06:10
5. The Transcendence of the Past Centuries 09:29
6. Grey Horizons 05:37
7. Epilogue 07:47
******************************
Total playing time: 45:08




[more=Technical info]
Input File: 02 - Fallen Leaves.mp3
Channels : 2
Sample Rate : 48000
Precision : 16-bit
Duration : 00:05:47.14 = 16662672 samples ~ 26035.4 CDDA sectors
File Size : 13.9M
Bit Rate : 320k
Sample Encoding: MPEG audio (layer I, II or III)
Comments :
Title=Fallen Leaves
Artist=Autumn Nostalgie
Album=Esse Est Percipi
Tracknumber=2
Year=2020
Genre=Post Black Metal

[/more]

Register
(27) 1968_janeart, 6666666, aleon, Aynekko, Buregon, Dark Sage, doomTemplar, fallen, Geralder, grimoir, infiltrator, kim666, Kodel, krotovich, Kuratsu, Lukittaz, Maximvs, Olethros, rammmirez, randumbum, robertho777, Rosen, savatage13, system36, varlam4, wreak, yuratroll,
Jul 9 2020, 11:14:15 Bleed Out - Master Of Destiny (2009)


*Artist: Bleed Out
*Album: Master Of Destiny
*Year: 2009
*Genre: Melodic Death Metal
*Country: Japan
*Format: mp3@CBR320kbps
*Size: 65MB

Tracklist:
1. Intro 01:05
2. Corrosion 03:19
3. Master of Destiny 03:41
4. Raise Your Gun 03:32
5. Death Proof 03:39
6. Bravery 03:52
7. Final Fight 05:38
8. In My Head 03:26
******************************
Total playing time: 28:12




[more=Technical info]
Input File: 03 - Master of Destiny.mp3
Channels : 2
Sample Rate : 44100
Precision : 16-bit
Duration : 00:03:40.40 = 9719728 samples = 16530.1 CDDA sectors
File Size : 8.82M
Bit Rate : 320k
Sample Encoding: MPEG audio (layer I, II or III)
Comments :
Artist=Bleed Out
Album=Master Of Destiny
Tracknumber=3
Year=2009
Genre=9

[/more]

Register
(19) AHBAnep, BugEyes, chon, gwynnbleid, infiltrator, isvili, Lukittaz, MMMMM, Mogozoz, Olethros, randumbum, Rosen, sergsazan, Svafrlami, VALERY, varlam4, wreak, zhol, Сварог Барг,
Jul 9 2020, 09:54:53 Manipulated Slaves - Past In The Black Flame (2020)


*Artist: Manipulated Slaves
*Album: Past In The Black Flame
*Year: 2020
*Genre: Melodic Death/Thrash Metal
*Country: Japan
*Format: mp3@CBR320kbps
*Size: 139MB

Tracklist:
1. Master of Illusions
2. Obey the Moon
3. Halfway to Heaven
4. Come Down from the Skies
5. Damnation’s Edge
6. Greed
7. Burst into Blue Flame
8. Silently Falling Asleep
9. The Lunatic Moon on the Dark Sea
10. Obey the Moon (1997 Demo Version)
11. ...to the Eternal Iceland (1997 Demo Version)
12. The Man in Black (1997 Demo Version)
13. Greed (1997 Demo Version)
******************************
Total playing time: 1:00:49



[more=Technical info]
Input File: 01 - Master of Illusions.mp3
Channels : 2
Sample Rate : 44100
Precision : 16-bit
Duration : 00:02:37.00 = 6923744 samples = 11775.1 CDDA sectors
File Size : 6.28M
Bit Rate : 320k
Sample Encoding: MPEG audio (layer I, II or III)
Comments :
Artist=Manipulated Slaves
Album=Past In The Black Flame
Tracknumber=1
Year=2020
Genre=9

[/more]

Register
(19) AHBAnep, BERZERK, boby9052, BugEyes, chipsgott, gwynnbleid, infiltrator, lary_veel, Lukittaz, metala, MMMMM, Mogozoz, Olethros, randumbum, Rosen, sergsazan, VALERY, wreak, zhol,
Jul 8 2020, 07:35:41 Decrial - Desires Unfold [demo] (1993)
ЦИТАТА(thenecromancer @ Jul 2 2020, 18:20:39) *
256

Thanks a lot, Gelukas!!! 9.gif


You wellcome!
(1) thenecromancer,
Jul 2 2020, 13:39:32 Decrial - Desires Unfold [demo] (1993)
Register
(2) thenecromancer, Xtohar,
Jun 25 2020, 13:48:04 Drops Of Heart - Stargazers (2020)


*Artist: Drops Of Heart
*Album: Stargazers
*Year: 2020
*Genre: Modern Melodic Death Metal/Metalcore
*Country: Russian Federation
*Format: mp3@CBR320kbps
*Size: 144MB

Tracklist:
1. Echoes
2. Frost Grip
3. Knot
4. Escapist
5. Lull
6. Starlight
7. Modern Madness 04:03
8. Coffin
9. Exodus
10. Death Lover
11. Discoverers
12. Stargazers
******************************
Total playing time: 59:26




[more=Technical info]
Input File: 03. Knot.mp3
Channels : 2
Sample Rate : 44100
Precision : 16-bit
Duration : 00:06:00.83 = 15912427 samples = 27062 CDDA sectors
File Size : 15.2M
Bit Rate : 337k
Sample Encoding: MPEG audio (layer I, II or III)
Comments :
Title=Knot
Artist=Drops of Heart
Album=Stargazers
Tracknumber=3/12
Year=2020
Genre=9

[/more]

Register
(12) chipsgott, csgmnk, infiltrator, Ludwig Hagen, Lukittaz, Mogozoz, Olethros, Rosen, Sanctus, talismanFS, VALERY, wreak,
Jun 19 2020, 08:58:19 Labyrinth Spell - At The Blackest Corners Of Existence (2020)


*Artist: Labyrinth Spell
*Album: At The Blackest Corners Of Existence
*Year: 2020
*Genre: Black Metal
*Country: Brazil
*Format: mp3@CBR128kbps
*Size: 39MB

Tracklist:
1. Unholy Night 05:49
2. Prometheist 07:06
3. Horned King Throned Forever 06:29
4. Rigor Mortis 04:54
5. Wounds That Never Heal 04:57
6. Dead Inside 06:15
7. The Eternal Essence of Blackness 06:44
******************************
Total playing time: 42:14




[more=Technical info]
Input File: 01 Unholy Night.mp3
Channels : 2
Sample Rate : 44100
Precision : 16-bit
Duration : 00:05:49.66 = 15419786 samples = 26224.1 CDDA sectors
File Size : 5.60M
Bit Rate : 128k
Sample Encoding: MPEG audio (layer I, II or III)
Comments :
Artist=Labyrinth Spell
Album=At the Blackest Corners of Existence
Year=2020
Genre=9

[/more]

Register
(5) Ildjarn, infiltrator, Olethros, Rosen, Wail,
Jun 19 2020, 08:50:41 Gefrorene Fee - Schneegeist (2020)


*Artist: Gefrorene Fee
*Album: Schneegeist
*Year: 2020
*Genre: Atmospheric Black Metal/Ambient
*Country: Brazil
*Format: mp3@CBR320kbps
*Size: 94MB

Tracklist:
1. Stilleben 07:07
2. Nachtschnee 05:56
3. Schneegeist 08:38
4. Storm Grimm 06:34
5. Winterfrost Howl 06:14
6. Anthem of the Snow Spirits 05:22
******************************
Total playing time: 39:51




[more=Technical info]
Input File: 2881240.jpg

[/more]

Register
(11) Dark_Viking, dimpa, Druidir, infiltrator, Jorn777, oldvarg, Olethros, randumbum, Rosen, senecazm, TeamatSE,
Jun 15 2020, 07:46:56 Dead City Crown - Our Blood Apocalyptic [ep] (2020)


*Artist: Dead City Crown
*Album: Our Blood Apocalyptic [ep]
*Year: 2020
*Genre: Melodic Death Metal
*Country: United States
*Format: mp3@CBR320kbps
*Size: 43MB

Tracklist:
1. Until the Bitter End 03:35
2. Our Blood Apocalyptic 03:42
3. Through the Ashes of Man 03:36
4. In Revolt 03:53
5. Autumn's May 03:55
******************************
Total playing time: 18:41




[more=Technical info]
Input File: 02. Our Blood Apocalyptic.mp3
Channels : 2
Sample Rate : 44100
Precision : 16-bit
Duration : 00:03:42.58 = 9815690 samples = 16693.4 CDDA sectors
File Size : 9.02M
Bit Rate : 324k
Sample Encoding: MPEG audio (layer I, II or III)
Comments :
Title=Our Blood Apocalyptic
Artist=Dead City Crown
Album=Our Blood Apocalyptic
Tracknumber=2/5
Year=2020
Genre=Metal
Discnumber=1/1

[/more]

Register
(14) BugEyes, djsema4, GuldenDraak, infiltrator, kiol1, lldma, Lukittaz, Mogozoz, Olethros, Rosen, sergsazan, TeamatSE, VALERY, zhol,
Jun 9 2020, 06:43:20 Diary About My Nightmares - Forbidden Anger (2020)


*Artist: Diary About My Nightmares
*Album: Forbidden Anger
*Year: 2020
*Genre: Melodic Death Metal
*Country: Germany
*Format: mp3@CBR320kbps
*Size: 113MB

Tracklist:
1. Urt La Bu Tral
2. Lost In Lines
3. Close To The Border
4. Deathinfection
5. Hate
6. Ewigkeit
7. First Class Suicide
8. Forbidden Anger
9. Across The Street
10. Hall Of Fame
******************************
Total playing time: 48:05




[more=Technical info]
Input File: 02. Lost In Lines.mp3
Channels : 2
Sample Rate : 44100
Precision : 16-bit
Duration : 00:03:36.36 = 9541520 samples = 16227.1 CDDA sectors
File Size : 9.03M
Bit Rate : 334k
Sample Encoding: MPEG audio (layer I, II or III)
Comments :
Title=Lost In Lines
Artist=Diary About My Nightmares
Album=Forbidden Anger
Tracknumber=2/10
Year=2020
Genre=9

[/more]

Register
(25) AHBAnep, Andrew, apostol_13, BugEyes, chipsgott, DenisKov, gwynnbleid, infiltrator, infozahist, Lukittaz, multizwilling, older68, randumbum, Rosen, sergsazan, serjred, talismanFS, terron, VALERY, White28, Winterdark, Woosad, zhol, Герб, Сварог Барг,
Jun 8 2020, 08:48:48 Powerwolf - The Symphony Of Sin (2020)


*Artist: Powerwolf
*Album: The Symphony Of Sin
*Year: 2020
*Genre: Rock Opera
*Country: Germany
*Format: mp3@CBR320kbps
*Size: 107MB

Tracklist:
1. Fire & Forgive 04:33
2. Demons Are a Girl’s Best Friend 03:39
3. Killers with the Cross 04:06
4. Incense and Iron 03:59
5. Where the Wild Wolves Have Gone 04:15
6. Stossgebet 03:55
7. Nightside of Siberia 03:55
8. The Sacrament of Sin 03:29
9. Venom of Venus 03:31
10. Nighttime Rebel 04:05
11. Fist by Fist (Sacralize or Strike) 03:31
12. Midnight Madonna 03:31
******************************
Total playing time: 46:29




[more=Technical info]
Input File: 3 - Killers with the Cross (Orchestral Version).mp3
Channels : 2
Sample Rate : 44100
Precision : 16-bit
Duration : 00:04:06.59 = 10874443 samples = 18494 CDDA sectors
File Size : 9.96M
Bit Rate : 323k
Sample Encoding: MPEG audio (layer I, II or III)
Comments :
Title=Killers with the Cross (Orchestral Version)
Artist=Powerwolf
Album=The Symphony of Sin
Tracknumber=3
Year=2020
Genre=Metal
Discnumber=1

[/more]

Register
(11) Aresson, Druidir, flamandez, gwar, HMHamster, infiltrator, Lukittaz, multizwilling, oldvarg, Olethros, veselchak_u,
Jun 5 2020, 14:03:40 Tokyomorbidedge - Tokyomorbidedge [ep] (2020)


*Artist: Tokyomorbidedge
*Album: Tokyomorbidedge [ep]
*Year: 2020
*Genre: Death/Thrash Metal/Grindcore
*Country: Japan
*Format: mp3@CBR320kbps
*Size: 25MB

Tracklist:
1. Zombieland 02:26
2. Virtual Grave 02:04
3. Fastfreak 01:06
4. 人間爆弾 01:49
5. 修羅シュラク 01:20
6. Death Idol Thrasher 02:17
******************************
Total playing time: 11:02




[more=Technical info]
Input File: 02. Virtual Grave.mp3
Channels : 2
Sample Rate : 44100
Precision : 16-bit
Duration : 00:02:04.37 = 5484629 samples = 9327.6 CDDA sectors
File Size : 4.97M
Bit Rate : 320k
Sample Encoding: MPEG audio (layer I, II or III)
Comments :
Title=VIRTUAL GRAVE
Artist=TokyoMorbidEdge
Album=TokyoMorbidedge
Tracknumber=2
Year=2020
Genre=9

[/more]

Register
(8) boby9052, infiltrator, Lukittaz, marilin, Olethros, Rosen, vyacheslav, wreak,
Jun 5 2020, 13:56:27 Head - Corona De Barro (2020)


*Artist: Head
*Album: Corona De Barro
*Year: 2020
*Genre: Groove Metal/Metalcore
*Country: Argentina
*Format: mp3@CBR320kbps
*Size: 142MB

Tracklist:
1. Pacto 05:44
2. Corona de barro 03:32
3. Juzgar 05:09
4. Instinto 04:46
5. Es hoy 04:57
6. Solo al final 04:38
7. Abraxas 05:30
8. Despertar 04:42
9. Head 05:04
10. Tiempo atrás 17:44
******************************
Total playing time: 1:01:46




[more=Technical info]
Input File: 02 Corona de Barro.mp3
Channels : 2
Sample Rate : 44100
Precision : 16-bit
Duration : 00:03:32.78 = 9383554 samples = 15958.4 CDDA sectors
File Size : 8.63M
Bit Rate : 324k
Sample Encoding: MPEG audio (layer I, II or III)
Comments :
Title=Corona de Barro
Artist=Head
Album=Corona De Barro
Tracknumber=2
Year=2020
Genre=9

[/more]

Register
(4) infiltrator, Lukittaz, Rosen, wreak,
Jun 5 2020, 13:49:57 Ancestro - Ancestro (2019)


*Artist: Ancestro
*Album: Ancestro
*Year: 2019
*Genre: Progressive Doom Metal/Stoner Rock
*Country: Peru
*Format: mp3@CBR128kbps
*Size: 38MB

Tracklist:
1. I 00:56
2. II 07:52
3. III 04:27
4. IV 06:51
5. V 08:24
6. VI 13:12
******************************
Total playing time: 41:42




[more=Technical info]
Input File: 2.- II.mp3
Channels : 2
Sample Rate : 44100
Precision : 16-bit
Duration : 00:07:52.44 = 20834692 samples = 35433.1 CDDA sectors
File Size : 7.56M
Bit Rate : 128k
Sample Encoding: MPEG audio (layer I, II or III)
Comments :
Artist=Ancestro
Album=Ancestro
Year=2019
Genre=9

[/more]

Register
(4) infiltrator, Olethros, Rosen, VALERY,
Jun 5 2020, 07:16:01 Kalkumakuñ - Profundidad Abismal [ep] (2016)


*Artist: Kalkumakuñ
*Album: Profundidad Abismal [ep]
*Year: 2016
*Genre: Black/Thrash Metal
*Country: Chile
*Format: mp3@CBR320kbps
*Size: 61MB

Tracklist:
1. Introducción - Ruptura del Ad Mapu 02:23
2. Confinados al mal 03:50
3. Profundidad abismal 02:59
4. Trelke Wekufe 05:06
5. Interludio 04:37 (instrumental)
6. Total misantropia 03:36
7. Kalkumakuñ 04:08
******************************
Total playing time: 26:39




[more=Technical info]
Input File: 02 Confinados al Mal.mp3
Channels : 2
Sample Rate : 44100
Precision : 16-bit
Duration : 00:03:51.48 = 10208400 samples = 17361.2 CDDA sectors
File Size : 9.32M
Bit Rate : 322k
Sample Encoding: MPEG audio (layer I, II or III)
Comments :
Title=Confinados al Mal
Artist=Kalkumaku?
Album=Profundidad abismal
Tracknumber=2
Year=2016
Genre=9

[/more]

Register
(10) infiltrator, Lukittaz, marilin, Olethros, Rosen, sergsazan, stumpheavyrock, Styx, varlam4, Wail,

250 Pages V   1 2 3 > » 
- Lo-Fi Version Support form
Copyrights and abuse reports form
Time is now: 24th October 2020 - 07:38:14