Welcome Guest ( Log In | Register )

История благодарностей участнику Gelukas ::: Спасибо сказали: 41736 раз(а)
Дата поста: В теме: За сообщение: Спасибо сказали:
Yesterday, 16:01:37 Necrofago - Evil Light [demo] (1994)


*Artist: Necrofago
*Album: Evil Light [demo]
*Year: 1994
*Genre: Death Metal/Grindcore
*Country: Venezuela
*Format: mp3@VBR154kbps
*Size: 30MB

Tracklist:
1. Evil Light
2. Condemned to Live
3. Organ Business
4. Suicidal's Grave
5. To Be or Not to Be
6. Infinite Land
7. Condenado a vivir
8. Ser o no ser
******************************
Total playing time: 26:43



[more=Technical info]
Input File: 02 Condemned to live.mp3
Channels : 2
Sample Rate : 44100
Precision : 16-bit
Duration : 00:03:37.76 = 9603040 samples = 16331.7 CDDA sectors
File Size : 3.94M
Bit Rate : 145k
Sample Encoding: MPEG audio (layer I, II or III)
Comments :
Artist=Necrofago
Album=Evil Light
Year=1994
Genre=(9)

[/more]

Register
(7) Olethros, Proteus_666, Rosen, stumpheavyrock, Styx, Wail, wgs73,
Yesterday, 14:00:38 Leper Temple - Opulent Castigations (2019)


*Artist: Leper Temple
*Album: Opulent Castigations
*Year: 2019
*Genre: Sludge/Doom Metal
*Country: South Korea
*Format: mp3@CBR320kbps
*Size: 87MB

Tracklist:
1. Skull Fracturing Deadbeat 06:23
2. The Ulcer At The Center 04:47
3. Hyper Hydrosis 06:42
4. The Trudge 11:47
5. Dead Blood 06:44
******************************
Total playing time: 36:23



[more=Technical info]
Input File: 02 - The Ulcer at the Center.mp3
Channels : 2
Sample Rate : 44100
Precision : 16-bit
Duration : 00:04:47.37 = 12672841 samples = 21552.5 CDDA sectors
File Size : 12.2M
Bit Rate : 339k
Sample Encoding: MPEG audio (layer I, II or III)
Comments :
Title=The Ulcer at the Center
Artist=Leper Temple
Album=Opulent Castigations
Tracknumber=2/5
Year=2019
Genre=9

[/more]

Register
(3) ASkyThatBurns, Olethros, Rosen,
Yesterday, 13:37:51 Killsilence - Killing The Anxiety [ep] (2016)


*Artist: Killsilence
*Album: Killing The Anxiety [ep]
*Year: 2016
*Genre: Melodic Death/Groove Metal
*Country: Chile
*Format: mp3@CBR320kbps
*Size: 38MB

Tracklist:
1. Killing Anxiety
2. Unseen Inside
3. Fucking Inherited Behavior
4. Your Vain Help
******************************
Total playing time: 16:38




[more=Technical info]
Input File: 02. Unseen Inside.mp3
Channels : 2
Sample Rate : 44100
Precision : 16-bit
Duration : 00:03:32.61 = 9376277 samples = 15946 CDDA sectors
File Size : 8.50M
Bit Rate : 320k
Sample Encoding: MPEG audio (layer I, II or III)
Comments :
Title=Unseen Inside
Artist=KillSilence
Album=Killing The Anxiety
Year=2016
Genre=9

[/more]

Register
(4) ASkyThatBurns, Olethros, Rosen, stumpheavyrock,
Yesterday, 13:04:42 Tanatos Mundi - Arerutkual [ep] (2014)


*Artist: Tanatos Mundi
*Album: Arerutkual [ep]
*Year: 2014
*Genre: Raw Black Metal
*Country: Honduras
*Format: mp3@CBR128kbps
*Size: 28MB

Tracklist:
1. Cacofonia de lamentos 02:36
2. Possessionem 05:28
3. Regalo de dios 04:47
4. Lilith 01:05
5. Aborto espiritual (cover) 05:29
6. Apostoles de la muerte 04:07
7. Arerutkual 07:00
******************************
Total playing time: 30:32




[more=Technical info]
Input File: 02 Possessionem.mp3
Channels : 2
Sample Rate : 44100
Precision : 16-bit
Duration : 00:05:28.10 = 14469078 samples = 24607.3 CDDA sectors
File Size : 5.24M
Bit Rate : 128k
Sample Encoding: MPEG audio (layer I, II or III)
Comments :
Artist=Tanatos Mundi
Album=Arerutkual
Tracknumber=2
Year=2014
Genre=9

[/more]

Register
(3) kim666, Olethros, Rosen,
Yesterday, 10:46:50 Luck Wont Save You - Idols Of Existence [ep] (2019)


*Artist: Luck Wont Save You
*Album: Idols Of Existence [ep]
*Year: 2019
*Genre: Melodic Deathcore
*Country: United States
*Format: mp3@CBR320kbps
*Size: 54MB

Tracklist:
1. Proliferate-Annihilate 04:14
2. Horoscope 04:22
3. Doom Chimes Are Ringing 04:10
4. Idols of Existence 05:33
5. Immolation of the Nihilist 04:27
******************************
Total playing time: 22:46



[more=Technical info]
Input File: 02 Horoscope.mp3
Channels : 2
Sample Rate : 44100
Precision : 16-bit
Duration : 00:04:22.50 = 11576074 samples = 19687.2 CDDA sectors
File Size : 10.8M
Bit Rate : 330k
Sample Encoding: MPEG audio (layer I, II or III)
Comments :
Title=Horoscope
Artist=Luck Wont Save You
Album=Idols of Existence
Tracknumber=2
Year=2019
Genre=Deathcore, Melodic Death Metal

[/more]

Register
(3) Olethros, Rosen, sadmannn,
Yesterday, 08:49:51 Tartharia - Punk's Not Dead Yet (2020)


*Artist: Tartharia
*Album: Punk's Not Dead Yet
*Year: 2020
*Genre: Melodic Death/Black Metal
*Country: Russian Federation
*Format: mp3@CBR320kbps
*Size: 77MB

Tracklist:
1. She/Outlude 03:42
2. Sophisticated Violence 02:18
3. Delirious 02:14
4. Filthy Serpents 02:36
5. Democracy in Hell 02:59
6. Buried Under Rubbish 03:03
7. Horror (live) 02:36
8. G Next 02:13
9. Song V 03:12
10. Shit/Raw 07:34
******************************
Total playing time: 32:27




[more=Technical info]
Input File: 02 Sophisticated Violence.mp3
Channels : 2
Sample Rate : 44100
Precision : 16-bit
Duration : 00:02:18.96 = 6127960 samples = 10421.7 CDDA sectors
File Size : 5.83M
Bit Rate : 336k
Sample Encoding: MPEG audio (layer I, II or III)
Comments :
Title=Sophisticated Violence
Artist=TarthariA
Album=Punk’s Not Dead Yet
Tracknumber=02
Year=2020
Genre=9

[/more]

Register
(4) ASkyThatBurns, Olethros, Rosen, Сварог Барг,
Jan 24 2020, 15:12:14 Naser Mestarihi - Praed Street (2016)


*Artist: Naser Mestarihi
*Album: Praed Street
*Year: 2016
*Genre: Heavy Metal/Hard Rock
*Country: Qatar
*Format: mp3@CBR320kbps
*Size: 109MB

Tracklist:
1. Overture 00:42
2. Wicked Harlot 04:20
3. Enslaved 03:10
4. Animal 04:44
5. Fire 04:16
6. Winterburn 06:30
7. Back to the Bay 05:05
8. Heart of Stone 05:46
9. Birmingham Kiss 06:23
10. Prevail 06:18
******************************
Total playing time: 47:14




[more=Technical info]
Input File: 02. Wicked Harlot.mp3
Channels : 2
Sample Rate : 44100
Precision : 16-bit
Duration : 00:04:20.77 = 11500001 samples = 19557.8 CDDA sectors
File Size : 10.6M
Bit Rate : 325k
Sample Encoding: MPEG audio (layer I, II or III)
Comments :
Title=Wicked Harlot
Artist=Naser Mestarihi & Cobus Potgieter
Album=Praed Street
Tracknumber=2
Genre=Rock
Discnumber=1

[/more]

Register
(3) infiltrator, Rosen, Rover,
Jan 24 2020, 14:08:28 Lord Vapour - Mill Street Blues (2016)


*Artist: Lord Vapour
*Album: Mill Street Blues
*Year: 2016
*Genre: Stoner/Doom Metal/Rock
*Country: United Kingdom
*Format: mp3@CBR320kbps
*Size: 153MB

Tracklist:
1. Psychedelic Trousers 04:40
2. Knowledge Through Colour 05:56
3. Island Man 09:26
4. Cosmic Skies 06:33
5. Sugar Tits 05:36
6. Crossroads 07:33
7. Misty Meadows 09:18
8. Futu Rock 09:04
9. Bong Song 09:00
******************************
Total playing time: 1:07:06




[more=Technical info]
Input File: 02. Knowledge Through Colour.mp3
Channels : 2
Sample Rate : 44100
Precision : 16-bit
Duration : 00:05:56.23 = 15709655 samples = 26717.1 CDDA sectors
File Size : 14.3M
Bit Rate : 320k
Sample Encoding: MPEG audio (layer I, II or III)
Comments :
Title=Knowledge Through Colour
Artist=Lord Vapour
Album=Mill Street Blues
Tracknumber=2
Year=2016
Genre=(9)

[/more]

Register
(8) infiltrator, Olethros, Ostinato, Rosen, s810ic1, SatanicPanzer, stub888, VALERY,
Jan 24 2020, 14:01:42 Pearls To Swine - Light And Shade (1999)


*Artist: Pearls To Swine
*Album: Light And Shade
*Year: 1999
*Genre: Rock
*Country: Guyana
*Format: mp3@VBR246kbps
*Size: 77MB

Tracklist:
1. Tile Junkie (Explicit lyrics) 03:55
2. Bird of the flame 05:55
3. Stone cold 03:10
4. Ritualistic holocaust 03:16
5. Socio-love enraged 07:06
6. Machine of death (Explicit lyrics) 05:15
7. Ishun (Explicit lyrics) 02:54
8. Black sex (Explicit lyrics) 02:06
9. Taste the whip 03:10
10. Sanctum 06:07
******************************
Total playing time: 42:54




[more=Technical info]
Input File: 02 Bird of the flame.mp3
Channels : 2
Sample Rate : 44100
Precision : 16-bit
Duration : 00:05:55.13 = 15661409 samples = 26635 CDDA sectors
File Size : 11.3M
Bit Rate : 254k
Sample Encoding: MPEG audio (layer I, II or III)
Comments :
Title=Bird of the flame
Artist=Pearls to swine
Album=Light & shade
Tracknumber=2
Year=1998
Genre=17

[/more]

Register
(1) Olethros,
Jan 24 2020, 13:25:40 Mephostophilis - Craft Of Rotten Flesh (2018)


*Artist: Mephostophilis
*Album: Craft Of Rotten Flesh
*Year: 2018
*Genre: Technical Deathcore
*Country: Egypt
*Format: mp3@CBR320kbps
*Size: 90MB

Tracklist:
1. Brutality Shall Remain 02:53
2. Deathless Torment 05:53
3. Craft of Rotten Flesh 03:32 (instrumental)
4. Eternal Damnation 04:01
5. Eat My Flesh 03:49
6. Disposal of Mankind 04:57
7. Spiritual Entities 03:49 (instrumental)
8. Prince of Darkness 05:23
9. Infernal Genicide 04:30 (instrumental)
******************************
Total playing time: 38:47




[more=Technical info]
Input File: 02 - Deathless Torment.mp3
Channels : 2
Sample Rate : 48000
Precision : 16-bit
Duration : 00:05:53.12 = 16949520 samples ~ 26483.6 CDDA sectors
File Size : 14.2M
Bit Rate : 322k
Sample Encoding: MPEG audio (layer I, II or III)
Comments :
Title=Deathless Torment
Artist=Mephostophilis
Album=Craft Of Rotten Flesh
Tracknumber=02/09
Year=2018
Genre=9

[/more]

Register
(7) chipsgott, Foneg, infiltrator, maochen, Olethros, Rosen, terron,
Jan 24 2020, 12:48:10 Steel Brain - El Mundo Sufre (2018)


*Artist: Steel Brain
*Album: El Mundo Sufre
*Year: 2018
*Genre: Thrash Metal/Hardcore
*Country: Cuba
*Format: mp3@CBR128kbps
*Size: 45MB

Tracklist:
1. Intro
2. La Marcha Del Ciclope
3. Revelacion Del Thrash
4. El Mundo Sufre
5. Fetidez En Tu Corazon
6. Tiempo De Brillar
7. Ruidos En La Oscuridad
8. Rostros Falsos
9. Al Alcance De Una Lagrima
10. Y Que Tu Quieres Que Te Den (Cover Adalberto Alvares)
11. La Maquina Asesina
******************************
Total playing time: 48:53

[more=Technical info]
Input File: 02 - La Marcha Del Ciclope.mp3
Channels : 2
Sample Rate : 44100
Precision : 16-bit
Duration : 00:05:15.66 = 13920650 samples = 23674.6 CDDA sectors
File Size : 5.05M
Bit Rate : 128k
Sample Encoding: MPEG audio (layer I, II or III)
Comments :
Title=LA MARCHA DEL CICLOPE
Artist=Steel Brain
Album=El mundo sufre
Tracknumber=2
Year=2018

[/more]

Register
(3) Olethros, Rosen, stumpheavyrock,
Jan 24 2020, 12:31:27 From The Abyss - Ethereal World (2019)


*Artist: From The Abyss
*Album: Ethereal World
*Year: 2019
*Genre: Death Metal
*Country: Cuba
*Format: mp3@CBR320kbps
*Size: 122MB

Tracklist:
1. DoomSlayer
2. Hell's Gates
3. Imminent Death
4. A Poisonous Throne
5. Melting Human Bodies
6. Conjuring the Plague
7. The Final Judgment
8. For those who Speak
9. Your Redemption
10. The Legacy of Death
11. Pain
12. The World we Deserve
13. Scourge of Iron (Cannibal Corpse cover)
14. Where the Slime Live (Morbid Angel cover)
******************************
Total playing time: 51:42




[more=Technical info]
Input File: 02 Hell\'s Gates.mp3
Channels : 2
Sample Rate : 44100
Precision : 16-bit
Duration : 00:03:17.44 = 8707104 samples = 14808 CDDA sectors
File Size : 8.23M
Bit Rate : 333k
Sample Encoding: MPEG audio (layer I, II or III)
Comments :
Title=Hell's Gates
Artist=From the Abyss
Album=Ethereal World
Tracknumber=02
Year=2019
Genre=22

[/more]

Register
(8) AHBAnep, cesar, infiltrator, jollo, Occultas, Olethros, Rosen, wanderer73,
Jan 24 2020, 12:23:03 From The Abyss - Tales Of The Fallen (2017)


*Artist: From The Abyss
*Album: Tales Of The Fallen
*Year: 2017
*Genre: Death Metal
*Country: Cuba
*Format: mp3@CBR320kbps
*Size: 83MB

Tracklist:
1. Trough the Abyss
2. Visions of the Apocalypse
3. Buried Deep Beneath
4. Leading Tormented Souls
5. Night of Necro-Violence
6. Malleus Maleficarum
7. Path of the Cannibal
8. Primitive Horrors
9. Hanged to Death... But Living
10. Nocturnal the Beast
******************************
Total playing time: 36:26




[more=Technical info]
Input File: 02 Visions of the Apocalypse.mp3
Channels : 2
Sample Rate : 44100
Precision : 16-bit
Duration : 00:03:37.93 = 9610625 samples = 16344.6 CDDA sectors
File Size : 8.72M
Bit Rate : 320k
Sample Encoding: MPEG audio (layer I, II or III)
Comments :
Title=Visions of the Apocalypse
Artist=From the Abyss
Album=Tales of the Fallen
Tracknumber=2
Year=2018
Genre=(22)

[/more]

Register
(14) AHBAnep, andreikun, atavist, cesar, infiltrator, jollo, Occultas, Olethros, ripper33, Rosen, thenecromancer, VALERY, wanderer73, Герб,
Jan 24 2020, 10:40:02 Legion - Ejecutor (2008)


*Artist: Legion
*Album: Ejecutor
*Year: 2008
*Genre: Death Metal
*Country: Honduras
*Format: mp3@CBR128kbps
*Size: 35MB

Tracklist:
1. El entorno de las sombras 03:14
2. Esclavos 04:33
3. Motivados por el odio 04:36
4. La caída de la luz 05:07
5. Dominios 03:27
6. Guerras por la victoria 06:51
7. Por siempre rey 04:59
8. Ejecutor 05:13
******************************
Total playing time: 38:00


Preview 2

[more=Technical info]
Input File: 02 Esclavos.MP3
Channels : 2
Sample Rate : 44100
Precision : 16-bit
Duration : 00:04:33.98 = 12082650 samples = 20548.7 CDDA sectors
File Size : 4.40M
Bit Rate : 128k
Sample Encoding: MPEG audio (layer I, II or III)
Comments :
Title=Esclavos
Artist=Legion
Album=Ejecutor
Tracknumber=2
Year=2008
Genre=9

[/more]

Register
(6) infiltrator, jollo, Olethros, Rosen, Wail, wanderer73,
Jan 24 2020, 10:14:15 Inhuman Conspiracy - Miss Darkness Soul [demo] (2010)


*Artist: Inhuman Conspiracy
*Album: Miss Darkness Soul [demo]
*Year: 2010
*Genre: Melodic Death Metal
*Country: Venezuela
*Format: mp3@CBR192kbps
*Size: 21MB

Tracklist:
1. Miss Darkness Soul
2. Sarcophagidae
3. The Mirror of Lie
******************************
Total playing time: 15:00



[more=Technical info]
Input File: 02 Sarcophagidae.mp3
Channels : 2
Sample Rate : 44100
Precision : 16-bit
Duration : 00:06:12.01 = 16405421 samples = 27900.4 CDDA sectors
File Size : 8.93M
Bit Rate : 192k
Sample Encoding: MPEG audio (layer I, II or III)
Comments :
Artist=Inhuman Conspiracy
Album=Miss Darkness Soul
Year=2011
Genre=(9)

[/more]

Register
(5) infiltrator, Olethros, Rosen, thenecromancer, wanderer73,
Jan 24 2020, 09:54:53 Hellbents Rise - Genesis (2015)


*Artist: Hellbents Rise
*Album: Genesis
*Year: 2015
*Genre: Metalcore/Groove/Thrash Metal
*Country: Venezuela
*Format: mp3@CBR320kbps
*Size: 107MB

Tracklist:
1. Inner War
2. Dead Armies
3. Burn The Prayer
4. Blackwater
5. Im A Witness
6. Genesis - Aplocalíptic Stargaze
7. The Last Man Standing
8. Blood In My Hands
9. Spit On Your Grave
10. The Hate Is In Your Blood
11. Crown Of Bones
******************************
Total playing time: 47:01




[more=Technical info]
Input File: 03 Burn The Prayer.mp3
Channels : 2
Sample Rate : 44100
Precision : 16-bit
Duration : 00:03:52.64 = 10259424 samples = 17448 CDDA sectors
File Size : 9.30M
Bit Rate : 320k
Sample Encoding: MPEG audio (layer I, II or III)
Comments :
Title=Burn The Prayer
Artist=Hellbents Rise
Album=Genesis
Tracknumber=3
Year=2015
Genre=9

[/more]

Register
(5) boby9052, infiltrator, Olethros, Rosen, TeamatSE,
Jan 24 2020, 09:25:17 Gravelord - A Feast For Clowns [ep] (2016)


*Artist: Gravelord
*Album: A Feast For Clowns [ep]
*Year: 2016
*Genre: Melodic Death Metal
*Country: Venezuela
*Format: mp3@CBR256kbps
*Size: 29MB

Tracklist:
1. The Parade 00:47 (instrumental)
2. Clown 04:19
3. You Will Fall 03:45
4. Oblivion 02:54
5. Words of Rage and Despair 03:52
******************************
Total playing time: 15:37




[more=Technical info]
Input File: 02. Clown.mp3
Channels : 2
Sample Rate : 44100
Precision : 16-bit
Duration : 00:04:19.07 = 11425075 samples = 19430.4 CDDA sectors
File Size : 8.42M
Bit Rate : 260k
Sample Encoding: MPEG audio (layer I, II or III)
Comments :
Title=Clown
Artist=Gravelord
Album=A Feast for Clowns
Tracknumber=2/5
Year=2016
Genre=9

[/more]

Register
(4) infiltrator, Olethros, Rosen, wanderer73,
Jan 24 2020, 08:49:22 Kav - Sorrow And Fear: Year One [compilation] (2017)


*Artist: Kav
*Album: Sorrow And Fear: Year One [compilation]
*Year: 2017
*Genre: Black/Death Metal
*Country: United States
*Format: mp3@VBR269kbps
*Size: 129MB

Tracklist:
1. I 01:53
2. II 02:37
3. III 02:11
4. IV 01:32
5. V 04:41
6. Siphon 01:52
7. Patient Zero 03:19
8. The Lasting Dose (Crowbar cover) 04:08
9. Infest 02:50
10. Hecatomb 01:56
11. Pig 00:42
12. Tragedian 01:07 (instrumental)
13. Transfixed 01:47
14. Strangle 03:28
15. Below 03:18
16. Disenchant 01:42
17. Despise 01:12
18. Deny 02:04
19. Deceive 01:33
20. I Dreamt of Licking Black Flames 01:44
21. I Dreamt of Gnawing Black Rats 01:25
22. I Dreamt of Rushing Black Waters 02:29
23. I Dreamt of Sawing Black Knives 02:09
24. I Dreamt of Cutting Black Winds 01:01 (instrumental)
25. Weeping and Shuddering, From Cages They Were Led 03:59
26. Where the Tongues of Dogs Cannot Reach 04:12
27. Her Heart Pierced by Seven Swords 02:31
28. Three Flames of the Lantern 02:27
******************************
Total playing time: 1:05:49




[more=Technical info]
Input File: 04 Kav - Sorrow and Fear- Year One - 04 IV.mp3
Channels : 2
Sample Rate : 44100
Precision : 16-bit
Duration : 00:01:32.13 = 4063065 samples = 6909.97 CDDA sectors
File Size : 3.24M
Bit Rate : 282k
Sample Encoding: MPEG audio (layer I, II or III)
Comments :
Title=IV
Artist=Kav
Album=Sorrow and Fear: Year One
Tracknumber=4
Year=2017
Genre=9

[/more]

Register
(7) infiltrator, Ludwig Hagen, Olethros, Rosen, VALERY, Wail, wanderer73,
Jan 24 2020, 08:24:43 Collateral Detriment - Genesis [ep] (2019)


*Artist: Collateral Detriment
*Album: Genesis [ep]
*Year: 2019
*Genre: Melodic Death Metal
*Country: Venezuela
*Format: mp3@CBR320kbps
*Size: 32MB

Tracklist:
1. Altered For Genocide
2. Rain Of Fire
3. Cyber Control
******************************
Total playing time: 14:04



[more=Technical info]
Input File: 01 Altered For Genocide.mp3
Channels : 2
Sample Rate : 44100
Precision : 16-bit
Duration : 00:04:15.00 = 11245500 samples = 19125 CDDA sectors
File Size : 10.2M
Bit Rate : 320k
Sample Encoding: MPEG audio (layer I, II or III)
Comments :
Artist=Collateral Detriment
Album=Génesis
Year=2019
Genre=(9)

[/more]

Register
(4) infiltrator, Olethros, Rosen, wanderer73,
Jan 24 2020, 08:06:51 Hitten - Don't Be Late [single] (2015)


*Artist: Hitten
*Album: Don't Be Late [single]
*Year: 2015
*Genre: Heavy Metal
*Country: Spain
*Format: mp3@CBR128kbps
*Size: 13MB

Tracklist:
1. Don't Be Late 05:24
2. Red Lights 04:45
3. Shout & Cry (Mad Max cover) 03:46
******************************
Total playing time: 13:55




[more=Technical info]
Input File: 2 Red Lights.mp3
Channels : 2
Sample Rate : 44100
Precision : 16-bit
Duration : 00:04:45.28 = 12580980 samples = 21396.2 CDDA sectors
File Size : 4.57M
Bit Rate : 128k
Sample Encoding: MPEG audio (layer I, II or III)
Comments :
Artist=Hitten
Album=Don't Be Late
Year=2015
Genre=9

[/more]

Register
(4) Olethros, Rosen, stumpheavyrock, Wail,
Jan 24 2020, 08:01:53 Between Aliens & Humans - Inception... (2018)


*Artist: Between Aliens & Humans
*Album: Inception...
*Year: 2018
*Genre: Melodic Death Metal/Metalcore
*Country: Venezuela
*Format: mp3@CBR320kbps
*Size: 85MB

Tracklist:
1. Lights in the Sea of Tranquillity 01:25
2. Remember Tesla 04:17
3. Believe 05:01
4. The Prophecy (I See the End) 04:30
5. The Dark Side 04:15
6. We Are Not Alone 03:53
7. Chernobyl 04:00
8. Beyond the Gray 04:16
9. When Everything Is Over 05:08
******************************
Total playing time: 36:45




[more=Technical info]
Input File: 02 Remember Tesla.mp3
Channels : 2
Sample Rate : 44100
Precision : 16-bit
Duration : 00:04:18.05 = 11380049 samples = 19353.8 CDDA sectors
File Size : 10.4M
Bit Rate : 322k
Sample Encoding: MPEG audio (layer I, II or III)
Comments :
Title=Remember Tesla
Artist=Between Aliens & Humans
Album=Inception...
Tracknumber=2
Year=2018
Genre=9

[/more]

Register
(6) chipsgott, Ludwig Hagen, Olethros, Rosen, TeamatSE, Сварог Барг,
Jan 24 2020, 07:52:03 Azif - Esquizofrenia [ep] (2007)


*Artist: Azif
*Album: Esquizofrenia [ep]
*Year: 2007
*Genre: Melodic Death Metal
*Country: Venezuela
*Format: mp3@VBR217kbps
*Size: 34MB

Tracklist:
1. Sobreviviendo 05:38
2. Juegos 03:15
3. Versos 03:54
4. Espiritus 02:23
5. Revelacion 02:14
6. Esquizofrenia 04:04
******************************
Total playing time: 21:28




[more=Technical info]
Input File: 02. Cadenas.mp3
Channels : 2
Sample Rate : 44100
Precision : 16-bit
Duration : 00:03:15.40 = 8616920 samples = 14654.6 CDDA sectors
File Size : 5.92M
Bit Rate : 242k
Sample Encoding: MPEG audio (layer I, II or III)
Comments :
Title=Cadenas
Artist=Azif
Album=Esquizofrenia
Tracknumber=02
Year=2007
Genre=9

[/more]

Register
(3) Olethros, Rosen, wanderer73,
Jan 24 2020, 07:47:30 Disaster Prophet - Virus Sapiens (2015)


*Artist: Disaster Prophet
*Album: Virus Sapiens
*Year: 2015
*Genre: Modern Death/Groove Metal
*Country: Venezuela
*Format: mp3@CBR320kbps
*Size: 110MB

Tracklist:
1. Outbreak
2. Fallen Andromeda
3. Beautiful Chaos
4. Opression
5. You Betrayer
6. Virus Sapiens
7. Redemption
8. Poorvolution
9. Insecurity
10. Presagios de Quimera
11. Heroes
12. Harakiri
13. Hammer Blast
******************************
Total playing time: 48:14




[more=Technical info]
Input File: 02 Fallen Andromeda.mp3
Channels : 2
Sample Rate : 44100
Precision : 16-bit
Duration : 00:03:39.83 = 9694327 samples = 16487 CDDA sectors
File Size : 8.79M
Bit Rate : 320k
Sample Encoding: MPEG audio (layer I, II or III)
Comments :
Title=Fallen Andromeda
Artist=Disaster Prophet
Album=Virus Sapiens
Tracknumber=2
Year=2015
Genre=Death Metal

[/more]

Register
(3) Olethros, Rosen, TeamatSE,
Jan 23 2020, 15:46:16 Mantra - Complexity [ep] (2018)


*Artist: Mantra
*Album: Complexity [ep]
*Year: 2018
*Genre: Melodic Death Metal
*Country: Venezuela
*Format: mp3@CBR320kbps
*Size: 62MB

Tracklist:
1. Birth (Complexity) 02:05
2. ...and Be Remembered as One of the Braves 04:34
3. Wake Up Call 04:37
4. Rebirth (Transfix) 01:41 instrumental
5. The Book 04:40
6. Meaning Less 03:42
7. Writing in the Sand (Johan Mena Remix) 04:58
******************************
Total playing time: 26:17




[more=Technical info]
Input File: 03 Wake Up Call.mp3
Channels : 2
Sample Rate : 44100
Precision : 16-bit
Duration : 00:04:38.07 = 12262667 samples = 20854.9 CDDA sectors
File Size : 11.4M
Bit Rate : 327k
Sample Encoding: MPEG audio (layer I, II or III)
Comments :
Title=Wake Up Call
Artist=Mantra
Album=Complexity
Tracknumber=3
Year=2018
Genre=Metal

[/more]

Register
(9) AHBAnep, FuneralWolf, infiltrator, morbidangelo, Olethros, Rosen, sergsazan, VALERY, Сварог Барг,
Jan 23 2020, 15:44:19 Mantra - In Solitude... I'll Watch You Fall (2014)


*Artist: Mantra
*Album: In Solitude... I'll Watch You Fall
*Year: 2014
*Genre: Melodic Death Metal
*Country: Venezuela
*Format: mp3@CBR320kbps
*Size: 130MB

Tracklist:
1. Writing in the Sand 03:44 (instrumental)
2. Symbolic Moments 05:36
3. Reflected on Blood 04:50
4. Hate Lay Hidden 04:31
5. Away from the Shore 04:25
6. Rapid Eye Movement 04:00
7. Fear What You Will Become 05:02
8. Prayers of the Unseen 03:39
9. On the Threshold 03:59
10. Safe in the Wound 05:43
11. Bleeding Scars 03:58
12. Messages Were Left 04:48
13. It's Time 02:27
******************************
Total playing time: 56:42




[more=Technical info]
Input File: 02 Symbolic Moments.mp3
Channels : 2
Sample Rate : 44100
Precision : 16-bit
Duration : 00:05:36.46 = 14837974 samples = 25234.6 CDDA sectors
File Size : 13.5M
Bit Rate : 320k
Sample Encoding: MPEG audio (layer I, II or III)
Comments :
Artist=Mantra
Album=In Solitude... I'll Watch You Fall
Tracknumber=02
Year=2014
Genre=9

[/more]

Register
(11) AHBAnep, FuneralWolf, infiltrator, morbidangelo, nord6666, Olethros, Rosen, sergsazan, VALERY, Герб, Сварог Барг,

235 Pages V   1 2 3 > » 
- Lo-Fi Version Support form
Copyrights and abuse reports form
Time is now: 28th January 2020 - 05:39:26