Welcome Guest ( Log In | Register )

История благодарностей участнику acerbus ::: Спасибо сказали: 3413 раз(а)
Дата поста: В теме: За сообщение: Спасибо сказали:
Oct 18 2019, 11:23:51 [Amatory] - Doom (2019)
Класс, наконец-то настоящая музыка на портале!!! metaler.gif
(4) garmonbozia, infiltrator, Nattfodd, vosmidesijatye,
Oct 12 2019, 18:56:18 Dödfödd - Stigma (2019)
ЦИТАТА(Dmitry1977 @ 12th October 2019 - 20:29:29) *
В целом назвать это Блэком даже непонятно как ... Набор рудиментов и прочих барабанных тарахтелок. Хотя что-то в этом есть, эдакая экстремальная разновидность эмбиента
ЦИТАТА(Necrokilldozer @ 11th October 2019 - 20:11:57) *
Atum - Drums, Vocals (Reverorum ib Malacht, ex-AnXpm, PCT, Sekten, ex-Emit, ex-Ofermod, ex-Ix Eagodos, ex-Symphonia Sacrosancta Phasmatvm)
Johan Gustafsson - Unknown (Reverorum ib Malacht, Sekten)
Ну да, кто бы мог подумать, что всё здесь будет именно так 13.gif
(2) Kazoth, RUSP73,
Oct 3 2019, 18:27:50 Петиция по поводу "Не закрывать лоубитрейтные темы при появлении более высокого качества"
Если в данном направлении что и предпринимать, то только закрытие лоу-топиков.
Может и обсуждения станут чуть более осмысленными, когда у участников уже появятся какие-никакие впечатления от прослушанного, а всех этих первонахов и прочей стрельбы горошком будет по минимуму.
(2) BleedingSun, Lux,
Sep 20 2019, 20:10:35 Autumn Heart - The Deaths Of Summer (2019)
Наконец-то!

Только разве это Канада? Это ж Дом Ферноу и Крис Лапке вроде, а они Нью-Йоркцы оба.
(1) Daale,
Aug 11 2019, 16:12:40 Thy Serpent & Ash Pool - Thy Serpent/Ash Pool [split] (2019)


*Artist: Thy Serpent & Ash Pool
*Album: Thy Serpent/Ash Pool [split]
*Year: 2019
*Genre: Black Metal | Black Metal
*Country: Finland | United States
*Format: mp3@CBR320kbps
*Size: 27MB

Tracklist:
Thy Serpent:
01. Impaled By a Thousand Shadows 06:53
Ash Pool:
02. Dogs Rape Her 04:35
******************************
Total playing time: 11:28

[more=Extended info]KVLT / Tour De Garde[/more]

[more=Technical info]
Input File: 02. Ash Pool - Dogs Rape Her.mp3
Channels : 2
Sample Rate : 44100
Precision : 16-bit
Duration : 00:04:35.03 = 12128911 samples = 20627.4 CDDA sectors
File Size : 11.0M
Bit Rate : 321k
Sample Encoding: MPEG audio (layer I, II or III)
Comments :
Title=Dogs Rape Her
Artist=Ash Pool
Album=Thy Serpent / Ash Pool
Tracknumber=02/02
Year=2019
Genre=Black Metal
Discnumber=1/1

[/more]

Register
(48) 1968_janeart, 6666666, abob, ahp, Alexis The Best, Apollyonthrone, artscald, BERZERK, Boozer, cancer1974, garmonbozia, Golodomor, Hell_Is_Here, Ildjarn, Infidel, infiltrator, Kazoth, kim666, KKK1488, kluval, Lanceatum, lestllk, lucifix, Ludwig Hagen, metalwoman, Moonshtook, Necromayhem, nemx, nord6666, Old Vyaine, OldY, Ostinato, princeshr, recber, ripper33, robertho777, Rosen, satanist666, SilentNidhogg, smysl, stub888, thenecromancer, the_cleanser, vasiljev_sergej, wreak, Zahrim, Zenial, Абигор,
Aug 2 2019, 18:44:52 Vothana - Không Bao Giờ Nộp/Never To Submit (2019)
С предыдущим творчеством не знаком, но этот альбом реально ломовейший, возможно альбом года.
(2) Fess, infiltrator,
Jul 8 2019, 17:55:07 Новости Black-направления
ЦИТАТА(elsunga @ 8th July 2019 - 06:48:44) *
Ash Pool/Thy Serpent
Более внезапного соседства с ходу представить себе трудно 17.gif
Тем интереснее, впрочем. Знать бы ещё, что за материал там: новый или лефтоверы какие-то.
(2) Deze, infiltrator,
Jun 29 2019, 11:19:39 Blue Hummingbird On The Left - Atl Tlachinolli (2019)
Действительно, прогрессивный блэк-дэт с индейским колоритом, веяниями Voivod и кучей цепких риффов - трудно придумать что-то более рядовое 1488.gif
(1) vosmidesijatye,
Jun 26 2019, 20:27:43 Лучшие Black Metal релизы 2019
Навскидку если брать, то тир-1:
Funereal Presence, Autumn Heart, Departure Chandelier
тир-2:
Drastus, Malhkebre, Imha Tarikat, Blue Hummingbird On The Left

Плюс довольно мощный миник получился у Blåkulla ‎– An Almighty Sacrifice.

На текущий момент как-то так запомнилось, но многое ещё, конечно, не слушал/не расслушал.
(3) infiltrator, judaz, TDM,
Jun 25 2019, 17:15:02 Новости Black-направления
from BLACK CILICE - Transfixion Of Spirits (September 6th, 2019):

[youtube]a-AG14J0j2Y[/youtube]

- IRON BONEHEAD PRODUCTIONS -
(6) Alexis The Best, Daale, energo68, infiltrator, Premature_Devotion, sethurius,
Jun 22 2019, 12:25:52 Old Tower - Drachenblut [ep] (2018)

Новый миник вышел.
(1) Occultas,
Jun 16 2019, 12:20:43 Deathspell Omega - The Furnaces Of Palingenesia (2019)
Какой-то эрзац-Параклетус получился.
В рамках "лучшие релизы недели/месяца" упомянуть точно стоило бы, но для Омеги это скорее слабо.
(3) garmonbozia, Ghostb, infiltrator,
Jun 15 2019, 11:49:07 Metallica - Metallica (1991)
ЦИТАТА(vo140182fav @ 15th June 2019 - 13:22:59) *
Можете бросать в меня гнилыми помидорами (а лучше долларовыми бумажками ), но все-таки, считаю, что Металлика не писала сама свои классические работы (за исключением дебютника, написаного наполовину Мастейном).
Конечно же не сама, а как обстояло дело в действительности, уже доподлинно известно:
[youtube]AdE7yos6COw[/youtube]
(1) technoboy69,
Jun 4 2019, 13:44:23 Darkthrone - Old Star (2019)
ЗА ЧТО
(10) 6666666, Aresson, Arseniy, Exorcist, garmonbozia, Ghostb, infiltrator, nadin85, Razorbladeswaltz, Tular,
Jun 1 2019, 20:08:46 Misþyrming - Algleymi (2019)
ЦИТАТА(CinekWG @ 1st June 2019 - 22:00:54) *
That's not the same version
Ты вообще нормальный? 13.gif
FLAC у тебя уже есть, транскодни его во что твоей душе угодно и заполни тэги на свой вкус 21.gif
(2) Borderline1991, Ghostb,
May 28 2019, 18:09:23 Rammstein - Rammstein (2019)
ЦИТАТА(adeptus_custodes @ 28th May 2019 - 14:36:32) *
Вот интересно, у меня СПГС начался, или в клипе Radio с кадрами Берлинской радиостанции клавиши специально под берлинскую же электронику в стиле Фрёзе и Шульце звучат?
Ну да, скорее всего специально так.

Новый клип:
[youtube]pat2c33sbog[/youtube]
(3) 6666666, infiltrator, Winter Funeral,
May 25 2019, 10:47:40 Deathspell Omega - The Furnaces Of Palingenesia (2019)
ЦИТАТА(Old Vyaine @ 25th May 2019 - 12:35:31) *
Да, значительно хуже.
Большое спасибо, что просветил.
(4) Exorcist, garmonbozia, Ghostb, infiltrator,
May 18 2019, 23:36:26 Океан Мессиобожателей на Невском, или Голосовалка за лучший альбом 2018 года, ФИНАЛ
Judas Priest

Beyond Creation
(1) infiltrator,
May 15 2019, 22:18:22 Rammstein - Rammstein (2019)
ЦИТАТА(assonik @ 16th May 2019 - 00:15:37) *
Все таки еще больше говна кусок чем ЛИФАД. Ждем бомбежку Сапрыкина
О да, с замиранием сердца дожидаемся pray.gif
(3) infiltrator, Shadowman, vosmidesijatye,
May 15 2019, 11:29:37 Triumph, Genus - Po Vrhu Vždy Je Prázdno Kolébek (2019)


*Artist: Triumph, Genus
*Album: Po Vrhu Vždy Je Prázdno Kolébek
*Year: 2019
*Genre: Black Metal
*Country: Czech Republic
*Format: mp3@CBR320kbps
*Size: 78MB

Tracklist:
01. Nahlížím přes okraj hrobových jam 05:02
02. Byli jsme rozděleni, nese se celým řádem 03:28
03. Snad jste do země zaseti 05:53
04. Vidím ten spěch pojit osudy, zničenou paměť vašich těl 04:48
05. Po vrhu vždy je prázdno kolébek 04:06
06. Sledovat skladbu, polohu i tvar dříve, než přijdou k sobě 04:36
07. Dále se netřeba zabývat. Lépe se nadchnout něčím vyšším 05:01
******************************
Total playing time: 32:54




[more=Extended info]New Era Productions - NEP92
Recorded in 2018.[/more]

[more=Technical info]
Input File: 05 - Po vrhu vzdy je prazdno kolebek.mp3
Channels : 2
Sample Rate : 44100
Precision : 16-bit
Duration : 00:04:06.87 = 10886967 samples = 18515.2 CDDA sectors
File Size : 9.91M
Bit Rate : 321k
Sample Encoding: MPEG audio (layer I, II or III)
Comments :
Title=Po vrhu vždy je prázdno kolébek
Artist=Triumph, Genus
Album=Po Vrhu Vždy Je Prázdno Kolébek
Tracknumber=05/07
Year=2019
Genre=Black Metal
Discnumber=1/1

[/more]

Register
(39) 1968_janeart, Asle, Boozer, DarkHorde, djsema4, elsunga, Emhyr var Emreis, Fryz, garmonbozia, Hell_Is_Here, Ildjarn, judaz, kim666, Metalass, MMMMM, nadin85, nsk2008, Olethros, Ostinato, Panacea, peppuzzo, Precaria, robertho777, Rosen, Samogon, Sangreal, satanist666, SilentNidhogg, smysl, sor, SyncestrA, Tular, VALERY, varg-38ru, vasiljev_sergej, Velmi, vov7609, yuratroll, Абигор,
May 13 2019, 13:20:02 Mütiilation - The Lost Tapes [compilation] (2018)


*Artist: Mütiilation
*Album: The Lost Tapes [compilation]
*Year: 2018
*Genre: Black Metal
*Country: France
*Format: mp3@CBR320kbps
*Size: 93MB

Tracklist:
01. Transylvania 06:13
02. To the Memory of the Dark Countess 06:39
03. Black Imperial Blood 05:27
04. Born under the Master's Spell 05:25
05. Through the Funeral Maelstrom of Evil 08:15
06. My Travels to Sadness, Hate and Depression 06:58
******************************
Total playing time: 38:57




[more=Extended info]Winter 2009-2010, Meyhnach decides to re-record some Mutiilation's classics during one of his lonely rehearshals. Those 6 pieces were not supposed to be released and must be considered more like working tapes. Though this material is interesting as those versions propose some old songs with a different raw sound and maybe better recording skills. Those tapes were lost for years in Meyhnach's archives and are now available exactly as they sounded. A testimony of Mutiilation's grim past...[/more]

[more=Technical info]
Input File: 01 - Transylvania.mp3
Channels : 2
Sample Rate : 44100
Precision : 16-bit
Duration : 00:06:13.10 = 16453886 samples = 27982.8 CDDA sectors
File Size : 15.0M
Bit Rate : 323k
Sample Encoding: MPEG audio (layer I, II or III)
Comments :
Title=Transylvania
Artist=Mütiilation
Album=The Lost Tapes
Tracknumber=01/06
Year=2018
Genre=Black Metal
Discnumber=1/1

[/more]

Register
(48) 1968_janeart, abob, Alexis The Best, babanguida, biroutios, bka, canadaspaceman, ChaosArcana, dermarsoran, Emhyr var Emreis, Femto, Friis, garmonbozia, gena, Hell_Is_Here, Ildjarn, infiltrator, khestanow3001, lestllk, marilin, NachtWulf, Occultas, Olethros, Ostinato, peppuzzo, Reverend, ripper33, Rosen, RUSP73, SadistikSlayer, Sangreal, satanist666, sethurius, SilentNidhogg, stub888, stumpheavyrock, thenecromancer, the_cleanser, uk82, VALERY, varg-38ru, vasiljev_sergej, Velmi, Vidder242, Vladimir102, wreak, ZambuL, Абигор,
May 7 2019, 18:09:33 Альбом 2018 года в жанре technical / progressive death. Финал
ЦИТАТА(Arseniy @ 7th May 2019 - 16:35:48) *
Я его послушал четыре раза. Раз после выхода и три, как обычно, перед С-ми.
Мне и с трёх раз всё стало кристально очевидно, особенно на фоне многократно отслушанных предыдущих совсем недавно (для прежних совалок).

Это первый альбом, в который они сподобились завезти музыки заместо безупречного спорта, и эта музыка выше всяких похвал.
(1) mirotvorets,
May 7 2019, 13:58:00 Альбом 2018 года в жанре technical / progressive death. Финал
ЦИТАТА(Deze @ 7th May 2019 - 15:35:13) *
А у ВС прошлогодний альбом, имхо, тянет максимум на "неплохо", что, разумеется, мало чтобы быть в сабжевом финале.
У BC лучший альбом в дискографии, и самый музыкально убедительный альбом в голосовании. Лучшие здесь вместе с Реками. А Обскура и рядом не валялась.
Вот к Садисту то, что ты написал подходит как нельзя кстати, это правда.
(1) mirotvorets,
May 7 2019, 12:26:28 Альбом 2018 года в жанре technical / progressive death. Финал
ЦИТАТА(Deze @ 7th May 2019 - 14:21:43) *
Нормальные итоги. Даже хорошие - если учесть очень справедливое расслоение между двумя действительно претендентами и двумя непонятно что здесь забывшими альбомами.
Если Beyond Creation непонятно что здесь забыли, тогда Обскуре здесь и подавно не место.
(1) Ghostb,
May 2 2019, 19:31:00 Новости Black-направления
Ну трэк-то кстати не зашёл что-то, звучит как конкретное такое топтание на месте.
Но с глобальными выводами повременим, тем более первый трэк с Параклетуса в своё время тоже сначала не понравился.
(2) abob, infiltrator,

25 Pages V   1 2 3 > » 
- Lo-Fi Version Support form
Copyrights and abuse reports form
Time is now: 22nd October 2019 - 22:04:04