Welcome Guest ( Log In | Register )

История благодарностей участнику Funeral Frost ::: Спасибо сказали: 45429 раз(а)
Дата поста: В теме: За сообщение: Спасибо сказали:
Jul 11 2018, 15:00:20 Sewer - Rektal (2018)
как
они интересно
расположили названия
по длине
(2) Dantalian, infiltrator,
Jul 2 2018, 18:51:22 Новости DOOM Metal
Новый альбом Until Death Overtakes Me через месяц.
Называется Missing и является продолжением идей одноименного трека с альбома Prelude to Monolith 2003 года. Кстати это одна из моих любимых композиций UDOM вобще.



Треклист:
1. Never Found 14:32
2. To Never Return 15:22
3. Never Lived 18:41
4. Beyond Hope Forgotten 16:55
(1) gena,
Jun 18 2018, 09:21:20 Новости DOOM Metal
Обложечку грядущего возвращения Dusk вроде не постили еще. EP уже готов и скоро должен выйти

(4) 6666666, Old Vyaine, suseka, Un4given,
Jun 14 2018, 07:25:35 Новости DOOM Metal
ЦИТАТА(6666666 @ May 13 2018, 00:06:27) *
Где там Пантеист, чёрт возьми? И Ценотаф.


14 сентября
(7) 6666666, BERZERK, Old Vyaine, RUDACHUR, Tular, Un4given, vasilisk,
Jan 25 2018, 17:33:17 Monolithe - Nebula Septem (2018)
Давно уже не фюнерал. Можно забыть про эту группу.
(4) Fess, Razorbladeswaltz, vosmidesijatye, Winter Funeral,
Jan 19 2018, 16:05:10 Geodaehan - Demo II, MMXVI [demo] (2018)


*Artist: Geodaehan
*Album: Demo II, MMXVI [demo]
*Year: 2018
*Genre: Funeral Doom Metal
*Country: Norway
*Format: mp3@CBR320kbps
*Size: 95MB

Tracklist:
1. Worldender 41:14
******************************
Total playing time: 41:14



[more=Technical info]
Input File: 01 - Worldender.mp3
Channels : 2
Sample Rate : 44100
Precision : 16-bit
Duration : 00:41:14.63 = 109131095 samples = 185597 CDDA sectors
File Size : 99.0M
Bit Rate : 320k
Sample Encoding: MPEG audio (layer I, II or III)
Comments :
Title=Worldender
Artist=Geodaehan
Album=Demo II, MMXVI
Tracknumber=1
Year=2018

[/more]

Register
(14) cancer1974, cuerpofalaz, Fatalist77791, Friman, Hell_Is_Here, krotovich, LordTenegnum, marilin, Rosen, stub888, thenecromancer, VALERY, varlam4, Wolftribes,
Jan 16 2018, 18:28:14 Новости DOOM Metal
Mournful Congregation - The Incubus of Karma
23 марта
[youtube]b-Mu6mhCXA8[/youtube]
(4) 6666666, Borderline1991, Old Vyaine, Wise.man,
Jan 5 2018, 15:14:44 Bloodbark - Bonebranches (2018)
Мне понравилось. Хотел запостить, а уже есть.
(1) Daale,
Dec 18 2017, 17:27:33 Morbosidad - Corona De Epidemia (2017)
Где вы вобще берете такие огрызки альбомов? И не понятно зачем сюда вобще лить такое. Если это вебрип 128кбпс для превью то понятно, а это не понятно зачем. Еще и aesteticvice как обычно чето свое тут хотел пропихнуть, что на деле такой же хлам.
(1) Samaritianin,
Dec 5 2017, 19:19:01 Hooded Menace - Ossuarium Silhouettes Unhallowed (2018)
aesteticvice,
ты в своем сообщении пишешь что все версии семитрековые. это не правда. я тебе кинул пруф что ты врешь. так что данная версия имеет право на жизнь также как и твой хевидес который тоже не максимальный вариант.

ЦИТАТА(aesteticvice @ 5th December 2017 - 15:32:29) *
Нет 7 трэка, в файнд, все возможные версии семитрэковые (винил, кассета, диги, лимитед, цифровые...)

(1) Samaritianin,
Dec 5 2017, 15:13:29 Hooded Menace - Ossuarium Silhouettes Unhallowed (2018)
твои пруфы не пруфы 1488.gif
на виниле нет бонус трека для этого релиза
сейчас сабж нельзя нигде скачать официально. он еще не вышел.

а тот альбом тоже был выложен до релиза. я лично не вижу между ними разницы:
1. оба выложены до релиза
2. одна из официальных версий будущего релиза имеет указанный релизером треклист

почему твой релиз значит хороший а этот плохой?

едит: надо запретить тебе редактировать свои сообщения по 20 раз 1488.gif я ничей не адвокат. мне просто смешно смотреть на тебя как ты льешь помои на другие релизы а у самого такие же.
(3) 6666666, necroscum, Samaritianin,
Dec 5 2017, 14:25:05 Hooded Menace - Ossuarium Silhouettes Unhallowed (2018)
aesteticvice,
ты бы за своими релизами так же хорошо следил 1488.gif
залил какой-то огрызок от альбома и управился, модеры не заметили и доволен
Heavydeath - Sarcophagus In The Sky (2017)
(1) Samaritianin,
Sep 29 2017, 09:51:02 Imperceptum - Aeons Of Saturnine Desolation (2017)
Вчера послушал. Лучше бы они работали над качеством а не количеством.
(1) Chasm,
Jul 31 2017, 13:06:58 Reverorum Ib Malacht - Ter Agios Numini (2017)


*Artist: Reverorum Ib Malacht
*Album: Ter Agios Numini
*Year: 2017
*Genre: Experimental Black Metal/Ritual Ambient
*Country: Sweden
*Format: mp3@CBR320kbps
*Size: 109MB

Tracklist:
1. Synestesi 05:31
2. Long Into the Time Beyond 21:31
3. Reverorum ib Malachtum 03:10
4. Dwellings are His That Die 17:33
******************************
Total playing time: 47:45



[more=Technical info]
Input File: 04 - Dwellings Are His That Die.mp3
Channels : 2
Sample Rate : 44100
Precision : 16-bit
Duration : 00:17:35.22 = 46535378 samples = 79141.8 CDDA sectors
File Size : 42.2M
Bit Rate : 320k
Sample Encoding: MPEG audio (layer I, II or III)
Comments :
Title=Dwellings Are His That Die
Artist=Reverorum Ib Malacht
Album=Ter Agios Numini
Tracknumber=04
Year=2017

[/more]

Register
(50) 1968_janeart, abob, acerbus, Amsterdam, Black Cat, Blut aus Nord, Boozer, Buregon, garmonbozia, GTrooper, Hell_Is_Here, Hipgnosis, Infidel, infiltrator, judaz, kauyumari, Kazoth, kim666, marilin, mazoy, milosdjor, mizantrophist, Mortuusinfernus, NachtWulf, nadin85, Occultas, oldvarg, Ostinato, postal67, Premature_Devotion, rom666, Rosen, sarcophagus, satanist666, shial, smysl, SSBandera, stub888, Sylvi, Themaxx1349, thenecromancer, Torlof, user1801, valafar, VALERY, varg-38ru, Wolfera, Wolftribes, xska, Абигор,
Jul 29 2017, 19:36:49 Goatblood - Goatblood [demo] (2015)


*Artist: Goatblood
*Album: Goatblood [demo]
*Year: 2015
*Genre: Black Metal
*Country: Australia
*Format: mp3@CBR320kbps
*Size: 64MB

Tracklist:
1. Intro 02:14
2. Transylvanian Creep 02:44
3. Graves of the Besmirsch 03:22
4. Supreme Triumph of Evil 04:09
5. Ancestral Crusade 06:02
6. Psychotic Masters Void 05:49
7. Outro 01:40
******************************
Total playing time: 26:00

[more=Technical info]
Input File: 02 - Transylvanian Creep.mp3
Channels : 2
Sample Rate : 44100
Precision : 16-bit
Duration : 00:02:54.62 = 7700786 samples = 13096.6 CDDA sectors
File Size : 6.99M
Bit Rate : 320k
Sample Encoding: MPEG audio (layer I, II or III)
Comments :
Title=Transylvanian Creep
Artist=Goatblood
Album=Goatblood
Tracknumber=2
Year=2015
Genre=Black Metal

[/more]

Register
(21) 1968_janeart, Alexis The Best, Anhra Mainyu, Blut aus Nord, Hell_Is_Here, Ildjarn, kim666, maringlen, Orkkh, Ostinato, Pinhead666, Raw1488, rebornflms95, rom666, Rosen, RUSP73, satanist666, stub888, varlam4, vasiljev_sergej, Абигор,
Jul 29 2017, 19:36:21 Salvation - Demo IV [demo] (2015)


*Artist: Salvation
*Album: Demo IV [demo]
*Year: 2015
*Genre: Black Metal
*Country: Australia
*Format: mp3@CBR320kbps
*Size: 36MB

Tracklist:
1. I 02:49
2. II 03:31
3. III 01:10
4. IV 02:47
5. V 03:34
6. VI 01:27
******************************
Total playing time: 15:18

[more=Technical info]
Input File: 01 - I.mp3
Channels : 2
Sample Rate : 44100
Precision : 16-bit
Duration : 00:02:59.12 = 7898972 samples = 13433.6 CDDA sectors
File Size : 7.17M
Bit Rate : 320k
Sample Encoding: MPEG audio (layer I, II or III)
Comments :
Title=I
Artist=Salvation
Album=Demo IV
Tracknumber=1
Year=2015
Genre=Black Metal

[/more]

Register
(15) 1968_janeart, Alexis The Best, Amsterdam, Blut aus Nord, Hell_Is_Here, kim666, Ostinato, rom666, Rosen, RUSP73, satanist666, stub888, varlam4, vasiljev_sergej, Абигор,
Jul 29 2017, 19:35:51 Salvation - Winter Wrath [demo] (2014)


*Artist: Salvation
*Album: Winter Wrath [demo]
*Year: 2014
*Genre: Black Metal
*Country: Australia
*Format: mp3@VBR199kbps
*Size: 24MB

Tracklist:
1. Intro 01:55
2. Winter Wrath 03:49
3. Strife 03:01
4. Forgotten Fields 01:38
5. Salvation 04:07
6. Outro 02:13
******************************
Total playing time: 16:43

Register
(14) 1968_janeart, Alexis The Best, Blut aus Nord, Hell_Is_Here, kim666, Ostinato, rom666, Rosen, RUSP73, satanist666, stub888, varlam4, vasiljev_sergej, Абигор,
Jul 29 2017, 19:35:32 Salvation - On Untrodden Paths [demo] (2013)


*Artist: Salvation
*Album: On Untrodden Paths [demo]
*Year: 2013
*Genre: Black Metal
*Country: Australia
*Format: mp3@VBR196kbps
*Size: 24MB

Tracklist:
1. Intro 01:44
2. Blood and Fire 03:45
3. Supremacy 02:45
4. Season of Sorrow 01:28
5. On Untrodden Paths 04:38
6. Outro 01:57
******************************
Total playing time: 16:17

Register
(14) 1968_janeart, Alexis The Best, Blut aus Nord, Hell_Is_Here, kim666, Ostinato, rom666, Rosen, RUSP73, satanist666, stub888, varlam4, vasiljev_sergej, Абигор,
Jul 29 2017, 19:35:10 Dzarkdzaal - Demo I [demo] (2013)


*Artist: Dzarkdzaal
*Album: Demo I [demo]
*Year: 2013
*Genre: Raw Black Metal
*Country: Australia
*Format: mp3@CBR320kbps
*Size: 64MB

Tracklist:
1. - 02:47
2. - 09:56
3. - 03:47
4. - 03:59
5. - 02:19
6. - 05:18
******************************
Total playing time: 28:06

[more=Technical info]
Input File: 01 - Untitled.mp3
Channels : 2
Sample Rate : 44100
Precision : 16-bit
Duration : 00:02:47.62 = 7391910 samples = 12571.3 CDDA sectors
File Size : 6.71M
Bit Rate : 320k
Sample Encoding: MPEG audio (layer I, II or III)
Comments :
Title=Untitled
Artist=Dzarkdzaal
Album=Demo I
Tracknumber=01/06
Year=2013
Genre=Black Metal

[/more]

Register
(14) 1968_janeart, Alexis The Best, Blut aus Nord, Hell_Is_Here, kim666, Ostinato, rom666, Rosen, RUSP73, sethurius, stub888, thenecromancer, vasiljev_sergej, Абигор,
Jul 28 2017, 16:59:02 Funeral Altar - Demo III [demo] (2017)


*Artist: Funeral Altar
*Album: Demo III [demo]
*Year: 2017
*Genre: Raw Black Metal
*Country: United States
*Format: mp3@CBR320kbps
*Size: 28MB

Tracklist:
1. Illusion of the Cosmic Veil 05:01
2. Invisible to Mortality 07:22
******************************
Total playing time: 12:23

[more=Technical info]
Input File: 01 - Illusion Of The Cosmic Veil.mp3
Channels : 2
Sample Rate : 44100
Precision : 16-bit
Duration : 00:05:04.75 = 13439475 samples = 22856.2 CDDA sectors
File Size : 12.2M
Bit Rate : 320k
Sample Encoding: MPEG audio (layer I, II or III)
Comments :
Title=Illusion Of The Cosmic Veil
Artist=Funeral Altar
Album=Demo III
Tracknumber=1
Year=2017
Genre=Black Metal

[/more]

Register
(23) 1968_janeart, Alexis The Best, ambre, artscald, blacky66, Blut aus Nord, Hell_Is_Here, Ildjarn, kim666, Krosis, lestllk, LordHaart, Ostinato, rom666, Rosen, RUSP73, satanist666, stub888, varlam4, vasiljev_sergej, Wotanwatch, Абигор, Спектр,
Jul 28 2017, 16:58:48 Funeral Altar & Ghaisiuan - Funeral Altar/Ghaisiuan [split] (2017)


*Artist: Funeral Altar & Ghaisiuan
*Album: Funeral Altar/Ghaisiuan [split]
*Year: 2017
*Genre: Raw Black Metal | Raw Black Metal
*Country: United States | United States
*Format: mp3@VBR272kbps
*Size: 34MB

Tracklist:
Funeral Altar:
1. Untitled 08:20
Ghaisiuan:
2. Untitled 08:45
******************************
Total playing time: 17:05

Register
(22) 1968_janeart, Alexis The Best, ambre, artscald, Blut aus Nord, Hell_Is_Here, Ildjarn, kim666, Krosis, lestllk, luxxul, Ostinato, rom666, Rosen, RUSP73, satanist666, stub888, VALERY, varlam4, vasiljev_sergej, Абигор, Спектр,
Jul 28 2017, 16:58:34 Adytum - Consecration [demo] (2016)


*Artist: Adytum
*Album: Consecration [demo]
*Year: 2016
*Genre: Raw Black Metal
*Country: United Kingdom
*Format: mp3@CBR320kbps
*Size: 59MB

Tracklist:
1. Intro 02:01
2. Summoning the Spirits From the Veil 06:08
3. Blood Rites & Secrecy 03:30
4. Altars of Arcane Order 02:40
5. Consecration 08:25
6. Outro 02:26
******************************
Total playing time: 25:10



[more=Technical info]
Input File: 03 - Blood Rites & Secrecy.mp3
Channels : 2
Sample Rate : 44100
Precision : 16-bit
Duration : 00:03:30.10 = 9265366 samples = 15757.4 CDDA sectors
File Size : 8.56M
Bit Rate : 326k
Sample Encoding: MPEG audio (layer I, II or III)
Comments :
Title=Blood Rites & Secrecy
Artist=Adytum
Album=Consecration
Tracknumber=3
Year=2016
Genre=Black Metal

[/more]

Register
(17) 1968_janeart, Alexis The Best, blackwerwolf, Blut aus Nord, Hell_Is_Here, kim666, Krosis, lestllk, Ostinato, rom666, Rosen, RUSP73, satanist666, stub888, vasiljev_sergej, Абигор, Спектр,
Jul 28 2017, 16:58:18 Adytum & Darkness Enshrouded The Mist - The Realm Of Rats And Pestilence [split] (2016)


*Artist: Adytum & Darkness Enshrouded The Mist
*Album: The Realm Of Rats And Pestilence [split]
*Year: 2016
*Genre: Raw Black Metal | Raw Black Metal
*Country: United Kingdom | Netherlands
*Format: mp3@CBR320kbps
*Size: 32MB

Tracklist:
Adytum:
1. Beneath the Ruins 02:59
2. Pestilence 03:56
Darkness Enshrouded the Mist:
3. A Realm of Rats 04:48
4. Blood & Decay 02:15
******************************
Total playing time: 13:58

[more=Technical info]
Input File: 01 - Adytum - Beneath The Ruins.mp3
Channels : 2
Sample Rate : 44100
Precision : 16-bit
Duration : 00:02:59.87 = 7932399 samples = 13490.5 CDDA sectors
File Size : 7.20M
Bit Rate : 320k
Sample Encoding: MPEG audio (layer I, II or III)
Comments :
Title=Beneath The Ruins
Artist=Adytum
Album=The Realm Of Rats And Pestilence
Tracknumber=1
Year=2016
Genre=Black Metal

[/more]

Register
(22) 1968_janeart, Alexis The Best, ambre, Blut aus Nord, Hell_Is_Here, Ildjarn, kim666, Krosis, Lanceatum, lestllk, Ostinato, rom666, Rosen, RUSP73, satanist666, stub888, VALERY, varg-38ru, varlam4, vasiljev_sergej, Абигор, Спектр,
Jul 28 2017, 16:57:59 Adytum & Blood Ritual - The Blood Of Old Ceremonies [split] (2016)


*Artist: Adytum & Blood Ritual
*Album: The Blood Of Old Ceremonies [split]
*Year: 2016
*Genre: Raw Black Metal | Raw Black Metal
*Country: United Kingdom | Australia
*Format: mp3@CBR320kbps
*Size: 57MB

Tracklist:
Adytum:
1. Macabre Truths Unveiled 03:18
2. The Blood of Kings.... 06:36
3. Reborn (Part III) 03:57
Blood Ritual:
4. Retribution 03:28
5. Old Ceremony 05:24
6. When the Fog Has Cleared 02:18
******************************
Total playing time: 25:01

[more=Technical info]
Input File: 01 - Adytum - Macabre Truths Unveiled.mp3
Channels : 2
Sample Rate : 44100
Precision : 16-bit
Duration : 00:03:18.84 = 8768800 samples = 14912.9 CDDA sectors
File Size : 7.96M
Bit Rate : 320k
Sample Encoding: MPEG audio (layer I, II or III)
Comments :
Title=Macabre Truths Unveiled
Artist=Adytum
Album=The Blood of Old Ceremonies
Tracknumber=1
Year=2016
Genre=Black Metal

[/more]

Register
(19) 1968_janeart, Alexis The Best, Blut aus Nord, Hell_Is_Here, kim666, Krosis, Lanceatum, lestllk, Ostinato, rom666, Rosen, RUSP73, satanist666, stub888, VALERY, varg-38ru, vasiljev_sergej, Абигор, Спектр,
Jul 27 2017, 13:30:50 Rattenkönig & Salvation & Blood Ritual & Dzarkdzaal - Hymns From The Black Forest [split] (2016)


*Artist: Rattenkönig & Salvation & Blood Ritual & Dzarkdzaal
*Album: Hymns From The Black Forest [split]
*Year: 2016
*Genre: Raw Black Metal | Raw Black Metal | Raw Black Metal | Raw Black Metal
*Country: Australia | Australia | Australia | Australia
*Format: mp3@CBR320kbps
*Size: 100MB

Tracklist:
Rattenkönig:
1. Reign of Supremacy 04:58
2. Execration 04:59
3. Black Imperial Metal 07:27
4. Rise to Victory 05:30
Salvation:
5. Runes of Winter and Death 05:14
Blood Ritual:
6. The Night Wanderer's Dispair 05:29
Dzarkdzaal:
7. Untitled 04:13
8. Untitled 05:52
******************************
Total playing time: 43:42

[more=Technical info]
Input File: 01 - Rattenk?nig - Reign Of Supremacy.mp3
Channels : 2
Sample Rate : 44100
Precision : 16-bit
Duration : 00:04:58.90 = 13181402 samples = 22417.4 CDDA sectors
File Size : 12.0M
Bit Rate : 320k
Sample Encoding: MPEG audio (layer I, II or III)
Comments :
Title=Reign Of Supremacy
Artist=Rattenkönig
Album=Hymns From The Black Forest
Tracknumber=1
Year=2016
Genre=Black Metal

[/more]

Register
(29) 1968_janeart, Alexis The Best, Blut aus Nord, ddarkthrone, Ildjarn, kim666, Krosis, Lanceatum, lestllk, maringlen, Moonshtook, Ostinato, Pinhead666, Raw1488, rom666, Rosen, RUSP73, satanist666, serg1349, sethurius, smysl, stub888, thenecromancer, varlam4, vasiljev_sergej, Velkaarn, Wotanwatch, Абигор, Спектр,

121 Pages V   1 2 3 > » 
- Lo-Fi Version Support form
Copyrights and abuse reports form
Time is now: 23rd July 2018 - 18:18:37