Welcome Guest ( Log In | Register )

История благодарностей участнику Funeral Frost ::: Спасибо сказали: 46242 раз(а)
Дата поста: В теме: За сообщение: Спасибо сказали:
Oct 12 2019, 06:33:35 Новости DOOM Metal
Если кто помнит такой белорусский коллектив Reido, у них на днях выходит новый альбом через 8 лет после прошлого.
Издаются на Aesthetic Death.
Одна песня есть тут:
(3) gena, Sphinx7, Un4given,
Aug 31 2019, 21:50:31 Новости DOOM Metal
Profetus - The Sadness of Time Passing

21 октября.




1. The Sadness of Time Passing
2. Nostalgia
3. Momentary Burial
4. Northern Crown
5. Tiarnia
(2) avather, RUDACHUR,
Jun 2 2019, 13:19:08 Hearse Wreck - Iii [ep] (2019)
Пародия на Кататонию времен БМД.
Первая песня так вобще тотальный рип офф. Те же риффы, та же структура.
Вторая чуть меньше рип офф.
Третья еще меньше. Но все они так или иначе похоже.
(1) Ostinato,
Apr 15 2019, 17:24:43 Lucian The Wolfbearer - Old Roots (2019)


*Artist: Lucian The Wolfbearer
*Album: Old Roots
*Year: 2019
*Genre: Funeral Doom Metal
*Country: United States
*Format: mp3@CBR320kbps
*Size: 98MB

Tracklist:
1. Pagan Forest 13:53
2. Marrow 06:19
3. Binding The Will Of Giants 22:39
******************************
Total playing time: 42:51



[more=Technical info]
Input File: 02 - Marrow.mp3
Channels : 2
Sample Rate : 44100
Precision : 16-bit
Duration : 00:06:19.17 = 16721177 samples = 28437.4 CDDA sectors
File Size : 15.2M
Bit Rate : 320k
Sample Encoding: MPEG audio (layer I, II or III)
Comments :
Title=Marrow
Artist=Lucian The Wolfbearer
Album=Old Roots
Tracknumber=02
Year=2019

[/more]

Register
(32) CelticSPB, cryptal, Doooomed, Faust_Vulkan_16, Fess, Guns, katalin, Kehl05, LEGION69, libertine, marilin, Mist13Signifier, nadin85, OfDoom, older68, Olethros, Ostinato, robertho777, Rosen, RUDACHUR, russ777, sergsazan, Shadechaser, StoneTemple, stub888, thenecromancer, tOmV, uk82, undertrykkelse, VALERY, Woosad, Герб,
Nov 12 2018, 12:07:48 Rigor Sardonicous - Ridenti Mortuus [ep] (2018)
Если ты не заметил я не говорил что мне данный релиз нравится или нет. А ты уже и про меня выводы сделал. Я тоже могу выводы сделать bye.gif
Просто разница в том что я не хожу гадить по темам с музыкой, которая мне не нравится. Мог бы просто молча пройти мимо. Но нет, это же выложил твой конкурент который тебе не нравится, поэтому обязательно надо было зайти и оставить кучку.
(2) Samaritianin, Vardlokkur,
Nov 12 2018, 10:49:44 Rigor Sardonicous - Ridenti Mortuus [ep] (2018)
ЦИТАТА(aesteticvice @ Nov 12 2018, 11:39:59) *
РАВ УНИТАЗ ДУМ

Сразу видно что человек пришел пообсирать релиз другого человека по личной неприязни и не слышал ни одного предыдущего релиза группы. hung.gif
Для справки, они уже 20 лет играют такую музыку. И все годы ждали твоего экспертного мнения bye.gif
(8) Leshiy666, Lightbringer, Samaritianin, Shadechaser, suseka, Vardlokkur, WND, zavhoz,
Sep 27 2018, 18:32:53 Новости DOOM Metal
[youtube]USZRMQdDges[/youtube]

Альбом Among the Dormant Watchers выйдет 7 декабря.
(5) Kaphiel, Kristaliar, Lightbringer, RUDACHUR, Un4given,
Jul 11 2018, 15:00:20 Sewer - Rektal (2018)
как
они интересно
расположили названия
по длине
(2) Dantalian, infiltrator,
Jul 2 2018, 18:51:22 Новости DOOM Metal
Новый альбом Until Death Overtakes Me через месяц.
Называется Missing и является продолжением идей одноименного трека с альбома Prelude to Monolith 2003 года. Кстати это одна из моих любимых композиций UDOM вобще.



Треклист:
1. Never Found 14:32
2. To Never Return 15:22
3. Never Lived 18:41
4. Beyond Hope Forgotten 16:55
(1) gena,
Jun 18 2018, 09:21:20 Новости DOOM Metal
Обложечку грядущего возвращения Dusk вроде не постили еще. EP уже готов и скоро должен выйти

(4) 6666666, Old Vyaine, suseka, Un4given,
Jun 14 2018, 07:25:35 Новости DOOM Metal
ЦИТАТА(6666666 @ May 13 2018, 00:06:27) *
Где там Пантеист, чёрт возьми? И Ценотаф.


14 сентября
(7) 6666666, BERZERK, Old Vyaine, RUDACHUR, Tular, Un4given, vasilisk,
Jan 25 2018, 17:33:17 Monolithe - Nebula Septem (2018)
Давно уже не фюнерал. Можно забыть про эту группу.
(5) Fess, Metalass, Razorbladeswaltz, vosmidesijatye, Winter Funeral,
Jan 19 2018, 16:05:10 Geodaehan - Demo II, MMXVI [demo] (2018)


*Artist: Geodaehan
*Album: Demo II, MMXVI [demo]
*Year: 2018
*Genre: Funeral Doom Metal
*Country: Norway
*Format: mp3@CBR320kbps
*Size: 95MB

Tracklist:
1. Worldender 41:14
******************************
Total playing time: 41:14



[more=Technical info]
Input File: 01 - Worldender.mp3
Channels : 2
Sample Rate : 44100
Precision : 16-bit
Duration : 00:41:14.63 = 109131095 samples = 185597 CDDA sectors
File Size : 99.0M
Bit Rate : 320k
Sample Encoding: MPEG audio (layer I, II or III)
Comments :
Title=Worldender
Artist=Geodaehan
Album=Demo II, MMXVI
Tracknumber=1
Year=2018

[/more]

Register
(15) cancer1974, cuerpofalaz, Fatalist77791, Friman, Hell_Is_Here, kimkayoung, krotovich, LordTenegnum, marilin, Rosen, stub888, thenecromancer, VALERY, varlam4, Wolftribes,
Jan 16 2018, 18:28:14 Новости DOOM Metal
Mournful Congregation - The Incubus of Karma
23 марта
[youtube]b-Mu6mhCXA8[/youtube]
(4) 6666666, Borderline1991, Old Vyaine, Wise.man,
Jan 5 2018, 15:14:44 Bloodbark - Bonebranches (2018)
Мне понравилось. Хотел запостить, а уже есть.
(1) Daale,
Dec 18 2017, 17:27:33 Morbosidad - Corona De Epidemia (2017)
Где вы вобще берете такие огрызки альбомов? И не понятно зачем сюда вобще лить такое. Если это вебрип 128кбпс для превью то понятно, а это не понятно зачем. Еще и aesteticvice как обычно чето свое тут хотел пропихнуть, что на деле такой же хлам.
(1) Samaritianin,
Dec 5 2017, 19:19:01 Hooded Menace - Ossuarium Silhouettes Unhallowed (2018)
aesteticvice,
ты в своем сообщении пишешь что все версии семитрековые. это не правда. я тебе кинул пруф что ты врешь. так что данная версия имеет право на жизнь также как и твой хевидес который тоже не максимальный вариант.

ЦИТАТА(aesteticvice @ 5th December 2017 - 15:32:29) *
Нет 7 трэка, в файнд, все возможные версии семитрэковые (винил, кассета, диги, лимитед, цифровые...)

(1) Samaritianin,
Dec 5 2017, 15:13:29 Hooded Menace - Ossuarium Silhouettes Unhallowed (2018)
твои пруфы не пруфы 1488.gif
на виниле нет бонус трека для этого релиза
сейчас сабж нельзя нигде скачать официально. он еще не вышел.

а тот альбом тоже был выложен до релиза. я лично не вижу между ними разницы:
1. оба выложены до релиза
2. одна из официальных версий будущего релиза имеет указанный релизером треклист

почему твой релиз значит хороший а этот плохой?

едит: надо запретить тебе редактировать свои сообщения по 20 раз 1488.gif я ничей не адвокат. мне просто смешно смотреть на тебя как ты льешь помои на другие релизы а у самого такие же.
(3) 6666666, necroscum, Samaritianin,
Dec 5 2017, 14:25:05 Hooded Menace - Ossuarium Silhouettes Unhallowed (2018)
aesteticvice,
ты бы за своими релизами так же хорошо следил 1488.gif
залил какой-то огрызок от альбома и управился, модеры не заметили и доволен
Heavydeath - Sarcophagus In The Sky (2017)
(1) Samaritianin,
Sep 29 2017, 09:51:02 Imperceptum - Aeons Of Saturnine Desolation (2017)
Вчера послушал. Лучше бы они работали над качеством а не количеством.
(1) Chasm,
Jul 31 2017, 13:06:58 Reverorum Ib Malacht - Ter Agios Numini (2017)


*Artist: Reverorum Ib Malacht
*Album: Ter Agios Numini
*Year: 2017
*Genre: Experimental Black Metal/Ritual Ambient
*Country: Sweden
*Format: mp3@CBR320kbps
*Size: 109MB

Tracklist:
1. Synestesi 05:31
2. Long Into the Time Beyond 21:31
3. Reverorum ib Malachtum 03:10
4. Dwellings are His That Die 17:33
******************************
Total playing time: 47:45



[more=Technical info]
Input File: 04 - Dwellings Are His That Die.mp3
Channels : 2
Sample Rate : 44100
Precision : 16-bit
Duration : 00:17:35.22 = 46535378 samples = 79141.8 CDDA sectors
File Size : 42.2M
Bit Rate : 320k
Sample Encoding: MPEG audio (layer I, II or III)
Comments :
Title=Dwellings Are His That Die
Artist=Reverorum Ib Malacht
Album=Ter Agios Numini
Tracknumber=04
Year=2017

[/more]

Register
(52) 1968_janeart, abob, acerbus, Amsterdam, Black Cat, Blut aus Nord, Boozer, Buregon, garmonbozia, GTrooper, Hell_Is_Here, Hipgnosis, Infidel, infiltrator, judaz, kauyumari, Kazoth, kim666, marilin, mazoy, milosdjor, mizantrophist, Mortuusinfernus, NachtWulf, nadin85, Nadja, Occultas, oldvarg, Ostinato, postal67, Premature_Devotion, rom666, Rosen, sarcophagus, satanist666, shial, smysl, SSBandera, stub888, Sylvi, Themaxx1349, thenecromancer, Torlof, undertrykkelse, user1801, valafar, VALERY, varg-38ru, Wolfera, Wolftribes, xska, Абигор,
Jul 29 2017, 19:36:49 Goatblood - Goatblood [demo] (2015)


*Artist: Goatblood
*Album: Goatblood [demo]
*Year: 2015
*Genre: Black Metal
*Country: Australia
*Format: mp3@CBR320kbps
*Size: 64MB

Tracklist:
1. Intro 02:14
2. Transylvanian Creep 02:44
3. Graves of the Besmirsch 03:22
4. Supreme Triumph of Evil 04:09
5. Ancestral Crusade 06:02
6. Psychotic Masters Void 05:49
7. Outro 01:40
******************************
Total playing time: 26:00

[more=Technical info]
Input File: 02 - Transylvanian Creep.mp3
Channels : 2
Sample Rate : 44100
Precision : 16-bit
Duration : 00:02:54.62 = 7700786 samples = 13096.6 CDDA sectors
File Size : 6.99M
Bit Rate : 320k
Sample Encoding: MPEG audio (layer I, II or III)
Comments :
Title=Transylvanian Creep
Artist=Goatblood
Album=Goatblood
Tracknumber=2
Year=2015
Genre=Black Metal

[/more]

Register
(23) 1968_janeart, Alexis The Best, Anhra Mainyu, artscald, Blut aus Nord, Hell_Is_Here, Ildjarn, kim666, maringlen, Orkkh, Ostinato, Pinhead666, Raw1488, rebornflms95, rom666, Rosen, RUSP73, satanist666, stub888, Timekiller_again, varlam4, vasiljev_sergej, Абигор,
Jul 29 2017, 19:36:21 Salvation - Demo IV [demo] (2015)


*Artist: Salvation
*Album: Demo IV [demo]
*Year: 2015
*Genre: Black Metal
*Country: Australia
*Format: mp3@CBR320kbps
*Size: 36MB

Tracklist:
1. I 02:49
2. II 03:31
3. III 01:10
4. IV 02:47
5. V 03:34
6. VI 01:27
******************************
Total playing time: 15:18

[more=Technical info]
Input File: 01 - I.mp3
Channels : 2
Sample Rate : 44100
Precision : 16-bit
Duration : 00:02:59.12 = 7898972 samples = 13433.6 CDDA sectors
File Size : 7.17M
Bit Rate : 320k
Sample Encoding: MPEG audio (layer I, II or III)
Comments :
Title=I
Artist=Salvation
Album=Demo IV
Tracknumber=1
Year=2015
Genre=Black Metal

[/more]

Register
(17) 1968_janeart, Alexis The Best, Amsterdam, artscald, Blut aus Nord, Hell_Is_Here, kim666, Ostinato, rom666, Rosen, RUSP73, satanist666, stub888, undertrykkelse, varlam4, vasiljev_sergej, Абигор,
Jul 29 2017, 19:35:51 Salvation - Winter Wrath [demo] (2014)


*Artist: Salvation
*Album: Winter Wrath [demo]
*Year: 2014
*Genre: Black Metal
*Country: Australia
*Format: mp3@VBR199kbps
*Size: 24MB

Tracklist:
1. Intro 01:55
2. Winter Wrath 03:49
3. Strife 03:01
4. Forgotten Fields 01:38
5. Salvation 04:07
6. Outro 02:13
******************************
Total playing time: 16:43

Register
(15) 1968_janeart, Alexis The Best, artscald, Blut aus Nord, Hell_Is_Here, kim666, Ostinato, rom666, Rosen, RUSP73, satanist666, stub888, varlam4, vasiljev_sergej, Абигор,
Jul 29 2017, 19:35:32 Salvation - On Untrodden Paths [demo] (2013)


*Artist: Salvation
*Album: On Untrodden Paths [demo]
*Year: 2013
*Genre: Black Metal
*Country: Australia
*Format: mp3@VBR196kbps
*Size: 24MB

Tracklist:
1. Intro 01:44
2. Blood and Fire 03:45
3. Supremacy 02:45
4. Season of Sorrow 01:28
5. On Untrodden Paths 04:38
6. Outro 01:57
******************************
Total playing time: 16:17

Register
(15) 1968_janeart, Alexis The Best, artscald, Blut aus Nord, Hell_Is_Here, kim666, Ostinato, rom666, Rosen, RUSP73, satanist666, stub888, varlam4, vasiljev_sergej, Абигор,

121 Pages V   1 2 3 > » 
- Lo-Fi Version Support form
Copyrights and abuse reports form
Time is now: 22nd October 2019 - 22:25:52