Welcome Guest ( Log In | Register )

История благодарностей участнику Funeral Frost ::: Спасибо сказали: 56572 раз(а)
Дата поста: В теме: За сообщение: Спасибо сказали:
Nov 21 2021, 17:51:42 Universal Disorder - Act Iii: Of Emerging Chaos And Times Forgotten [ep] (2021)


*Artist: Universal Disorder
*Album: Act Iii: Of Emerging Chaos And Times Forgotten [ep]
*Year: 2021
*Genre: Atmospheric Black Metal
*Country: International
*Format: mp3@CBR320kbps
*Size: 33MB

Tracklist:
1. An Eternal Balancing of the Scale 06:12
2. The Dawn of the Ages (As Long Ago Was Seen) 08:22
******************************
Total playing time: 14:34



[more=Extended info]Sweden / Finland[/more]

[more=Technical info]
Input File: 01 - An Eternal Balancing of the Scale.mp3
Channels : 2
Sample Rate : 44100
Precision : 16-bit
Duration : 00:06:12.56 = 16429720 samples = 27941.7 CDDA sectors
File Size : 14.9M
Bit Rate : 320k
Sample Encoding: MPEG audio (layer I, II or III)
Comments :
Title=An Eternal Balancing of the Scale
Artist=Universal Disorder
Album=Act III: Of Emerging Chaos and Times Forgotten
Tracknumber=1
Year=2021

[/more]

Register
(12) aleon, artscald, caro, julianotidre, kim666, Olethros, robertho777, sergsazan, stormhatt, VALERY, varlam4, wreak,
Nov 21 2021, 17:50:15 Universal Disorder - Act Ii - Existential Glimpses Of Chaos And Order In A Cosmic Womb [ep] (2020)


*Artist: Universal Disorder
*Album: Act Ii - Existential Glimpses Of Chaos And Order In A Cosmic Womb [ep]
*Year: 2020
*Genre: Atmospheric Black Metal
*Country: International
*Format: mp3@CBR320kbps
*Size: 42MB

Tracklist:
1. In the Great Circle of Time 08:49
2. As the Eternal Secrets of the Cosmos Unfold 09:25
******************************
Total playing time: 18:14



[more=Extended info]Sweden / Finland[/more]

[more=Technical info]
Input File: 02 - As the Eternal Secrets of the Cosmos Unfold.mp3
Channels : 2
Sample Rate : 44100
Precision : 16-bit
Duration : 00:09:25.48 = 24937712 samples = 42411.1 CDDA sectors
File Size : 22.8M
Bit Rate : 322k
Sample Encoding: MPEG audio (layer I, II or III)
Comments :
Title=As the Eternal Secrets of the Cosmos Unfold
Artist=Universal Disorder
Album=Act II - Existential Glimpses of Chaos and Order in a Cosmic Womb
Tracknumber=2
Year=2020
Genre=Rock

[/more]

Register
(12) aleon, artscald, caro, julianotidre, kim666, Olethros, robertho777, sergsazan, stormhatt, VALERY, varlam4, wreak,
Nov 21 2021, 17:47:29 Christian Cosentino - Lawn (2021)


*Artist: Christian Cosentino
*Album: Lawn
*Year: 2021
*Genre: Symphonic/Post-Black Metal
*Country: Australia
*Format: mp3@CBR320kbps
*Size: 71MB

Tracklist:
1. Lawn 05:47
2. Duality 05:25
3. Psychogenic 12:45
4. Lustre 06:54
******************************
Total playing time: 30:51



[more=Technical info]
Input File: 01 - Lawn.mp3
Channels : 2
Sample Rate : 44100
Precision : 16-bit
Duration : 00:05:47.09 = 15306449 samples = 26031.4 CDDA sectors
File Size : 13.9M
Bit Rate : 320k
Sample Encoding: MPEG audio (layer I, II or III)
Comments :
Title=Lawn
Artist=Christian Cosentino
Album=Lawn
Tracknumber=1
Year=2021

[/more]

Register
(13) AlexSmith, artscald, caro, kim666, kimkayoung, Olethros, Ostinato, robertho777, sergsazan, supremo, VALERY, varlam4, wreak,
Nov 21 2021, 17:46:28 Nukekubi - The Headless Terror [demo] (2021)


*Artist: Nukekubi
*Album: The Headless Terror [demo]
*Year: 2021
*Genre: Raw Black Metal
*Country: France
*Format: mp3@CBR320kbps
*Size: 67MB

Tracklist:
1. Nukekubi 抜首 03:58
2. Headless 首無し 04:39
3. A Sinister Place 人外魔境 03:29
4. Nightfall 薄暮 02:34
5. Unmu 雲霧 04:00
6. Majutsu 魔術 03:20
7. Shura 修羅 05:02
8. Temptation of Revenge 復讐心 02:10
******************************
Total playing time: 29:12



[more=Technical info]
Input File: 03 - A Sinister Place 人外魔境.mp3
Channels : 2
Sample Rate : 44100
Precision : 16-bit
Duration : 00:03:29.33 = 9231585 samples = 15700 CDDA sectors
File Size : 8.38M
Bit Rate : 320k
Sample Encoding: MPEG audio (layer I, II or III)
Comments :
Title=A Sinister Place 人外魔境
Artist=Nukekubi
Album=The Headless Terror
Tracknumber=03
Year=2021

[/more]

Register
(13) artscald, caro, judaz, julianotidre, kim666, murayne, obituarydark, Olethros, stormhatt, stub888, varlam4, Velmi, wreak,
Nov 21 2021, 17:45:11 Agaliaroth - Impera Khaos (2021)


*Artist: Agaliaroth
*Album: Impera Khaos
*Year: 2021
*Genre: Black Metal
*Country: Colombia
*Format: mp3@CBR320kbps
*Size: 70MB

Tracklist:
1. Intro / Culto a Cernunnos 9:53
2. Asensus Satanicus Bellatories 4:38
3. Interlude Himenaeus Satani 3:28
4. Impera Khaos 6:55
5. Espada Oculta de Agaliaroth / DCLXVI Outro 5:48
******************************
Total playing time: 30:42


Preview 2

[more=Technical info]
Input File: 01 - Intro - Culto a Cernunnos.mp3
Channels : 2
Sample Rate : 44100
Precision : 16-bit
Duration : 00:09:53.98 = 26194606 samples = 44548.6 CDDA sectors
File Size : 23.8M
Bit Rate : 320k
Sample Encoding: MPEG audio (layer I, II or III)
Comments :
Title=Intro / Culto a Cernunnos
Artist=Agaliaroth
Album=Impera Khaos
Tracknumber=1
Year=2021

[/more]

Register
(18) AlexSmith, alikkon, artscald, Carcharoth, caro, dermarsoran, julianotidre, kim666, LVXXVL, Mencae77, obituarydark, Olethros, robertho777, stormhatt, supremo, VALERY, varlam4, wreak,
Nov 21 2021, 17:42:12 Tumultum - Katalepsy [ep] (2021)


*Artist: Tumultum
*Album: Katalepsy [ep]
*Year: 2021
*Genre: Melodic Black Metal
*Country: Mexico
*Format: mp3@CBR320kbps
*Size: 32MB

Tracklist:
1. Cloak Of Falsehood 04:43
2. Lifeless 06:30
3. Cold Veins 02:48
******************************
Total playing time: 14:01



[more=Technical info]
Input File: 03 - Cold Veins.mp3
Channels : 2
Sample Rate : 44100
Precision : 16-bit
Duration : 00:02:48.27 = 7420575 samples = 12620 CDDA sectors
File Size : 6.73M
Bit Rate : 320k
Sample Encoding: MPEG audio (layer I, II or III)
Comments :
Title=Cold Veins
Artist=Tumultum
Album=Katalepsy
Tracknumber=3
Year=2021

[/more]

Register
(9) artscald, caro, julianotidre, kimkayoung, Olethros, sergsazan, VALERY, varlam4, wreak,
Nov 21 2021, 17:39:59 Non Vitam Existence - Cancer (2017)


*Artist: Non Vitam Existence
*Album: Cancer
*Year: 2017
*Genre: Black Metal
*Country: Mexico
*Format: mp3@CBR320kbps
*Size: 87MB

Tracklist:
1. Mutilación de la razón 06:17
2. Transfiguración 06:05
3. Alpha 04:08
4. Cancer 07:43
5. Deshumanización 07:32
6. Tremendos desechos de humanidad 05:59
******************************
Total playing time: 37:44



[more=Technical info]
Input File: 03 - Alpha.mp3
Channels : 2
Sample Rate : 44100
Precision : 16-bit
Duration : 00:04:08.42 = 10955102 samples = 18631.1 CDDA sectors
File Size : 9.94M
Bit Rate : 320k
Sample Encoding: MPEG audio (layer I, II or III)
Comments :
Title=Alpha
Artist=Non Vitam Existence
Album=Cancer
Tracknumber=03
Year=2017

[/more]

Register
(12) AlexSmith, artscald, caro, julianotidre, kim666, Mencae77, Olethros, stormhatt, supremo, VALERY, varlam4, wreak,
Nov 21 2021, 17:38:33 Lux Anguis & Luciferianometh & Necroroots - Global Domination Ov Satanic Alliance [split] (2021)


*Artist: Lux Anguis & Luciferianometh & Necroroots
*Album: Global Domination Ov Satanic Alliance [split]
*Year: 2021
*Genre: Raw Black Metal/Ambient | Black Metal | Black Metal
*Country: Argentina | Sri Lanka | Mexico
*Format: mp3@CBR320kbps
*Size: 111MB

Tracklist:
1. Lux Anguis - Kukulcan 02:22
2. Luciferianometh - Lord Abbadon's War Command 06:27
3. Necroroots - Cold Desire 04:24
4. Luciferianometh - Spheres in the Lands (Piercing the Lambs) 03:42
5. Necroroots - The Pain 05:20
6. Lux Anguis - In the Name of Satan 02:41
7. Necroroots - A Flame Inside 04:48
8. Lux Anguis - Oblivion II 02:36
9. Necroroots - Unchained 04:08
10. Luciferianometh - Demon of Trees Manifest Earth 04:50
11. Lux Anguis - Ancestral Call 03:07
12. Luciferianometh - Ritual of Death & Sacrifices for Aphophis 04:08
******************************
Total playing time: 48:33



[more=Extended info]Все группы перемешали свои треки так что треклист такой.[/more]

[more=Technical info]
Input File: 03 - Necroroots - Cold Desire.mp3
Channels : 2
Sample Rate : 44100
Precision : 16-bit
Duration : 00:04:24.09 = 11646325 samples = 19806.7 CDDA sectors
File Size : 10.6M
Bit Rate : 320k
Sample Encoding: MPEG audio (layer I, II or III)
Comments :
Title=Cold Desire
Artist=Necroroots
Album=Global Domination Ov Satanic Alliance
Tracknumber=3
Year=2021

[/more]

Register
(7) artscald, caro, julianotidre, kim666, stormhatt, varlam4, wreak,
Nov 21 2021, 17:37:09 Necroroots - Necroroots [ep] (2017)


*Artist: Necroroots
*Album: Necroroots [ep]
*Year: 2017
*Genre: Black Metal
*Country: Mexico
*Format: mp3@CBR320kbps
*Size: 76MB

Tracklist:
1. Intro 01:08
2. The Chosen One 04:24
3. Third Person 04:56
4. Walking Alone Beyond Death 06:33
5. Night Visions 05:01
6. Black Spells 01:09
7. Burning Skies 04:44
8. Legions of Death 05:09
******************************
Total playing time: 33:04



[more=Technical info]
Input File: 02 - The Chosen One.mp3
Channels : 2
Sample Rate : 44100
Precision : 16-bit
Duration : 00:04:24.12 = 11647472 samples = 19808.6 CDDA sectors
File Size : 10.6M
Bit Rate : 320k
Sample Encoding: MPEG audio (layer I, II or III)
Comments :
Title=The Chosen One
Artist=Necroroots
Album=Necroroots
Tracknumber=2
Year=2017

[/more]

Register
(10) artscald, caro, julianotidre, kim666, obituarydark, Olethros, stormhatt, VALERY, varlam4, wreak,
Nov 21 2021, 17:35:36 Fiamma Impura - Il Riflesso Di Lei (2021)


*Artist: Fiamma Impura
*Album: Il Riflesso Di Lei
*Year: 2021
*Genre: Post-Black Metal/Post-Rock
*Country: Italy
*Format: mp3@CBR320kbps
*Size: 72MB

Tracklist:
1. Guardando Il Cielo 02:05
2. La Ragazza Che Si Innamorò Della Luna 04:55
3. Ardore 04:22
4. La Pioggia Tormenta, Il Buio Impera 07:24
5. Il Tonante 03:48
6. Il Riflesso Di Lei 04:56
7. Rimpianti 03:44
******************************
Total playing time: 31:14



[more=Extended info]Instrumental[/more]

[more=Technical info]
Input File: 03 - Ardore.mp3
Channels : 2
Sample Rate : 44100
Precision : 16-bit
Duration : 00:04:22.99 = 11597947 samples = 19724.4 CDDA sectors
File Size : 10.5M
Bit Rate : 320k
Sample Encoding: MPEG audio (layer I, II or III)
Comments :
Title=Ardore
Artist=Fiamma Impura
Album=Il Riflesso di Lei
Tracknumber=3
Year=2021

[/more]

Register
(7) caro, Olethros, robertho777, VALERY, varlam4, wreak, Луч,
Nov 21 2021, 17:34:03 Kassogtha - Atmospheric Haunt [ep] (2021)


*Artist: Kassogtha
*Album: Atmospheric Haunt [ep]
*Year: 2021
*Genre: Black Metal
*Country: Germany
*Format: mp3@CBR320kbps
*Size: 34MB

Tracklist:
1. The Path (Intro) 01:36
2. Cold Hearts 02:40
3. Devil's Hire 01:44
4. Firestorm 03:29
5. Blood Century 02:44
6. Haunted Earth 02:00
******************************
Total playing time: 14:13



[more=Technical info]
Input File: 02 - Cold Hearts.mp3
Channels : 2
Sample Rate : 44100
Precision : 16-bit
Duration : 00:02:40.43 = 7074963 samples = 12032.2 CDDA sectors
File Size : 6.52M
Bit Rate : 325k
Sample Encoding: MPEG audio (layer I, II or III)
Comments :
Title=Cold Hearts
Artist=Kassogtha
Album=Atmospheric Haunt
Tracknumber=2
Year=2021

[/more]

Register
(9) artscald, caro, julianotidre, kim666, Olethros, stormhatt, VALERY, varlam4, wreak,
Nov 21 2021, 17:33:33 Ranz - Trümmer (2021)


*Artist: Ranz
*Album: Trümmer
*Year: 2021
*Genre: Black Metal
*Country: Germany
*Format: mp3@CBR320kbps
*Size: 47MB

Tracklist:
1. I. 02:12
2. II. 06:04
3. III. 04:51
4. IV. 01:08
5. V 02:44
6. VI. 02:46
******************************
Total playing time: 19:45



[more=Technical info]
Input File: 05 - V..mp3
Channels : 2
Sample Rate : 44100
Precision : 16-bit
Duration : 00:02:44.95 = 7274251 samples = 12371.2 CDDA sectors
File Size : 6.75M
Bit Rate : 327k
Sample Encoding: MPEG audio (layer I, II or III)
Comments :
Title=V.
Artist=Ranz
Album=Trümmer
Tracknumber=5
Year=2021

[/more]

Register
(12) artscald, Carcharoth, caro, julianotidre, kim666, NachtWulf, Olethros, stormhatt, supremo, VALERY, varlam4, wreak,
Nov 21 2021, 17:32:53 Ranz & Kassogtha - Ranz/Kassogtha [split] (2020)


*Artist: Ranz & Kassogtha
*Album: Ranz/Kassogtha [split]
*Year: 2020
*Genre: Black Metal | Black Metal
*Country: Germany | Germany
*Format: mp3@CBR320kbps
*Size: 43MB

Tracklist:
Ranz:
1. ï 01:14
2. Requiem 02:10
3. Desolate 01:48
4. Tåkesyn 02:07
5. Ø 01:17
Kassogtha:
6. Intro (Cthulhu's Revenge) 01:41
7. End of Humanity 02:02
8. Water Outside Sea 01:26
9. Escape from Heaven 02:44
10. Icy Mountain 01:20
******************************
Total playing time: 17:49




[more=Technical info]
Input File: 02 - Ranz - Requiem.mp3
Channels : 2
Sample Rate : 44100
Precision : 16-bit
Duration : 00:02:10.75 = 5766207 samples = 9806.47 CDDA sectors
File Size : 5.41M
Bit Rate : 331k
Sample Encoding: MPEG audio (layer I, II or III)
Comments :
Title=Requiem
Artist=Ranz
Album=Ranz / Kassogtha
Tracknumber=2
Year=2020

[/more]

Register
(9) artscald, Carcharoth, caro, julianotidre, kim666, stormhatt, VALERY, varlam4, wreak,
Nov 21 2021, 11:30:26 Черноплодь - Суе (2021)


*Artist: Черноплодь
*Album: Суе
*Year: 2021
*Genre: Experimental Black Metal/Punk/Folk/Ambient
*Country: Russian Federation
*Format: mp3@CBR320kbps
*Size: 63MB

Tracklist:
1. 13.7 01:42
2. Дьявол 03:20
3. Локти 04:56
4. Соборы 03:32
5. Розово-белый 03:22
6. Забирает 03:47
7. Смеретушка 04:09
8. Прихильник 02:46
******************************
Total playing time: 27:34



[more=Technical info]
Input File: 04 - Соборы.mp3
Channels : 2
Sample Rate : 44100
Precision : 16-bit
Duration : 00:03:32.18 = 9357182 samples = 15913.6 CDDA sectors
File Size : 8.49M
Bit Rate : 320k
Sample Encoding: MPEG audio (layer I, II or III)
Comments :
Title=Соборы
Artist=Черноплодь
Album=Суе
Tracknumber=4
Year=2021

[/more]

Register
(18) alikkon, Aresson, artscald, caro, Dante_D, dcatagua, Golodomor, grimoir, judaz, julianotidre, kimkayoung, Kodel, Olethros, stormhatt, Un4given, VALERY, varlam4, wreak,
Nov 21 2021, 11:30:04 Balga - Tertia [ep] (2021)


*Artist: Balga
*Album: Tertia [ep]
*Year: 2021
*Genre: Atmospheric Black Metal
*Country: Russian Federation
*Format: mp3@CBR320kbps
*Size: 29MB

Tracklist:
1. I 03:25
2. II 03:15
3. III 05:58
******************************
Total playing time: 12:38



[more=Technical info]
Input File: 01 - I.mp3
Channels : 2
Sample Rate : 44100
Precision : 16-bit
Duration : 00:03:26.07 = 9087599 samples = 15455.1 CDDA sectors
File Size : 8.24M
Bit Rate : 320k
Sample Encoding: MPEG audio (layer I, II or III)
Comments :
Title=I
Artist=Balga
Album=Tertia
Tracknumber=01
Year=2021

[/more]

Register
(12) aleon, AlexNorth, artscald, caro, Hexer, julianotidre, kim666, Olethros, stormhatt, VALERY, varlam4, wreak,
Nov 21 2021, 11:29:22 Vukari - Omnes Nihil [ep] (2021)


*Artist: Vukari
*Album: Omnes Nihil [ep]
*Year: 2021
*Genre: Black Metal
*Country: United States
*Format: mp3@CBR320kbps
*Size: 57MB

Tracklist:
1. Despondent 05:20
2. Omnes Nihil 06:57
3. The Weight of Dejection 03:37
4. Saturn in the Eighth House 09:05
******************************
Total playing time: 24:59



[more=Technical info]
Input File: 02 - Omnes Nihil.mp3
Channels : 2
Sample Rate : 44100
Precision : 16-bit
Duration : 00:06:57.36 = 18405488 samples = 31301.9 CDDA sectors
File Size : 16.7M
Bit Rate : 320k
Sample Encoding: MPEG audio (layer I, II or III)
Comments :
Title=Omnes Nihil
Artist=Vukari
Album=Omnes Nihil
Tracknumber=2
Year=2021

[/more]

Register
(17) artscald, as71, caro, julianotidre, kim666, madera, murian, nemx, Olethros, sandr666, stormhatt, stub888, supremo, VALERY, varlam4, wreak, yuratroll,
Nov 21 2021, 11:28:41 Dementia's Creed - Ain Soph Arar (2021)


*Artist: Dementia's Creed
*Album: Ain Soph Arar
*Year: 2021
*Genre: Progressive Black Metal
*Country: United States
*Format: mp3@CBR320kbps
*Size: 177MB

Tracklist:
1. Towers of Silence 10:29
2. Arrow of Time 06:48
3. Rivers of Lost Faith 05:34
4. Ain 02:08
5. Gold Laden Eyes 15:21
6. Embers of Eternity 07:38
7. Scourge 05:15
8. Ain Soph 03:09
9. Ain Soph Arar 13:04
10. Mutare 07:51
******************************
Total playing time: 1:17:17



[more=Technical info]
Input File: 03 - Rivers Of Lost Faith.mp3
Channels : 2
Sample Rate : 44100
Precision : 16-bit
Duration : 00:05:34.15 = 14736147 samples = 25061.5 CDDA sectors
File Size : 13.4M
Bit Rate : 320k
Sample Encoding: MPEG audio (layer I, II or III)
Comments :
Title=Rivers Of Lost Faith
Artist=Dementia's Creed
Album=Ain Soph Arar
Tracknumber=03
Year=2021

[/more]

Register
(15) AlexSmith, artscald, caro, cryptal, julianotidre, kimkayoung, Marek, metala, Olethros, robertho777, supremo, VALERY, varlam4, wreak, Сварог Барг,
Nov 21 2021, 11:28:11 Dementia's Creed - Anagnorisis (2018)


*Artist: Dementia's Creed
*Album: Anagnorisis
*Year: 2018
*Genre: Progressive Black Metal
*Country: United States
*Format: mp3@CBR320kbps
*Size: 88MB

Tracklist:
1. Gnosis 04:12
2. Downfall 09:09
3. Mountain 02:36
4. Resignation 12:21
5. Sojourn 05:21
6. Fruition 04:37
******************************
Total playing time: 38:16



[more=Technical info]
Input File: 05 - Sojourn.mp3
Channels : 2
Sample Rate : 44100
Precision : 16-bit
Duration : 00:05:21.77 = 14190101 samples = 24132.8 CDDA sectors
File Size : 12.9M
Bit Rate : 320k
Sample Encoding: MPEG audio (layer I, II or III)
Comments :
Title=Sojourn
Artist=Dementia's Creed
Album=Anagnorisis
Tracknumber=5
Year=2018

[/more]

Register
(10) AlexSmith, artscald, caro, julianotidre, Marek, Olethros, supremo, VALERY, varlam4, wreak,
Nov 21 2021, 11:27:47 Nnunn - Matriarch (2021)


*Artist: Nnunn
*Album: Matriarch
*Year: 2021
*Genre: Atmospheric Death/Black Metal
*Country: United States
*Format: mp3@CBR320kbps
*Size: 60MB

Tracklist:
1. Heiress 02:00
2. The Serpent Swallows All 05:31
3. Abdicate 01:05
4. Daffodil 04:45
5. A Wick, A Light 01:15
6. Ignifer 08:31
7. . 03:08
******************************
Total playing time: 26:15



[more=Technical info]
Input File: 02 - The Serpent Swallows All.mp3
Channels : 2
Sample Rate : 44100
Precision : 16-bit
Duration : 00:05:32.06 = 14644022 samples = 24904.8 CDDA sectors
File Size : 13.3M
Bit Rate : 320k
Sample Encoding: MPEG audio (layer I, II or III)
Comments :
Title=The Serpent Swallows All
Artist=Nnunn
Album=Matriarch
Tracknumber=2
Year=2021

[/more]

Register
(17) aleon, AlexSmith, artscald, caro, cryptal, DarkHorde, julianotidre, Marek, metala, Olethros, Ostinato, robertho777, sergsazan, supremo, VALERY, varlam4, wreak,
Nov 21 2021, 11:27:22 Bednja - Ponosni U Smrti [ep] (2021)


*Artist: Bednja
*Album: Ponosni U Smrti [ep]
*Year: 2021
*Genre: Post-Black Metal
*Country: Croatia
*Format: mp3@CBR320kbps
*Size: 31MB

Tracklist:
1. Pucajte u prsa 00:41
2. Mrzimo vas 03:13
3. Ti ćeš doći u svojoj moči (Vratit ćeš se Satane) (Satan Panonski cover) 03:30
4. Ponosni u smrti 06:04
******************************
Total playing time: 13:28



[more=Technical info]
Input File: 02 - Mrzimo Vas.mp3
Channels : 2
Sample Rate : 44100
Precision : 16-bit
Duration : 00:03:14.05 = 8557649 samples = 14553.8 CDDA sectors
File Size : 7.76M
Bit Rate : 320k
Sample Encoding: MPEG audio (layer I, II or III)
Comments :
Title=Mrzimo Vas
Artist=Bednja
Album=Ponosni U Smrti
Tracknumber=2
Year=2021

[/more]

Register
(7) aleon, artscald, caro, kim666, VALERY, varlam4, wreak,
Nov 21 2021, 11:26:57 Solomonar - Vii (2021)


*Artist: Solomonar
*Album: Vii
*Year: 2021
*Genre: Atmospheric Black Metal/Folk
*Country: Romania
*Format: mp3@CBR320kbps
*Size: 131MB

Tracklist:
1. I (of LI) Lost in the woods... 12:19
2. II - Omagiu 12:02
3. III 07:45
4. IV 06:56
5. V 08:53
6. VI 06:13
7. VII (Куда) 03:18
******************************
Total playing time: 57:26



[more=Technical info]
Input File: 07 - VII (Куда).mp3
Channels : 2
Sample Rate : 44100
Precision : 16-bit
Duration : 00:03:18.10 = 8736210 samples = 14857.5 CDDA sectors
File Size : 7.92M
Bit Rate : 320k
Sample Encoding: MPEG audio (layer I, II or III)
Comments :
Title=VII (Куда)
Artist=Solomonar
Album=VII
Tracknumber=7
Year=2021

[/more]

Register
(18) aleon, AlexSmith, artscald, autumnwood, caro, julianotidre, kim666, metala, Old Vyaine, Olethros, Ostinato, robertho777, sergsazan, stormhatt, supremo, VALERY, varlam4, wreak,
Nov 21 2021, 11:26:36 My Grief - 1066 Ad (2021)


*Artist: My Grief
*Album: 1066 Ad
*Year: 2021
*Genre: Black Metal
*Country: Norway
*Format: mp3@CBR320kbps
*Size: 69MB

Tracklist:
1. The Beginning Is the End 01:25
2. 1066 AD 03:57
3. Bloodlust 03:40
4. In Pieces 03:08
5. Obsession 03:00
6. Spiritual Journey 04:45
7. Endless Pain (Remixed/mastered) 05:11
8. Satan (Remixed/mastered) 01:29
9. Suffering (Rerecorded/mixed/mastered) 03:27
******************************
Total playing time: 30:02



[more=Technical info]
Input File: 02 - 1066 AD.mp3
Channels : 2
Sample Rate : 44100
Precision : 16-bit
Duration : 00:03:57.08 = 10455096 samples = 17780.8 CDDA sectors
File Size : 9.48M
Bit Rate : 320k
Sample Encoding: MPEG audio (layer I, II or III)
Comments :
Title=1066 AD
Artist=My Grief
Album=1066 AD
Tracknumber=2
Year=2021

[/more]

Register
(15) AlexSmith, artscald, caro, julianotidre, kim666, Korpse, Marek, Olethros, robertho777, sagratan, smes, stormhatt, supremo, VALERY, wreak,
Nov 21 2021, 11:26:11 Northblod - Crystalized Dark Veins (2021)


*Artist: Northblod
*Album: Crystalized Dark Veins
*Year: 2021
*Genre: Black Metal
*Country: United States
*Format: mp3@CBR320kbps
*Size: 88MB

Tracklist:
1. PureBlackSky 06:45
2. Ancient Old Curses 04:14
3. Distant Tombs 05:02
4. Northern Dwellings 06:24
5. Blodthirst 06:09
6. Snowblod 05:52
7. Graverobbing Under Full Moon 04:06
******************************
Total playing time: 38:32



[more=Technical info]
Input File: 01 - PureBlackSky.mp3
Channels : 2
Sample Rate : 44100
Precision : 16-bit
Duration : 00:06:45.45 = 17880169 samples = 30408.5 CDDA sectors
File Size : 16.2M
Bit Rate : 320k
Sample Encoding: MPEG audio (layer I, II or III)
Comments :
Title=PureBlackSky
Artist=Northblod
Album=Crystalized Dark Veins
Tracknumber=01
Year=2021

[/more]

Register
(14) AlexSmith, artscald, caro, julianotidre, kim666, nemx, Olethros, robertho777, stormhatt, stub888, supremo, VALERY, varlam4, wreak,
Nov 21 2021, 07:40:24 Unctoris - Shout Demise (2021)


*Artist: Unctoris
*Album: Shout Demise
*Year: 2021
*Genre: Black/Death Metal
*Country: Italy
*Format: mp3@CBR320kbps
*Size: 113MB

Tracklist:
1. Come Stabilire se ci Sei Ancora 06:31
2. Cercherò il Passaggio di Ritorno o Sarò Cancellato 04:35
3. Violet Velvet 06:56
4. Non Tornare 05:16
5. Rites Of Grey Isolation 07:52
6. Sideral Sojourn 10:35
7. Is an Anechoic Chamber 07:47
******************************
Total playing time: 49:32



[more=Technical info]
Input File: 02 - Cercherò Il Passaggio Di Ritorno O Sarò Cancellato.mp3
Channels : 2
Sample Rate : 44100
Precision : 16-bit
Duration : 00:04:35.27 = 12139407 samples = 20645.2 CDDA sectors
File Size : 11.0M
Bit Rate : 320k
Sample Encoding: MPEG audio (layer I, II or III)
Comments :
Title=Cercherò Il Passaggio Di Ritorno O Sarò Cancellato
Artist=Unctoris
Album=Shout Demise
Tracknumber=02
Year=2021

[/more]

Register
(20) AlexSmith, artscald, caro, Cramloth, cryptal, DarkHorde, GorAtheist, grimoir, holokausst, infozahist, julianotidre, kefka, kim666, madera, metala, Olethros, supremo, VALERY, varlam4, wreak,
Nov 21 2021, 07:39:45 Qliphothic Realm - Entrance (2021)


*Artist: Qliphothic Realm
*Album: Entrance
*Year: 2021
*Genre: Raw Black Metal
*Country: Italy
*Format: mp3@CBR320kbps
*Size: 78MB

Tracklist:
1. Intro 02:37
2. As Lightning from Sky 03:23
3. Lilith's Astral Embrance 03:24
4. King Paimon 03:19
5. Bearer of Light 04:02
6. Descend into Leviathan 03:02
7. The Call in the Circle 03:45
8. Infernal Trinity: Baphomet 04:21
9. Call of Melammu 04:26
10. Outro 01:28
******************************
Total playing time: 33:47



[more=Technical info]
Input File: 02 - As Lightning From Sky.mp3
Channels : 2
Sample Rate : 44100
Precision : 16-bit
Duration : 00:03:23.82 = 8988506 samples = 15286.6 CDDA sectors
File Size : 8.15M
Bit Rate : 320k
Sample Encoding: MPEG audio (layer I, II or III)
Comments :
Title=As Lightning From Sky
Artist=Qliphothic Realm
Album=Entrance
Tracknumber=02
Year=2021

[/more]

Register
(14) Alexis The Best, AlexSmith, artscald, caro, CheCoola, DarkHorde, julianotidre, kim666, Olethros, stormhatt, stub888, supremo, varlam4, wreak,

144 Pages V   1 2 3 > » 
- Lo-Fi Version Support form
Copyrights and abuse reports form
Time is now: 27th November 2021 - 00:32:34