Welcome Guest ( Log In | Register )

История благодарностей участнику shial ::: Спасибо сказали: 3825 раз(а)
Дата поста: В теме: За сообщение: Спасибо сказали:
Aug 17 2018, 17:57:14 Stalowa Wola - Stalowa Wola (2017)


*Artist: Stalowa Wola
*Album: Stalowa Wola
*Year: 2017
*Genre: Martial Industrial
*Country: Poland
*Format: mp3@CBR320kbps
*Size: 98MB

Tracklist:
1. Intro 2:56
2. Aerial Warfare 4:36
3. Honor 4:16
4. Infantry 4:12
5. Stalowa Wola 6:31
6. Kruppstahl 5:20
7. Ferr Ignique 5:24
8. Hymn 3:08
9. Lament 6:15
10. Outro 2:49
******************************
Total playing time: 45:27



[more=Extended info]Stalowa Wola, a debut on Polish Industrial music scene. 40 minutes of music with direct references to Martial Industrial style.[/more]

[more=Technical info]
Input File: 04 - Infantry.mp3
Channels : 2
Sample Rate : 44100
Precision : 16-bit
Duration : 00:04:12.13 = 11118977 samples = 18909.8 CDDA sectors
File Size : 10.2M
Bit Rate : 324k
Sample Encoding: MPEG audio (layer I, II or III)
Comments :
Title=Infantry
Artist=Stalowa Wola
Album=Stalowa Wola
Tracknumber=04/10
Year=2017
Genre=Dark Ambient/Industrial
Discnumber=1

[/more]

Register
(3) carpathian, Raw1488, wtk.412,
Aug 17 2018, 05:01:24 Rahvira - Մահվան Սիմֆոնիա [single] (2008)
Register
(2) thenecromancer, varg-38ru,
Aug 8 2018, 08:57:02 Sunchariot - Right Sun–ritual Head (2003)


320
Register


flac
Register


bye.gif
(3) dermarsoran, Olethros, sethurius,
Jul 29 2018, 14:51:11 Agathocles & Sxsxcxbx - Agathocles/Sxsxcxbx [split] (2018)


*Artist: Agathocles & Sxsxcxbx
*Album: Agathocles/Sxsxcxbx [split]
*Year: 2018
*Genre: Grindcore/Mincecore | Hardcore
*Country: Belgium | Russian Federation
*Format: mp3@CBR320kbps
*Size: 33MB

Tracklist:
Agathocles:
01. Splattered Brains
02. A Start At Least
03. A For Arrogance
04. Christianity Means Tyranny
05. Porcelain A
SxSxCxBx:
06. Drug Dealer
07. I Am Drunk
08. Electric Charge In The Ass
09. Siberian Plague
10. Musical Orchestra Crushed By Elephants
******************************
Total playing time: 14:31

[more=Extended info]Agathocles:
Recorded in Switzerland in summer 2008.
Recorded by Nils and Jan, two weeks after our bassplayer Tony killed himself.... REST IN NOISE, compadre !!!
SxSxCxBx:
Recorded in Irokezrecordz Studio (Russia, Barnaul) in 2017-2018.[/more]

[more=Technical info]
Input File: 06. SxSxCxBx - Drug Dealer.mp3
Channels : 2
Sample Rate : 44100
Precision : 16-bit
Duration : 00:01:45.48 = 4651844 samples = 7911.3 CDDA sectors
File Size : 4.22M
Bit Rate : 320k
Sample Encoding: MPEG audio (layer I, II or III)
Comments :
Title=Drug Dealer
Artist=SxSxCxBx
Album=Split
Tracknumber=06
Year=2018

[/more]

Register
(5) Hell_Is_Here, Lanceatum, morbidangelo, Rosen, Tyrone,
Jul 5 2018, 12:44:10 Stronghold Guardian - Eastward (2018)
Dungeon Synth качественный - это когда рука тянется если не сражаться с драконом за принцессу, а хотя бы Morrovind скачать поиграть.
(3) dk201x, Sl666p, suseka,
Jul 2 2018, 12:51:42 Tad - God's Balls (1989)


*Artist: Tad
*Album: God's Balls
*Year: 1989
*Genre: Grunge/Alternative Rock
*Country: United States
*Format: mp3@CBR320kbps
*Size: 92MB

Tracklist:
01. Behemoth 4:10
02. Pork Chop 4:22
03. Helot 2:58
04. Tuna Car 2:37
05. Sex God Missy (Lumberjack Mix) 4:29
06. Cyanide Bath 3:37
07. Boiler Room 4:49
08. Satan's Chainsaw 3:10
09. Hollow Man 4:05
10. Nipple Belt 3:17
11. Ritual Device 2:50
******************************
Total playing time: 40:24

[more=Extended info]Тед Дойл, этакий матёрый человечище, сиэлтский Гаргантюа, или, по выражению лондонских крикунов на одном из его ранних концертов, "жирный ублюдок". Тогдашняя фенька гласила, что Господин Тед был лесорубом, за каждым усилителем была спрятана бензопила, а сам он жаждал гнусных развлечений. "Тед - это парень, который любит развлекаться и плюет на всех", - заявила его фирма грамзаписи. У него также имелась группа, удачно названная "Tad", из которой только басист Курт Дэниэлсон осмеливался открывать рот публично.
Сумев свести в единое целое ритмический ураган "Black Flag", грандж "Mudhoney" и навыки американской треш-культуры, Тед добился успеха. Дебютный альбом "God's Balls" был назван в честь кульминационного момента в дешевом порнофильме. В него входили композиции "Sex God Missy", страшная история о сексуальной ненависти, прорывающаяся сквозь невнятное бормотание коротковолнового радиотелефона, и "Nipple Belt", написанная в духе "лесорубов" Сиэтла, в котором рассказывалось о знаменитом массовом убийстве, устроенном в Техасе Эдом Гейном с бензопилой в руках. "Поставьте диск на проигрыватель, и он закрутится, как пилорама", - утверждалось в газетных рекламах (с) Nirvana и саунд Сиэтла[/more]

[more=Technical info]
Input File: 01 - Behemoth.mp3
Channels : 2
Sample Rate : 44100
Precision : 16-bit
Duration : 00:04:10.74 = 11057634 samples = 18805.5 CDDA sectors
File Size : 10.1M
Bit Rate : 323k
Sample Encoding: MPEG audio (layer I, II or III)
Comments :
Title=Behemoth
Artist=Tad
Album=God's Balls
Tracknumber=01/11
Year=1989
Genre=Alternative Rock/Grunge
Discnumber=1

[/more]

Register
(3) A.L.Rapsod, Daale, marilin,
Jun 27 2018, 18:23:34 Hekte Zaren & Norss - Hellemond [split] (2008)


*Artist: Hekte Zaren & Norss
*Album: Hellemond [split]
*Year: 2008
*Genre: Dark Ambient, Experimental, Medieval | Dark Ambient, Minimal
*Country: Poland | Netherlands
*Format: mp3@CBR320kbps
*Size: 116MB

Tracklist:
01. Hekte Zaren - Thunder Song 9:25
02. Hekte Zaren - Spiritual Guide 3:30
03. Hekte Zaren - Bells Of Evil 4:13
04. Hekte Zaren - Pass'ion 3:57
05. Hekte Zaren - Pain Is A Pleasure - 4:00
06. Norss - In De Mond Van De Heilige Hel Klinken Hymnen Der Doden 33:54
******************************
Total playing time: 58:59



[more=Extended info]Hand-numbered edition of 22 copies.[/more]

[more=Technical info]
Input File: 01. Hekte Zaren - Thunder Song.mp3
Channels : 2
Sample Rate : 44100
Precision : 16-bit
Duration : 00:09:25.87 = 24955043 samples = 42440.5 CDDA sectors
File Size : 22.7M
Bit Rate : 320k
Sample Encoding: MPEG audio (layer I, II or III)
Comments :
Title=Thunder Song
Artist=Hekte Zaren
Album=Hellemond
Tracknumber=01/06
Year=2008
Genre=Dark Ambient/Drone/Poetry/Medieval
Discnumber=1

[/more]


 ! 

Tracklist 21.gif
 


Register
(2) Lanceatum, Mist13Signifier,
Jun 22 2018, 10:54:44 Drug Cult - Drug Cult (2018)
это суженный зрачок.
Само название проекта как бы намекает.
(2) avkruchinin, vosmidesijatye,
Jun 11 2018, 03:54:23 Nucleus & Jareniy Cyplionak​ & Changoz & Nacatero - 4-way Split [split] (2018)


*Artist: Nucleus & Jareniy Cyplionak​ & Changoz & Nacatero
*Album: 4-way Split [split]
*Year: 2018
*Genre: Grindcore | Grindcore | Gorenoise | Noise
*Country: Bulgaria | Bulgaria | Paraguay | Mexico
*Format: mp3@CBR320kbps
*Size: 49MB

Tracklist:
Nucleus:
01. 7 Tracks 04:32
Jareniy Cyplionak:
02. 9 Tracks 07:49
Changoz:
03. In Misery Sessions 05:08
Nacatero:
04. I Want My Own Destruction 04:16
******************************
Total playing time: 21:45



[more=Technical info]
Input File: Nucleus-Jareniy Cyplionak-Cnahgoz-Nacatero - Nucleus-Jareniy Cyplionak-Changoz-Nacatero - 01 Nucleus - 7 Tracks.mp3
Channels : 2
Sample Rate : 44100
Precision : 16-bit
Duration : 00:04:32.14 = 12001506 samples = 20410.7 CDDA sectors
File Size : 11.0M
Bit Rate : 324k
Sample Encoding: MPEG audio (layer I, II or III)
Comments :
Title=Nucleus - 7 Tracks
Artist=Nucleus/Jareniy Cyplionak/Cnahgoz/Nacatero
Album=Nucleus/Jareniy Cyplionak/Changoz/Nacatero
Tracknumber=1
Year=2018

[/more]

Register
(5) infiltrator, Lanceatum, Rosen, satanist666, Герб,
Jun 10 2018, 13:40:46 Current 93 - The Stars On Their Horsies (2018)


*Artist: Current 93
*Album: The Stars On Their Horsies
*Year: 2018
*Genre: Experimental, Industrial
*Country: United Kingdom
*Format: mp3@CBR320kbps
*Size: 84MB

Tracklist:
01. The Stars on Their Horsies
******************************
Total playing time: 39:39

[more=Technical info]
Input File: Current 93 - The Stars on Their Horsies.mp3
Channels : 2
Sample Rate : 44100
Precision : 16-bit
Duration : 00:39:39.90 = 104953546 samples = 178492 CDDA sectors
File Size : 95.2M
Bit Rate : 320k
Sample Encoding: MPEG audio (layer I, II or III)

[/more]

Register
(13) garml2, Hell_Is_Here, infiltrator, lordbathor, marilin, Moonshtook, princeshr, Red Wizard, spiritualdecay666, thenecromancer, VALERY, Wolftribes, wtk.412,
May 29 2018, 11:35:43 Оргия Праведников - Пламя Изнутри [compilation] (2018)
ну как что? Пламя изнутри. Каждый может трактовать сие как будет душе угодно. Но мило, что картинка не оставила равнодушной. 1488.gif

можно так еще, если вам угодно
(2) infiltrator, vosmidesijatye,
May 29 2018, 11:29:26 Оргия Праведников - Пламя Изнутри [compilation] (2018)
(2) infiltrator, vosmidesijatye,
May 28 2018, 19:59:23 Swartalf - Candles Burning Blue (1997)
отличный релиз!
(1) Kazoth,
Nov 17 2017, 15:38:52 Чёртов Стул - Легенды Дикого Запада (2017)


*Artist: Чёртов Стул
*Album: Легенды Дикого Запада
*Year: 2017
*Genre: Punk-Rock
*Country: Russian Federation
*Format: mp3@CBR320kbps
*Size: 100MB

Tracklist:
01. Ритуал
02. Сын ветров
03. Тайна древних
04. Вендиго
05. Топор войны
06. Не к добру
07. Найтака
08. Воин
09. Простая схема
10. Путь через вечность
11. Исповедь
12. Шесть футов
******************************
Total playing time: 41:59

Preview 1

[more=Technical info]
Input File: 04 Вендиго.mp3
Channels : 2
Sample Rate : 44100
Precision : 16-bit
Duration : 00:03:35.09 = 9485425 samples = 16131.7 CDDA sectors
File Size : 9.01M
Bit Rate : 335k
Sample Encoding: MPEG audio (layer I, II or III)
Comments :
Artist=Чёртов Стул
Album=Легенды дикого запада
Tracknumber=4
Year=2017
Genre=12

[/more]

Register
(5) AndreFrancis, Aresson, DMIYUR, gwar, VALERY,
Sep 20 2017, 09:29:51 Raison D'être & Troum - XIBIPIIO. In And Out Of Experience [collaboration] (2017)


*Artist: Raison D'être & Troum
*Album: XIBIPIIO. In And Out Of Experience [collaboration]
*Year: 2017
*Genre: Dark Ambient/Experimental | Drone Ambient/Experimental
*Country: Sweden | Germany
*Format: mp3@CBR320kbps
*Size: 132MB

Tracklist:
1. In Den Wellen, Ein Sehnen
2. The Machine Starts To Sing
3. Eigi Einhamr
4. Ārdaga
5. Hang'-E-Lah
6. Dreiklang Aus Äther
7. Ijä-Kyl
8. Expulsion Of The False Self
9. Epõdós
******************************
Total playing time: 1:02:04



[more=Extended info]This is the second part of the collaboration that started with 'De Aeris In Sublunaria Influxu', released 2015. Based on a notion of the fascinating Amazonian Piraha tribe, this is an excursion into nine different micro-worlds of perception and consciousness. Music that reaches for the eternal, but it only exists in the very moment.

Raison d'être sound sources used and processed by Troum 2013-2017 (deranged and reframed, morphed and transformed). Additional material recorded by Troum 2013-2017: guitars, voices, flutes, accordeon, cello, violin, didgeridoo, dombra, tapes, found sounds. Final mix by Troum.
K-14 level mastering by Peter Andersson.
Graphic design by Marcin Lojek for Rzpaid design. Patternal drawings by Bartosz Zaskorski.[/more]

[more=Technical info]
Input File: 05 - Hang\'-E-Lah.mp3
Channels : 2
Sample Rate : 44100
Precision : 16-bit
Duration : 00:10:57.78 = 29007878 samples = 49333.1 CDDA sectors
File Size : 26.6M
Bit Rate : 324k
Sample Encoding: MPEG audio (layer I, II or III)
Comments :
Title=Hang'-E-Lah
Artist=raison d'ГЄtre & Troum
Album=XIBIPIIO. In And Out Of Experience
Tracknumber=05/09
Year=2017
Genre=Dark Ambient/Ambient/Drone/Experimental
Discnumber=1

[/more]

Register
(20) A.L.Rapsod, AndreFrancis, Boozer, Cruor, Emhyr var Emreis, garmonbozia, gena, Hell_Is_Here, Hipgnosis, kefka, lucifix, marilin, milosdjor, princeshr, RUSP73, satanath, svndvst, thenecromancer, wtk.412, zoog,
Sep 8 2017, 19:57:14 Chertopolokh - Час Полночи [ep] (2017)


*Artist: Chertopolokh
*Album: Час Полночи [ep]
*Year: 2017
*Genre: Psychodelic Post/Doom Metal
*Country: Russian Federation
*Format: mp3@CBR320kbps
*Size: 46MB

Tracklist:
1. Пепельно-Чёрное
2. Топи Забвения
3. Час Полночи
******************************
Total playing time: 18:43



[more=Extended info]Там, где душные тени приобретают очертания ведьм, где в пыльной траве тлеют угли некогда пылавших сердец одиноких странников, в час полночи сквозь болотное марево колючей звездой светит Чертополох.[/more]

[more=Technical info]
Input File: 01 - Пепельно-Чёрное.mp3
Channels : 2
Sample Rate : 44100
Precision : 16-bit
Duration : 00:05:14.29 = 13859969 samples = 23571.4 CDDA sectors
File Size : 13.8M
Bit Rate : 351k
Sample Encoding: MPEG audio (layer I, II or III)
Comments :
Title=Ashen Black
Artist=Chertopolokh
Album=Midnight Hour
Tracknumber=1/3
Year=2017
Genre=psychodelic post doom / post metal
Discnumber=1/1

[/more]

Register
(22) AndreFrancis, Aresson, artscald, ctulhudagon, gena, kauyumari, Krosis, krotovich, marilin, Metalass, oldvarg, rabindranad, Rosen, russ777, SAPOGi, SatanicPanzer, Storky, thenecromancer, Tular, VALERY, varlam4, wreak,
Aug 26 2017, 11:46:04 I Burn & Sshe Retina Stimulants - Subfried Trafic Perfection [collaboration] (2002)
320
Register
(1) Ostinato,
Aug 22 2017, 08:01:48 Стахановцы - Ништяк (2017)
"Знаменитый ударник Алексей Стаханов два раза в день ходил по малой нужде, и один раз в два дня - по большой. Когда же с ним случался запой, он четыре раза в день ходил по малой нужде и ни разу - по большой. Подсчитай, сколько раз в год ударник Алексей Стаханов сходил по малой нужде и сколько по большой нужде, если учесть, что у него триста двенадцать дней в году был запой."
(с) Венедикт Ерофеев "Москва-Петушки"
(1) Old Vyaine,
Aug 22 2017, 07:18:41 Totalitär - Snabb Livsglädje - Demo -86 [ep] (1991)


*Artist: Totalitär
*Album: Snabb Livsglädje - Demo -86 [ep]
*Year: 1991
*Genre: D-Beat/Raw Punk
*Country: Sweden
*Format: mp3@CBR192kbps
*Size: 13MB

Tracklist:
A1 Kannibalerna
A2 Krossa Elitsystemet
A3 Förena Er
A4 Ett Land Med Fängelser
B1 Partipolitik
B2 ...Kan Inget Bli Sämre
B3 En God Industri
******************************
Total playing time: 9:35



[more=Extended info]Vinyl issue of their March 1986 demo session when the band was going by the name Anti-System.
The whole session was previously unreleased to the public, only a few tracks appeared on compilation tapes at the time.

Виниловое издание первого демо Знаковой шведской группы записанного в марте 1986-го, в те годы не издававшееся, но вышедшая в '91-ом году на Finn Records. Тогда группа ещё называлась Anti-System и несколько треков с этой сессии были включены в нескольких локальных сборниках.[/more]

Register
(1) FUDEDOR,
Aug 21 2017, 03:52:31 Zelda - March 1991 Rehearsal [demo] (1991)
192
Register


(5) Evilded, LVXXVL, Naarseth, sethurius, thenecromancer,
Aug 19 2017, 05:01:03 Obtest - Prieš Audrą [ep] (2006)
320 + scans

Register
(5) cancer1974, karaczun, Surt, thenecromancer, vasiljev_sergej,
Aug 18 2017, 05:19:43 Halo Manash - Walkeus (2016)


*Artist: Halo Manash
*Album: Walkeus
*Year: 2016
*Genre: Dark Ritual Ambient
*Country: Finland
*Format: mp3@CBR256kbps
*Size: 21MB

Tracklist:
01. Hänesä Henget Eläwät
02. Luiden Lukija
******************************
Total playing time: 13:20

[more=Extended info]Both tracks were captured live on analogue reel-to-reel tape in Katajan Kaiku studio.
Cassette and insert packaged in a custom silk-screened cardboard cover.
Label: Aural Hypnox ‎– [AHMC14]
Edition of 100 copies.[/more]

Register
(14) current, DMIYUR, Hell_Is_Here, Infidel, Ostinato, Raw1488, RUSP73, Sangreal, spiritualdecay666, stub888, svndvst, Wolftribes, xska, ZA670,
Aug 17 2017, 01:12:22 Nirvana - Bleach (1989)
Ну конечно, если бы не успех Невермайнда, то про Блитч мало бы кто знал за пределами тусовки sub pop.
У меня есть парочка книг о Нирване и в одной из них Курт пишет, что очарованные попсовым звучанием Невермайнд люди были неприятно удивлены более сухим и даже резким звучанием Блитч. Сам альбом вообще как сингл слышится.
(1) Ghostb,
Aug 13 2017, 23:05:01 Astral Silence - Astral Journey (2010)
Register
(2) Skeksis, thenecromancer,
Aug 13 2017, 16:45:23 Funeral Candle - Eternal Realm Of Souls (2016)
some mirrors

Register
(3) Doooomed, marilin, Ostinato,

39 Pages V   1 2 3 > » 
- Lo-Fi Version Support form
Copyrights and abuse reports form
Time is now: 15th November 2019 - 08:34:53