Welcome Guest ( Log In | Register )

История благодарностей участнику tt2008 ::: Спасибо сказали: 549 раз(а)
Дата поста: В теме: За сообщение: Спасибо сказали:
Feb 21 2020, 23:49:19 Mjød - Шёпот Последней Зимы (2020)
Thanks dwarf-1.gif
(2) infiltrator, Samaritianin,
Jan 19 2020, 02:18:28 Atavicus - Di Eroica Stirpe (2019)
Thanks dwarf-1.gif
(2) infiltrator, Samaritianin,
Dec 27 2019, 03:47:33 Talethrone - The King In Hollow Trunk [ep] (2019)
Thanks dwarf-1.gif
(2) infiltrator, Samaritianin,
Oct 14 2019, 03:13:52 Wyrd - Hex (2019)
Thanks dwarf-1.gif
(1) SnaP,
Oct 10 2019, 12:49:45 Svartby - Big Boss (2019)
Thanks dwarf-1.gif
(1) Samaritianin,
Apr 25 2019, 14:23:31 Изморозь - Культ (2019)
Thanks dwarf-1.gif
(1) Samaritianin,
Mar 20 2019, 13:33:49 Valkenrag - Chasing The Gods (2018)
Thanks dwarf-1.gif
(1) Samaritianin,
Nov 29 2018, 14:21:51 Frosttide - Decedents - Enshrined [ep] (2018)
Thanks dwarf-1.gif
(1) vosmidesijatye,
Oct 6 2018, 21:40:18 Mongol - The Return (2018)
Thanks dwarf-1.gif
(1) BrutalMan,
Jul 6 2018, 05:30:52 Kylfingar - Világok Határán (2018)
Thanks dwarf-1.gif
(2) infiltrator, Ostinato,
Jan 14 2017, 23:38:59 Terhenetär - Metsänhenkien Tanssi [ep] (2017)
Thanks dwarf-1.gif
(1) добрыйКот,
Oct 5 2016, 13:21:06 Alkonost - Песни Белой Лилии (2016)
Thanks dwarf-1.gif
(1) Aresson,
Sep 29 2016, 18:46:51 Skálmöld - Vögguvísur Yggdrasils (2016)
Thanks dwarf-1.gif
(1) Ostinato,
Mar 24 2016, 13:57:09 Grimner - Frost Mot Eld (2016)
Thanks dwarf-1.gif
(1) Sterh,
Sep 20 2015, 04:30:12 Grimner - De Kom Från Norr [ep] (2015)


*Artist: Grimner
*Album: De Kom Från Norr [ep]
*Year: 2015
*Genre: Folk/Viking Metal
*Country: Sweden
*Format: mp3@CBR320kbps
*Size: 40MB

Tracklist:
01. De Kom Från Norr 03:52
02. Etterpolska 03:03
03. Sorgesaga 03:01
04. Gungner 00:59
05. Forna Dagar (Swing Version) 06:59
******************************
Total playing time: 17:54

[more=Technical info]
Input File: 01) De Kom Fr?n Norr.mp3
Channels : 2
Sample Rate : 44100
Precision : 16-bit
Duration : 00:03:52.80 = 10266568 samples = 17460.1 CDDA sectors
File Size : 9.35M
Bit Rate : 321k
Sample Encoding: MPEG audio (layer I, II or III)
Comments :
Title=De Kom FrГҐn Norr
Artist=Grimner
Album=De Kom FrГҐn Norr [EP]
Tracknumber=01/05
Year=2015
Genre=Folk/Viking Metal

[/more]

Register
(19) andeimon, Cartman223, dromord, fabriziomagno, gwynnbleid, Kaamos, Mogozoz, Moonshtook, neoatheist, oldvarg, pfk505, Rosen, satanist666, Shagarth21, talismanFS, tont, varlam4, wreak, ZA670,
Aug 28 2015, 14:06:30 Tarm - Siis Kui Laantes Saabub Hämarus (2010)


*Artist: Tarm
*Album: Siis Kui Laantes Saabub Hämarus
*Year: 2010
*Genre: Pagan Black Metal
*Country: Estonia
*Format: mp3@CBR320kbps
*Size: 72MB

Tracklist:
01. Kardetuna Piinleb 02:57
02. Ohverdav Ori 02:20
03. Kus Nõder Inimmõistus 03:18
04. Oleme Metslased 03:36
05. Oma Kurjusega Hävitame 04:06
06. Pimedaima Oru Vihavalda 03:20
07. Siis Kui Laantes Saabub Hämarus 03:37
08. Sokuvitu Kultuse Juurdumise 04:00
09. Öiste Häälte Verejanust 04:24
******************************
Total playing time: 31:38

[more=Technical info]
Input File: 04) Oleme Metslased.mp3
Channels : 2
Sample Rate : 44100
Precision : 16-bit
Duration : 00:03:36.63 = 9553383 samples = 16247.2 CDDA sectors
File Size : 8.70M
Bit Rate : 321k
Sample Encoding: MPEG audio (layer I, II or III)
Comments :
Title=Oleme Metslased
Artist=Tarm
Album=Siis Kui Laantes Saabub Hämarus
Tracknumber=04/09
Year=2010
Genre=Pagan/Black Metal

[/more]

Register
(18) artscald, Buregon, Constantinus I, Ildjarn, Indamage, INDARKNESS, Moonshtook, morbidangelo, NachtWulf, rom666, Rosen, satanist666, Storky, Surt, suseka, tont, varlam4, vasiljev_sergej,
May 28 2015, 03:26:29 Metsatöll - Pummelung [ep] (2015)


*Artist: Metsatöll
*Album: Pummelung [ep]
*Year: 2015
*Genre: Folk Metal
*Country: Estonia
*Format: mp3@CBR320kbps
*Size: 23MB

Tracklist:
01. Pummelung 03:29
02. Vana Jutuvestja Laul 04:15
03. Külmale Maale (J.M.K.E. Cover) 02:13
******************************
Total playing time: 9:57

[more=Technical info]
Input File: 01) Pummelung.mp3
Channels : 2
Sample Rate : 44100
Precision : 16-bit
Duration : 00:03:29.97 = 9259589 samples = 15747.6 CDDA sectors
File Size : 8.44M
Bit Rate : 321k
Sample Encoding: MPEG audio (layer I, II or III)
Comments :
Title=Pummelung
Artist=Metsatöll
Album=Pummelung [EP]
Tracknumber=01/03
Year=2015
Genre=Folk Metal

[/more]

Register
(25) artscald, Ballisargon, BeerBear, Black Cat, Boozer, Cartman223, csgmnk, gwar, gwynnbleid, Jurmagund, LightWizard, morbidangelo, neoatheist, Old Vyaine, Paradayz, princeshr, Reverend, Rosen, sarcophagus, talismanFS, Thrasher, tont, varlam4, wreak, Например,
Jan 18 2015, 05:47:38 Trollfest - A Decade Of Drekkadence [best of/compilation] (2013)


*Artist: Trollfest
*Album: A Decade Of Drekkadence [best of/compilation]
*Year: 2013
*Genre: Folk Metal
*Country: Norway
*Format: mp3@CBR320kbps
*Size: 112MB

Tracklist:
01. På Beruselsens Vinger 04:01
02. God's Away On Business (Tom Waits Cover) 03:17
03. Toxic (Britney Spears Cover) 03:22
04. Drekkadag (Drekkameratene Cover) 02:16
05. Selvforherligende Vås 04:59
06. Drekkaekspedisjon 04:27
07. Trollfest (På Veg Til Vorspiel) 01:34
08. Drekka Konkurransen! 01:21
09. Drekka Mer!!! 01:41
10. ...Skogsfest... 01:19
11. Nachspiel In Ein Baum 01:46
12. Heimferd 02:44
13. Brakebein (Acoustic Version) 03:32
14. Karve (Acoustic Version) 05:45
15. Rundt bålet (Acoustic Version) 01:59
16. Gitarharding Bromleskandinav 02:46
******************************
Total playing time: 46:49

[more=Technical info]
Input File: 01) P? Beruselsens Vinger.mp3
Channels : 2
Sample Rate : 44100
Precision : 16-bit
Duration : 00:04:01.53 = 10651341 samples = 18114.5 CDDA sectors
File Size : 10.0M
Bit Rate : 333k
Sample Encoding: MPEG audio (layer I, II or III)
Comments :
Title=PГҐ Beruselsens Vinger
Artist=TrollfesT
Album=A Decade Of Drekkadence
Tracknumber=01/16
Year=2013
Genre=Folk Metal

[/more]

Register
(28) andeimon, artscald, BeerBear, blacky66, Boozer, cancer1974, caro, Cartman223, ddarkthrone, Emhyr var Emreis, fabriziomagno, gwar, Koscheyushka, LightWizard, Moonshtook, morbidangelo, Mplast, neoatheist, Old Vyaine, popen13, Rosen, RUSP73, satanist666, tont, varlam4, wreak, xxdarkmanxx, ZA670,
Oct 14 2014, 02:10:36 Грай - Млада (2014)
Thanks dwarf-1.gif
(1) Aresson,
Aug 31 2014, 03:46:17 Yonder Realm - The Old Ways (2014)
Thanks dwarf-1.gif
(1) добрыйКот,
Aug 11 2014, 22:04:53 Nomans Land - Last Crusade (2013)


*Artist: Nomans Land
*Album: Last Crusade
*Year: 2013
*Genre: Viking Metal
*Country: Russian Federation
*Format: mp3@VBR280kbps
*Size: 78MB

Tracklist:
01. Right To Luck 04:33
02. Sons Of The Nord 05:51
03. Victory Horns 04:49
04. Strain At The Oars 04:53
05. Dragons 04:39
06. Last Crusade 05:38
07. Warrior’s Path 04:37
08. Bereza 04:19
******************************
Total playing time: 39:19

Register
(29) 0x13, ace73pq, blacky66, Boozer, Cartman223, CelticSPB, fabriziomagno, Fess, Forest, Jurmagund, metala, Mihalik, Militia, Moonshtook, neoatheist, northerking, oldvarg, princeshr, Raziel, Reverend, Rosen, satanist666, slawen, talismanFS, tont, varlam4, Veggr, wreak, Луч,
Jun 17 2014, 05:43:04 Finntroll - Natten Med De Levande Finntroll [live] (2014)


*Artist: Finntroll
*Album: Natten Med De Levande Finntroll [live]
*Year: 2014
*Genre: Humppa Folk Metal
*Country: Finland
*Format: mp3@CBR320kbps
*Size: 181MB

Tracklist:
01. Kitteldags 02:40
02. Slaget vid Blodsälv 03:37
03. Blodnatt 04:27
04. Nedgång 03:11
05. Nattfödd 05:01
06. Ursvamp 02:52
07. Eliytres 03:52
08. Aldhissla 06:25
09. Jaktens Tid 04:00
10. Rivfader 04:31
11. Korpens Saga 03:37
12. Trollhammaren 04:00
13. Fiskarens Fiende 04:19
14. Svartberg 04:10
15. Försvinn Du Som Lyser 03:50
16. Midnattens Widunder 04:24
17. En Mäktig Här 04:27
18. Det Iskalla Trollblodet 05:52
19. Segersång 03:32
******************************
Total playing time: 1:18:47

[more=Technical info]
Input File: 01) Kitteldags.mp3
Channels : 2
Sample Rate : 44100
Precision : 16-bit
Duration : 00:02:40.44 = 7075228 samples = 12032.7 CDDA sectors
File Size : 6.46M
Bit Rate : 322k
Sample Encoding: MPEG audio (layer I, II or III)
Comments :
Title=Kitteldags
Artist=Finntroll
Album=Natten Med De Levande Finntroll
Tracknumber=01/19
Year=2014
Genre=Humppa Folk Metal

[/more]

Register
(27) andeimon, blacky66, cancer1974, Cartman223, cryptal, ddarkthrone, DimonC1, Emhyr var Emreis, ENDSMOUTH, finntroll3, Hell_Is_Here, Jurmagund, Koscheyushka, legion01, Mogozoz, Old Vyaine, RENыч, Sartirius, serach, Sethan, talismanFS, Thiarnan, tont, watasan, wreak, ZA670, Госпромнадзор,
Jun 6 2014, 05:07:01 Equilibrium - Erdentempel (2014)
Register
(5) artscald, DimonC1, Jurmagund, neoatheist, rammstein888,
May 12 2014, 23:54:54 Myrkvar - As En Bloed (2012)


*Artist: Myrkvar
*Album: As En Bloed
*Year: 2012
*Genre: Folk/Viking Metal
*Country: Netherlands
*Format: mp3@CBR320kbps
*Size: 105MB

Tracklist:
01. Noodlot 01:39
02. Voorspelling 04:06
03. Nagelschip 04:37
04. Gjallarhoorn 05:58
05. Asenbloed 04:17
06. Twistengod 05:40
07. Balders Dood 04:24
08. In Aegirs Hal 03:03
09. Vigrid Brandt 03:39
10. Widars wraak 03:12
11. Donderslag 03:21
12. Uit As Herrezen 02:08
******************************
Total playing time: 46:04

[more=Technical info]
Input File: 03) Nagelschip.mp3
Channels : 2
Sample Rate : 48000
Precision : 16-bit
Duration : 00:04:37.59 = 13324176 samples ~ 20819 CDDA sectors
File Size : 11.1M
Bit Rate : 321k
Sample Encoding: MPEG audio (layer I, II or III)
Comments :
Title=Nagelschip
Artist=Myrkvar
Album=As En Bloed
Tracknumber=03/12
Year=2012
Genre=Folk/Viking Metal

[/more]

Register
(23) 0x13, Ballisargon, Buregon, Cartman223, cryptal, fabriziomagno, kostja, Mogozoz, morbidangelo, neoatheist, Phlebotomized, RUDACHUR, Saalingurth, satanist666, Sethan, sperminator, SyncestrA, talismanFS, tont, varlam4, Veggr, wanderer73, wreak,
Apr 22 2014, 13:33:03 Аркона - Явь (2014)
Thanks dwarf-1.gif
(1) Aresson,

3 Pages V   1 2 3 >
- Lo-Fi Version Support form
Copyrights and abuse reports form
Time is now: 28th February 2020 - 04:29:44