Welcome Guest ( Log In | Register )

История благодарностей участнику vam1972 ::: Спасибо сказали: 2540 раз(а)
Дата поста: В теме: За сообщение: Спасибо сказали:
Yesterday, 06:47:44 Roger Waters - Radio K.A.O.S. (1987)
ЦИТАТА(maxmagmas @ Nov 24 2020, 08:43:52) *
Всем бы такие "слабые" альбомы. Один из самых любимых в дискографии ПФ.

Согласен на все сто. В A Momentary... мне очень нравилось сочетание звуковых эффектов, таинственности, и очень крутых мелодий. Не перестаю считать, что этот диск очень удачно воплотил в себе идеи группы начала 70-х годов, дополнив их современным звуком.
(4) Ghostb, infiltrator, karut, maxmagmas,
Nov 22 2020, 11:20:20 Roger Waters - Radio K.A.O.S. (1987)
Все 80-е годы Уотерс пытался доплюнуть и переплюнуть The Wall, сначала в составе PF, потом сольно, и в студии, и на концертах... К счастью (или нет?) - безрезультатно. Так что и в случае Radio K.A.O.S. мы имеем суперконцептуальную работу (про которую Гилмор сказал "много электроники и мало музыки"), через которую постоянно проходит некий "стеночный" лейтмотив", дополненный столь знакомым голосом. Это что касается явных плюсов. Из минусов - танцевальные ритмы, много саксофона, и в качестве бэк-вокалисток (как кажется по пению на альбоме) какие-то спившиеся певички из ближайшего стриптиз-бара.
В качестве двух окончательных плюсов - наличие неплохой песни Who Needs Information и однозначного хита The Tide Is Turning (After Live Aid). В сумме - однозначный проигрыш вышедшему в том же году A Momentary...
(3) Diflock, Ghostb, infiltrator,
Nov 21 2020, 15:46:04 Roger Waters - Radio K.A.O.S. (1987)


*Artist: Roger Waters
*Album: Radio K.A.O.S.
*Year: 1987
*Genre: Progressive Rock
*Country: United Kingdom
*Format: mp3@CBR320kbps
*Size: 93MB

Tracklist:
1 Radio Waves 4:58
2 Who Needs Information 5:55
3 Me or Him 5:23
4 The Powers That Be 4:36
5 Sunset Strip 4:45
6 Home 6:00
7 Four Minutes 4:00
8 The Tide Is Turning (After Live Aid) 5:43
******************************
Total playing time: 41:20

[more=Technical info]
Input File: 08 - The Tide Is Turning (After Live Aid).mp3
Channels : 2
Sample Rate : 44100
Precision : 16-bit
Duration : 00:05:43.87 = 15164755 samples = 25790.4 CDDA sectors
File Size : 13.8M
Bit Rate : 321k
Sample Encoding: MPEG audio (layer I, II or III)
Comments :
Title=The Tide Is Turning (After Live Aid)
Artist=Roger Waters
Album=Radio K.A.O.S.
Tracknumber=08
Year=1987
Genre=Progressive Rock

[/more]

Register
(6) Diflock, fylopaloma, Ghostb, infiltrator, Olethros, thenecromancer,
Nov 20 2020, 16:15:36 Brutal Truth - Need To Control (1994)
Brutal Truth поступили очень мудро здесь. Кому нужен грайнд-кор - слушайте короткие трэки (Judgement, Media Blitz, Black Door Mine и иже с ними) и не засирайте себе мозги. А вот за сложностями - в длиннопостроенные вещи. Ordinary Madness - это дэт/дум, Ironlung - нойз, в Godplayer (самой интересной, как по мне, на этом диске) можно искать днем с огнем много чего, грув, индастриэл, грайнд-кор, хэви, еще черт знает что... Сидеть, слушать это вот, и наслаждаться эстетикой, выискивая интересные музыкальные ходы. Можно еще собрату по несчастью (оба уважают грайнд) морду побить.
(1) mirotvorets,
Nov 16 2020, 16:42:23 Лучший советчик МА - Часть 12 (МДМ) - Тур 2, Рейтингование
A Canorous Quintet - Silence of the World Beyond +2
A Soul Called Perdition - Into The Formless Dawn +1
An Abstract Illusion - Illuminate The Path +3
Auberon - The Tale Of Black +2
Aurora - Eos +2
Autumn Leaves - As Night Conquers Day +3
Blood Rainbow - Upheaval +3
Bloodshot Dawn - Demons +2
Brotthogg - Echoes of the Past +3
Compos Mentis - Fragments Of A Withered Dream +2
Crown of Autumn - Treasures Arcane +2
Dark Oath - When Fire Engulfs The Earth +1
Deathless - The Time To Be Immortal +1
Decameron - My Shadow +2
Dies Irae - Naïve +2
Dispatched - Terrorizer +1
Dulcamara - Anatómicamente Imperfecto
Ebony Tears - Tortura Insomniae youtube
Ego Fall - Inner M youtube
Garden Of Shadows - Oracle Moon youtube
Gathering of Obscurity - The Pain of Humiliation
Invisius - The Spawn of Condemnation youtube
Khrysaor - Chaos youtube
Lothlorien - The Primal Event youtube
Lucis Absentia - Gehenna Gate youtube
Malefactor - Centurian youtube
Malevolence - Martyrialized youtube
Midvinter - At the Sight of the Apocalypse Dragon youtube
Mourning Caress - Imbalance
Orpheus - So It Begins... (EP)
Sacrilege - Lost In The Beauty You Slay youtube
Searing Meadow - Corroding From Inside youtube
Serenity In Murder - The Eclipse youtube
Sinira - The Everlorn youtube
Templestowe - Cimmerian youtube
The Wake - Ode To My Misery youtube
Unmoored - Indefinite Soul-Extension youtube
Withering Surface - Scarlet Silhouettes youtube
Yuzukingdom - Dadaism youtube
(2) Daale, infiltrator,
Nov 12 2020, 15:16:30 Art Zoyd - La Chute De La Maison Usher (2008)
Музыка к немому фильму про Дом Эшеров по Эдгару По у Art Zoyd получилась просто на "пять с плюсом". Понятие "Страшно" удалось передать просто посредством музыки. Реальный талант!
(1) mirotvorets,
Nov 11 2020, 16:55:35 Brutal Truth - Perpetual Conversion [ep] (1992)
Разнообразный по содержанию ЕР! Тут и обычный грайнд, и индустриальные элементы (Perpetual Larceny), и нойз (Bed Sheet), и новое прочтение классики (блэксаббатовский Lord Of This World чудо как хорош). Хорошая ипишка для ожидания следующего диска.
(2) Emm Human, Kazoth,
Nov 10 2020, 16:41:15 Brutal Truth - Extreme Conditions Demand Extreme Responses (1992)
Первоначально для меня прозвучало название, "Зверская правда". Ну и отзывы товарищей по несчастью, типа "ах, какой здоровский грайндкор, напалмы курят в сторонке...". Ну,.. первоначальные ожидания были завышены. FETO так и останется лично для меня непостижимым шедевром, столпом и мерилом. Если сравнить с напалмами, то они играли грайндкор с душой, а вот Brutal Truth его играли с профессионализмом, если можно так сказать. Более выверенная штука. Но дальше стало ясо, что все не так беспробудно плохо, есть тут и скорости, и ультраскорости, и переход в медляк (считаю, что вот такие моменты у BT получались бесподобно, вот стОит послушать Birth Of Ignorance, или Denial Of Existence, или крайне замедленную Time). И еще следует упомянуть как замечательно прописан здесь бас, просто пример всем примерам.
Со временем, году так к 1997-му, стало уже ясно, что Extreme Conditions Demand Extreme Responses - просто классическая вещь, тот момент, на который нужно равняться исполнителям экстремального металла.
(3) DarkHorde, Faust_Vulkan_16, quicksand,
Nov 3 2020, 07:42:13 Carcass - Despicable [ep] (2020)
ЦИТАТА(6666666 @ Nov 2 2020, 15:49:57) *
"Некротицизм" хрень, кстати, ибо первый шаг к очку Шайтана, где они частично оказались в 96-м, а полностью - как раз в 2013-м.

Максим, может, лучше сразу отправишься в бан? А то я выскажусь о качестве и уровне твоих суждений, ты обидишься... Зачем тебе время зря терять на МА?
(2) infiltrator, Shadowman,
Nov 2 2020, 16:35:02 Anathema vs. Cathedral vs. My Dying Bride vs. Paradise Lost
Выскажусь за Cathedral, особенно за Forest of Equilibrium. Этот альбом - не doom, не death, это то, что сыграл Эрик Цанн.
(1) Living_Beat,
Nov 1 2020, 12:24:32 Galahad Acoustic Quintet - Not All There... (1995)
Register

Кроме как сказать, что здесь очень хорошая и красивая музыка, исполненная на акустических инструментах и с явным креном в сторону выгодной подачи вокальных партий, нечего. Особо рекомендую трэки Melt и White Lily.
(1) dimitriusk,
Nov 1 2020, 12:08:44 Агата Кристи - Ураган (1996)
ЦИТАТА(Old Vyaine @ Nov 1 2020, 02:53:35) *
Лучший альбом группы.

В пятерке лучших у группы.
Очень нравится этот диск. Чувствуется, что братухи крепко сидели на различных "антидепрессантах", и вот, выныривая из очередного трипа и находясь в полном несоответствии с отвратительным окружающим миром, они рожали один за одним эти мрачные песни. Прям чувствуется, что после веселой колбасни "Опиума" чуваков накрыл такой ужасный отходняк, что прям вокруг одна сплошная Грязь и требуется срочный Аусвайс на небо.
К числу лучших на альбоме причислю Два корабля, заглавную, Моряк, Грязь и Корвет уходит в небеса.
(3) infiltrator, Maestrovs, verner,
Oct 30 2020, 16:16:30 Carcass - Despicable [ep] (2020)
Carcass - одна из групп списка моего "повышенного внимания". Так что любой ее релиз слушаю под лупой и рассматриваю с наушниками. Касаемо данного релиза - все очень четко. Все очень классно. В плане ритма. Он просто заставляет сердце биться с другой частотой. В плане соло. Финальное соло в первой песне или центральное во второй (тут реальный блюз!) просто отметают все вопросы. Вокал Уокера злой как и в дни начала 90-х. Присутствие фирменного каркассовского юмора (название The Long and Winding Bier Road) или самопародия на Inpropagate в Under the Scalpel Blade возвращают в эпоху "Некротицизма".
А тем, кто не доволен, мне скать особо нечего. Разве что:
а) вы нифига не понимаете!
и
а) вы спустили всех собак на не/рэндомно выбранный коллектив. Антошка, ну-ка, назови мне хоть с пяток старых коллективов, выпустивших классные альбомы в ближайшие пару лет! Если учесть, что я уже в настроении раскатать их по бревнам, может, проще пойти копать картошку? У вас там в Ленинградской области уже всю выкопали?
(3) Baudolino, infiltrator, xax,
Oct 27 2020, 15:15:40 The Exploited - Death Before Dishonour (1987)
Register

Предыдущий альбом был однозначно мелодичнее, этот -более тяжелый, чем любой из предшественников. Помню, что в год выхода альбома многие панкуши сказали "фи" этому "долбанному хэвиметалу". На мой взгляд, все ништяки альбома начинаются с песни No Forgiveness и продолжаются до конца.
ЦИТАТА(mimoladoff @ Apr 19 2013, 15:11:46) *
столь необычная "Sexual Favours".

Ну, там из необычного подпевки девок в припеве. Хотя,... да, для The Exploited это можно трактовать как необычность.
(1) kimkayoung,
Oct 27 2020, 15:14:02 The Exploited - Jesus Is Dead [ep] (1986)
Tracks 15-16 on
Register

for you.
(2) kimkayoung, sacramentary,
Oct 27 2020, 15:12:01 The Exploited - War Now [ep] (1988)
Tracks 17-19 on
Register

for you.
(2) kimkayoung, sacramentary,
Oct 24 2020, 05:51:15 Roger Waters - The Pros And Cons Of Hitchhiking (1984)


*Artist: Roger Waters
*Album: The Pros And Cons Of Hitchhiking
*Year: 1984
*Genre: Progressive Rock
*Country: United Kingdom
*Format: mp3@CBR320kbps
*Size: 93MB

Tracklist:
1. 4:30 AM (Apparently They Were Travelling Abroad) 3:12
2. 4:33 AM (Running Shoes) 4:08
3. 4:37 AM (Arabs with Knives and West German Skies) 2:17
4. 4:39 AM (For the First Time Today, Part 2) 2:02
5. 4:41 AM (Sexual Revolution) 4:49
6. 4:47 AM (The Remains of Our Love) 3:09
7. 4:50 AM (Go Fishing) 6:59
8. 4:56 AM (For the First Time Today, Part 1) 1:38
9. 4:58 AM (Dunroamin, Duncarin, Dunlivin) 3:03
10. 5:01 AM (The Pros and Cons of Hitch Hiking) 4:36
11. 5:06 AM (Every Stranger's Eyes) 4:48
12. 5:11 AM (The Moment of Clarity) 1:28
******************************
Total playing time: 42:09

[more=Technical info]
Input File: 01 - 4-30 AM (Apparently They Were Travelling Abroad).mp3
Channels : 2
Sample Rate : 44100
Precision : 16-bit
Duration : 00:03:12.20 = 8475844 samples = 14414.7 CDDA sectors
File Size : 7.74M
Bit Rate : 322k
Sample Encoding: MPEG audio (layer I, II or III)
Comments :
Title=4:30 AM (Apparently They Were Travelling Abroad)
Artist=Roger Waters
Album=The Pros And Cons Of Hitch Hiking
Tracknumber=01
Year=1984
Genre=Progressive Rock

[/more]

Register
(5) Diflock, infiltrator, Olethros, thenecromancer, Wail,
Oct 9 2020, 16:10:42 Slayer - Reign In Blood (1986)
ЦИТАТА(kranger @ Oct 9 2020, 18:05:52) *
Уверен ,когда они это создавали ,они это творили с закрытыми глазами и отстраненным сознанием .Инстинкты и нашедшее на тот момент звериное помутнение .Подсознательный танец тел ,слившихся на тот момент с музыкальными инструментами ,которые наитием времени передали звуки и тона неведомые на тот момент.

уверен, что по этому поводу проще почитать соответствующие издания. Там все от первого лица, а не от лица адаптированных дикопотыканных фэнов.
(1) Deze,
Oct 6 2020, 16:00:04 Cannibal Corpse - The Wretched Spawn (2004)
ЦИТАТА(6666666 @ Sep 12 2017, 18:50:40) *
Вот эта песня хорошо это показывает:

Да.
Звук понравился здесь, достаточно сухой, но не приглушенный. Отдельно надо отметить вокал - Фишер прыгнул выше головы. Касаемо исполнения... с одной стороны неинтересно слушать пусть технично исполненные, но какие-то "ниочемные" песни (Severed Head Stoning, Psychotic Precision, Frantic Disembowelment, Blunt Force Castration), но их присутствие с лихвой компенсируется хорошими, узнаваемыми номерами (Decency Defied, The Wretched Spawn, Festering In The Crypt, Nothing Left To Mutilate) с клевыми соляками.

ЦИТАТА(vosmidesijatye @ Mar 29 2014, 01:44:33) *
Макс, не слушал - и правильно делал. Сейчас освежаю в памяти - тупой долбильный дэт без так нравящегося мне качественного замедления. Все песни как одна (на этот раз быстрая, в отличие от Торчюр) заунывность без малейшего намёка на разнообразие и интересность. В утиль. Единственная интересность - Фестерин Ин Зэ Крипт.


ЦИТАТА(vosmidesijatye @ Aug 21 2014, 23:18:03) *
Пересмотрел мнение. Отличный альбом - Сайкотик Пресижн и Фестерин - выделю особо. В остальном - их же фирмовый дэт наикачественнейшего розливу.

Чувак даже не переобулся на лету, переоделся...
(1) Chasm,
Sep 29 2020, 14:17:18 Art Zoyd - U.B.I.Q.U.E (2001)
Удивительный альбом. Если не вдаваться в смысл названия пьес и поясниловку от Art Zoyd, то он отлично подошел бы в качестве звуковой дорожки к НФ-фильму. Типа: 21 век, человеки померли от короновируса (Septima Du Centaure). Птицы и звери оккупируют города, радуясь избвалению от тирана и убийцы (Tone Reverse, Reve Non Valide), хотя кое-где механизмы, запущенные человеком, продолжают работать и шуметь. Неожиданно оказывается, что грядет нашествие высокоразвитых муравьев (L'Adoration Des Mages), но зверям и птицам это нафиг не надо, и они начинают собирать свои армии, включая даже африканских слонов (La Tentation De Saint-Antoine). Армии сходятся к месту битвы (Compartiment 14&128 Caisson Terminal), но после переговоров приходят к решению о разделе зон проживания (Portuaire). Однако муравьи тайком планируют захват всей планеты и уничтожение прочей живности (Allez A Des Moines). Так что нас ждет вторая часть фильма.
(4) Daale, Evilded, Ghostb, mirotvorets,
Sep 22 2020, 05:44:59 Лучший советчик МА - Часть 10 (Умнодэт) - Тур 2, Рейтингование
ЦИТАТА(Deze @ Sep 21 2020, 18:15:17) *
vam1972,
это список ОЦС?

или, наоборот, то, что было знакомо?

fixed
ЦИТАТА(vam1972 @ Sep 21 2020, 18:11:11) *
Прослушал.
Unknown:
Blood Dress - Beyond The Flesh
Creepmime - Chiaroscuro
Disaffected - Vast
Essence of Datum - Event Horizon
Neglected Fields - Mephisto Lettonica
Threnody - Bewildering Thoughts - самое лучшее из представленного списка, на мой взгляд
Traumatic Voyage - Traumatic…
Virvum - Illuminance
(2) Deze, infiltrator,
Sep 20 2020, 15:13:55 Iron Maiden - Piece Of Mind (1983)
Мне тут в одной из групп на ОК как-то попалась рецензия на Piece Of Mind, ну и сводилась она к тому, что альбом - ни о чем, хитов нет, мелодии так себе, обложка дрянь, звук отстой. Опешил, удивился (а я точно про тот альбом читаю?), решил вот переслушать. Вот категорически не согласен с этой чернухой. С обложкой все и так ясно: рисовалась почти так же часто, как и Killers, плюсом к ней обложка сингла для The Trooper (вообще чума, кстати). Про хиты тоже сложно согласиться: при общем высоком музыкальном уровне альбома тройка хитов Flight Of Icarus/Die With Your Boots On/The Trooper звучит просто безупречно, если мы говорим про хуковость. Плюсом к ним навороченная, продолжительная, но очень интересная To Tame A Land. Кстати, нельзя не упомянуть еще и Quest For Fire и Sun And Steel, в них достаточно четко можно расслушать, насколько хорош на должности певца Брюс наш, понимаете ли, Диккинсон. Ну, и про звук альбома и раньше в этой теме было уже сказано, чего зря повторяться. Очень годный альбом.
Register
(1) Old Vyaine,
Sep 20 2020, 07:51:13 Galahad - Nothing Is Written (1991)
Register

Очень хороший прог-рок, ориентированный на лучшие работы 70-х годов. Неочевидно, но чувствуется влияние Genesis и Jethro Tull. Первые несколько номеров довольно спокойны, без особых наворотов в плане вокальных ходов или навороченных инструментальных решений, но при этом - никакого аористого налета (чем так иногда напрягает Asia). Но, начиная с Room 801 группа разошлась вовсю, и до финала альбома нас ждет множество интересных мелодических находок, крутые партии баса, гитары и клавишных, а вокалист пусть и не владеет голосом в 5 октав (так, во всяком случае, кажется по записи), но очень драматичен, выразителен в плане подачи.
(1) dimitriusk,
Sep 18 2020, 10:06:48 Cannibal Corpse - Bloodthirst (1999)
Предыдущие ораторы уже отметили и звук, и гитаристов, и Ричардсона. Вче верно, все в тему. Подсушенный звук, позволяющий расслушать все инструменты. Вокал, очень соответствующий общему звуку. Одним звуком тут не обошлось, гитаристы действительно хорошо поработали над собственным контентом, соло-партии - просто на заглядение заслушание (в Hacksaw Decapitation звук гитары реально такой, будто ножовкой по костям работают). И если первые две песни больше тянули на раскачку, то начиная с Unleashing the Bloodthirsty и до Condemned to Agony включительно - материал высшего качества.
(1) DarkHorde,
Sep 15 2020, 16:04:55 Cannibal Corpse - Tomb Of The Mutilated (1992)
ЦИТАТА(epicyc1e @ Sep 15 2020, 17:24:07) *
Верное замечание, так как некоторые из таких причастий и прилагательных имеют единственное число (the accused или the deceased)

Ну дак и что?
А главное: когда ты публикуешь умную цитату непонятно откуда, неплохо указывать первоисточник. А то окажется, что это English in the fields для русскоязычных инженеров по бурению, составленный таким же инженером. Так что.... 22.gif
(1) Faust_Vulkan_16,

64 Pages V   1 2 3 > » 
- Lo-Fi Version Support form
Copyrights and abuse reports form
Time is now: 25th November 2020 - 03:16:18