Welcome Guest ( Log In | Register )

История благодарностей участнику vam1972 ::: Спасибо сказали: 2216 раз(а)
Дата поста: В теме: За сообщение: Спасибо сказали:
Yesterday, 18:08:34 Ash Ra Tepel - Join Inn (1973)
Register
(1) Olethros,
Oct 15 2019, 18:23:49 Ash Ra Tepel - Join Inn (1973)


*Artist: Ash Ra Tempel
*Album: Join Inn
*Year: 1973
*Genre: Kraut Rock
*Country: Germany
*Format: mp3@CBR320kbps
*Size: 99MB

Tracklist:
01. Freak 'n' Roll
02. Jenseits
******************************
Total playing time: 43:27

[more=Technical info]
Input File: 01. Freak 'n' Roll.mp3
Channels : 2
Sample Rate : 44100
Precision : 16-bit
Duration : 00:19:14.27 = 50903131 samples = 86570 CDDA sectors
File Size : 46.2M
Bit Rate : 320k
Sample Encoding: MPEG audio (layer I, II or III)
Comments :
Title=Freak 'n' Roll
Album=Join Inn
Tracknumber=01

[/more]

Register
(2) FUDEDOR, marilin,
Oct 14 2019, 17:37:14 The Birthday Party - Hee-Haw (1989)


*Artist: The Birthday Party
*Album: Hee-Haw
*Year: 1989
*Genre: Post-Punk
*Country: Australia
*Format: mp3@CBR320kbps
*Size: 91MB

Tracklist:
01 - Mr. Clarinet
02 - Happy Birthday
03 - Hats on Wrong
04 - Guilt Parade
05 - The Friend Catcher
06 - Waving My Arms
07 - Catman
08 - Riddle House
09 - A Catholic Skin
10 - The Red Clock
11 - Faint Heart
12 - Death by Drowning
13 - The Hair Shirt
******************************
Total playing time: 40:44

[more=Technical info]
Input File: 01 - Mr. Clarinet.mp3
Channels : 2
Sample Rate : 44100
Precision : 16-bit
Duration : 00:03:44.07 = 9881575 samples = 16805.4 CDDA sectors
File Size : 8.96M
Bit Rate : 320k
Sample Encoding: MPEG audio (layer I, II or III)
Comments :
Title=Mr. Clarinet
Artist=The Birthday Party
Album=Hee Haw
Tracknumber=1
Year=1989

[/more]

Register
(4) FUDEDOR, Ghostb, infiltrator, Olethros,
Oct 11 2019, 17:49:47 Лучший советчик МА - Часть 2 (Дум) - Тур 2, Рейтингование
ЦИТАТА(vosmidesijatye @ Oct 11 2019, 18:19:58) *
Поддержу Ангара.

Хэви близок к глэму, так что не надо тут ля-ля.



ЦИТАТА(Anger @ Oct 11 2019, 18:19:05) *
а чего ты ржёшь-то? они там все в одной куче были: глэм, хэви, хард-н-хэви, мегадэт, мэйден, бон джови 1488.gif

Если вы такие умные, что же вы строем не ходите?
(3) Alexis The Best, infiltrator, plfan93,
Oct 8 2019, 17:03:06 The Birthday Party - Junkyard (1982)


*Artist: The Birthday Party
*Album: Junkyard
*Year: 1982
*Genre: Post-Punk
*Country: Australia
*Format: mp3@CBR320kbps
*Size: 107MB

Tracklist:
01 - Blast Off
02 - She's Hit
03 - Dead Joe
04 - The Dim Locator
05 - Hamlet (Pow, Pow, Pow)
06 - Several Sins
07 - Big-Jesus-Trash-Can
08 - Kiss Me Black
09 - 6 Gold Blade
10 - Kewpie Doll
11 - Junkyard
12 - Dead Joe (2nd version)
13 - Release the Bats
******************************
Total playing time: 48:10

[more=Technical info]
Input File: 01 - Blast Off.mp3
Channels : 2
Sample Rate : 44100
Precision : 16-bit
Duration : 00:02:23.02 = 6306962 samples = 10726.1 CDDA sectors
File Size : 5.89M
Bit Rate : 330k
Sample Encoding: MPEG audio (layer I, II or III)
Comments :
Title=Blast Off
Artist=The Birthday Party
Album=Junkyard
Tracknumber=1
Year=1982
Genre=Post Punk

[/more]

Register
(4) Diflock, FUDEDOR, gwar, Tyrone,
Oct 4 2019, 02:59:34 Children Of Bodom - Hate Crew Deathroll (2003)
Old Vyaine, ты окончательно забронзовел. Очень часто стал себя цитировать. "Дарахой Леонид Илич" 1488.gif
(1) Exorcist,
Oct 3 2019, 03:09:14 Children Of Bodom - Follow The Reaper (2000)
ЦИТАТА(6666666 @ Oct 3 2019, 00:43:52) *
Конец первого конца. "Everytime I Die" не нужна.

Дайте уже Максу спазмолгон, или там - но-шпу. Его, похоже, сильно скрутило.
(2) BleedingSun, Exorcist,
Oct 2 2019, 16:28:46 Лучший советчик МА - Часть 2 (Дум) - Тур 1, Общий сбор
[youtube]LhnFhDVKB_w[/youtube]
(1) Lux,
Sep 21 2019, 16:14:39 Sirrah - Did Tomorrow Come... (1997)
ЦИТАТА(Old Vyaine @ Nov 19 2010, 23:00:37) *
В Зале Моей Скорби по распавшимся группам их логотип недалеко от красного угла висит.

Этот угол должен быть черным.

ЦИТАТА(Old Vyaine @ Sep 21 2019, 17:16:31) *
Гениальный альбом.

Ну, скажем так: очень даже неплохой.
(1) Old Vyaine,
Sep 21 2019, 14:56:16 Hypocrisy - Into The Abyss (2000)
Мда, тут Old Vyaine явно сделал промашку. Хороший альбом, зверский, мелодичный, тяжелый, с классными соляками и разрывающим (в основном) вокалом короче - дэтовый. Очень мне понравился. Есть, конечно, кое-какие моменты, которые не особо, типа Resurrected, вокал мне там не понравился. А в остальном сосгласен с предыдущими ораторами, Fire in the Sky - хитяра, Unfold the Sorrow и Deathrow, у нее в кильватере идут. Очень понравились скоростные Legions Descend, Blinded, Total Eclipse, Sodomized.
(1) Emm Human,
Sep 20 2019, 15:46:51 Opeth - Damnation (2003)
ЦИТАТА(Old Vyaine @ Jan 25 2015, 23:21:35) *
[на языке предполагаемого противника

вероятного?

ЦИТАТА(Newman @ Mar 27 2008, 13:48:28) *
Альбом этот - один из лучших альбомов за всю историю рок-музыки вообще, равновеликий лучшим произведениям Pink Floyd ,King Crimson etc.,а в чем-то их превосходящий

Я, конечно, понимаю, что как юзер - ты сдох, но написал полную ибо ту...
Как по мне - не лучший диск. Обосную. 1-е. Как-то все при одной и той же стилистике гитарных выкаблучиваний - нудненько и серенько, хитов нет. 2-е нормально втыкать нАчало с Closure, до этого уныло и сЕро. 3-е. Про приколы с ритмом, вокалом и мелодикой, кои я наблюдал до этого - слабо, не развернуто. А в Weakness - тупо вообще трип-хоп. Нормально, под пиво с крекерами - потянет. Но не надо тут про PF и KC, это хуже даже загонов восьмидесятого.
(1) plfan93,
Sep 14 2019, 12:24:30 Ash Ra Tempel - Schwingungen (1972)
Register
(1) Olethros,
Sep 14 2019, 04:56:28 Ash Ra Tempel - Schwingungen (1972)


*Artist: Ash Ra Tempel
*Album: Schwingungen
*Year: 1972
*Genre: Kraut Rock
*Country: Germany
*Format: mp3@CBR320kbps
*Size: 102MB

Tracklist:
01. Light And Darkness a) Light Look at Your Sun 6:35
02. Light And Darkness b) Darkness Flowers Must Die 12:25
03. Schwingungen a) Suche and b) Liebe 19:24
******************************
Total playing time: 38:24

[more=Technical info]
Input File: 01. Light And Darkness a) Light Look at Your Sun.mp3
Channels : 2
Sample Rate : 44100
Precision : 16-bit
Duration : 00:06:36.00 = 17463468 samples = 29699.8 CDDA sectors
File Size : 17.0M
Bit Rate : 343k
Sample Encoding: MPEG audio (layer I, II or III)
Comments :
Title=Light And Darkness: a) Light: Look at Your Sun
Artist=Ash Ra Tempel
Album=Schwingungen
Tracknumber=01

[/more]

Register
(4) ahp, Aresson, garmonbozia, Ghostb,
Sep 13 2019, 16:34:05 Hypocrisy - Abducted (1996)
ЦИТАТА(Old Vyaine @ Jan 22 2018, 15:21:04) *
Для меня только эти не тянут на хиты.

Очень сильное колдунство. В нехиты – только Buried, все остальное – очень высокого качества.

Пусть это и не традиционный death metal в исполнении Hypocrisy, но все равно – крутая работа. Отдельно упомяну Paradox и When The Candle Fades, на низких скоростях Петька с бандой тоже дает продристаться многим исполнителям медленной, тягучей и похоронной музыки.
П.с. Финальные три трэка альбома – нечто просто неожиданное!
(3) Emm Human, infiltrator, plfan93,
Sep 12 2019, 09:16:54 Лучший советчик МА - Часть 1 (Дэт) - Тур 2
По моему мнению Disharmonic Orchestra не надо было включать в список. Это все-таки банда высшей лиги.
(3) infiltrator, metala, mirotvorets,
Sep 9 2019, 17:29:30 Лучший советчик МА - Часть 1 (Дэт) - Тур 1
Mallediction - Impaled of the Slammering
(2) Deze, infiltrator,
Sep 9 2019, 17:14:11 Subterranean Masquerade - Suspended Animation Dreams (2005)
ЦИТАТА(MoonShine @ May 22 2007, 20:45:11) *
Opeth

В плане экстремального вокала у Subterranean Masquerade - прямая аналогия с ними. Кстати, в первых трех вещах еще нашел аналогии с dark folk crazy.gif .

ЦИТАТА(Язва @ Sep 2 2008, 10:34:28) *
Офигенный музон. Шедевр (не побоюсь этого слова)! Так вставило по самые не балуйся, что не балуюсь и кручу его всю неделю каждый день, иногда по 2 раза. Каждая песня - праздник, не одного слабого трэка.

Что самое интересное, что музыка - очень мягкая, и при всей своей навороченности нисколько не кажется мозголомной или "неудобной", как это случается с некоторыми группами, претендующими на прогрессивность и тупо соединяющими разные стилистические кусочки кусочки так, что появляется изжога с подагрой.
Больше всего нравятся песни No Place Like Home и The Rock N' Roll Preacher. Блеск!
(1) mirotvorets,
Aug 31 2019, 13:17:03 Hypocrisy - The Fourth Dimension (1994)
По теме альбома уважаемый Exorcist хорошо высказался, да и многие до него ранее в этой теме. Соглашусь в ним в плане общего определения альбома ("мутный" - хорошо сказано) и определения ряда интересных песен. Также - да, вторая половина альбома пооднообразнее получилась, Orgy in Blood и The North Wind довольно однообразно чешут, да. Все эти замедления (Apocalypse, заглавная) очень удивили в момент выхода альбома, такое сложно было ожидать. Касаемо MDM... прислушиваюсь, конечно, к мнению спецов, но отчего-то мелодичность и хэвишные соло (как в Path to Babylon) субъективно не могу воспринимать как признак MDM, но... не суть. Да, надо обязательно упомянуть Never to Return, одну из любимейших песен в арсенале Hypocrisy - истинная блэксаббатовщина.
(1) Exorcist,
Aug 28 2019, 02:40:15 Кто какие альбомы ждёт? Albums you are waiting for
ЦИТАТА(Old Vyaine @ Aug 27 2019, 23:11:10) *
не, это я рандомно ополоумел 13.gif

Конечно! Столько Rage за такой короткий срок жахнуть! Умереннее надо быть, Old Vyaine 23.gif
(2) Deze, infiltrator,
Aug 27 2019, 16:12:16 Hypocrisy - Penetralia (1991)
Честно говоря, слушая death metal, в третью очередь заморачивался тем, шведодэт это, моррисаундовская кухня или мастерская Колина Ричардсона. Главными в оценке были впечатления от него, что-то типа "классно и тупо рубят", технические изыски там, или клевые запоминающиеся мелодии (ну и в том же духе...). Так вот, ранний Hypocrisy для меня в первую очередь - атмосфера ада, другого измерения, чего-то связанного с некоторыми произведениями Лавкрафта или второй частью фильма Hellraiser. Работающих на том же фронте я считал позерами (нет, не так, ПАЗЗЗерами), ну а Morbid Angel в свою очередь "страдали" повышенной техничностью. Так оно (впечатление от Penetralia, в том числе) и осталось. Замечал и раньше, что ударные партии звучат простовато, но этого хватило при прочих условиях для создания отличного альбома. Заглавная песня, конечно же, вне конкуренции, но где-то рядом стоят и ждут душу очередного слушателя Nightmare, Jesus Fall, God Is A ... и Burn By The Cross (во всяком случае эти названия и по сей день приходят как ассоциация с этим диском).
П.с. Всегда бесило, что группа не публикует тексты песен на вкладках! Очень хотелось узнать, о чем поют.
(1) Emm Human,
Aug 25 2019, 09:15:39 Meshuggah - Destroy Erase Improve (1995)
Центральная часть и окончание альбома поинтереснее будут. В начале то сплошь смесь thrash, aggro industrial и немного death, этакие танцы для безбашенных. Vanished, Acrid Placidity, Inside Whats Within Behind, Terminal Illusions и Suffer in Truth - реально самые интересные. Последние две представляют техно-трэш, в первой и третьей - классные соло, а Acrid Placidity - офигенный инструментал. Разница между дебютником и Destroy Erase Improve, конечно, космическая.
(1) plfan93,
Aug 21 2019, 16:18:25 The Birthday Party - Prayers On Fire (1981)


*Artist: The Birthday Party
*Album: Prayers On Fire
*Year: 1981
*Genre: Post-Punk
*Country: Australia
*Format: mp3@CBR320kbps
*Size: 92MB

Tracklist:
01 - Zoo-Music Girl
02 - Cry
03 - Capers
04 - Nick the Stripper
05 - Ho-Ho
06 - Figure of Fun
07 - King Ink
08 - A Dead Song
09 - Yard
10 - Dull Day
11 - Just You and Me
12 - Blundertown
13 - Kathy's Kisses
******************************
Total playing time: 42:02

[more=Technical info]
Input File: 01 - Zoo-Music Girl.mp3
Channels : 2
Sample Rate : 44100
Precision : 16-bit
Duration : 00:02:38.17 = 6975077 samples = 11862.4 CDDA sectors
File Size : 6.36M
Bit Rate : 322k
Sample Encoding: MPEG audio (layer I, II or III)
Comments :
Title=Zoo-Music Girl
Artist=The Birthday Party
Album=Prayers on Fire
Tracknumber=1
Year=1981
Genre=Post-punk

[/more]

Register
(2) artscald, Tyrone,
Aug 21 2019, 06:38:44 Ash Ra Tempel - Ash Ra Tempel (1971)
Register
(3) ahp, Brann, marilin,
Aug 21 2019, 06:33:54 The Boys Next Door - Door, Door (1979)
ЦИТАТА(Ghostb @ Aug 21 2019, 01:55:26) *
Это ж первая группа Ника Кейва) Но сыровато еще, мне больше его творчество, начиная с "Your Funeral ... My Trial" нравится.

Хочу еще залить альбомы Birthday Party и недостающие у Bad Seeds.
Register
(1) Ghostb,
Aug 19 2019, 17:12:33 Ash Ra Tempel - Ash Ra Tempel (1971)


*Artist: Ash Ra Tempel
*Album: Ash Ra Tempel
*Year: 1971
*Genre: Kraut Rock
*Country: Germany
*Format: mp3@CBR320kbps
*Size: 106MB

Tracklist:
01. Amboss
02. Traummaschine
******************************
Total playing time: 45:26

[more=Technical info]
Input File: 01. Amboss.mp3
Channels : 2
Sample Rate : 44100
Precision : 16-bit
Duration : 00:19:54.42 = 52673790 samples = 89581.3 CDDA sectors
File Size : 47.8M
Bit Rate : 320k
Sample Encoding: MPEG audio (layer I, II or III)
Comments :
Title=Amboss
Artist=Ash Ra Tempel
Album=Ash Ra Tempel
Tracknumber=01

[/more]

Register
(5) ahp, artscald, FUDEDOR, marilin, Olethros,

59 Pages V   1 2 3 > » 
- Lo-Fi Version Support form
Copyrights and abuse reports form
Time is now: 17th October 2019 - 08:51:36