Welcome Guest ( Log In | Register )

История благодарностей участнику vam1972 ::: Спасибо сказали: 2266 раз(а)
Дата поста: В теме: За сообщение: Спасибо сказали:
Dec 9 2019, 17:20:25 Gentle Giant - In A Glass House (1973)
Практически в каждом альбоме GG, несмотря на их сложность, можно найти интересные темы. Конкретно здесь это Way of Life и Experience. Множество стилистических кусочков, сложенных в одну блестящую мозаику.
Register
(1) Нигилист,
Dec 7 2019, 06:41:02 Gentle Giant - Octopus (1972)
Одна из вершин творчества Gentle Giant. Музыканты умудрились смешать тихий звук фолка, экспрессию рока, духовую
секцию и некоторые традиционные приемы средневековых мадригалов. Полученные уникальный коктейль вывел Gentle Giant в лидеры тогдашнего английского прог-рока. The Boys In The Band и Dog's Life кажутся мне на этом альбоме самыми удавшимися.
Register
(1) Нигилист,
Dec 5 2019, 17:41:35 Gentle Giant - Acquiring The Taste (1971)
ЦИТАТА(Ghostb @ Jul 19 2018, 13:13:23) *
Более прогрессивный материал, нежели на дебютнике, но при этом просто отличный. Очень хороший диск.

+1
Я сомневаюсь, что Хэтфилд с Ульрихом слушали GG в период написания MOP и JFA. Ибо - просто не то, да и очень некомфортный материал у GG. Это хорошо слышно в Pantagruel's Nativity, Edge of Twilight или Plain Truth. Настолько ломанный ритм, нестыковки в плане инструментальных и вокальных партий, полный "плюс минус" в плане настроений... Неее, кокс и водка не способствовали бы пониманию ТАКОЙ МУЗЫКИ, как на Acquiring The Taste. Здесь - полный триумф воли неограниченного разума.
Register
(1) Нигилист,
Dec 4 2019, 17:16:29 Gentle Giant - Gentle Giant (1970)
Я считаю дебютник Gentle Giant прямым продолжателем традиций In The CourtOf... Примерно такие же акценты на скрипку, перемены ритма и мелодии, выразительный вокал. пусть тот, кто сказал, что в прог-роке 70-х плохо с вокалистами, немножко подавится и покащляет: Уэттон, Шульман выразительно доносят до слушателя свои мысли.
Ну, у Gentle Giant есть некоторый упор на клавишные как на солирующий инструмент (хотя и скрипка сильна, выразительна, жирна и самодостаточна). Что мне нравится здесь - не такое садовлеющее превосходство духрвых инструентов, как на некоторых более поздних работах. Короче - мастхэв, золотой фонд и все такое прочее. Реально крутой диск.
Register


ЦИТАТА(Ghostb @ Jul 18 2018, 11:17:25) *
"Funny Ways" и "Nothing At All" - это вообще вышка.

Да. Но и Alucard им не уступает.
(1) Нигилист,
Nov 22 2019, 16:18:38 Лучший советчик МА - Часть 3 (Трэш) - Тур 2, Рейтингование
ЦИТАТА(vosmidesijatye @ Nov 21 2019, 01:25:36) *
О, кажись дезе вернулся...



ЦИТАТА(Deze @ Nov 21 2019, 20:35:33) *
Бл 12.gif д, как ты вычислил?? Я же даже в эту тему не заходил.

Я понял! 80-ка - это пес Deze. Вроде мопс. Знает когда прибыл хозяин. Ну а на прослушку и просмотр времени мало (пока хозяин отсутствует). Так что - пырит. Вообще теория в существующие рамки идеально укладывается.
(1) Deze,
Nov 16 2019, 06:16:00 Лучший советчик МА - Часть 3 (Трэш) - Тур 2, Рейтингование
ЦИТАТА(Penetralia @ Nov 16 2019, 02:16:16) *
Прослушал уже порядка десяти альбомов, впечатления есть. Это не пост оценок, это пост так, потрепаться

Давай, Penetralia, развивай тему! Публикации, выступления, диссертацию. У тебя нормально получилось.
(1) Penetralia,
Nov 15 2019, 15:53:28 Лучший советчик МА - Часть 3 (Трэш) - Тур 2, Рейтингование
ЦИТАТА(maxmagmas @ Nov 15 2019, 17:27:05) *
римминг ты делаешь только Шерханам. bye.gif

Это так называется теперь феллацио?
Whiplash, конечно, не плох, но вот чтобы при всех от него испытывать экстазы - да...
И, кстати, позиция "Срaл я на умные песни" - это позиция плотника, который никогда не станет столяром. То ли пальцев не хватает, то ли ума, то ли из дерева - только береза.
(3) Exorcist, mirotvorets, plfan93,
Nov 10 2019, 11:55:37 Лучший советчик МА - Часть 2 (Дум) - Итоги
ЦИТАТА(Deze @ Nov 10 2019, 13:22:52) *
Тэк-с, обещанная статистика жалоб на вокал.

Таки Nattvindens Gråt "выиграл")))
[more=Оно smile4.gif ]Abstrakt Algebra - Abstrakt Algebra
-Почти понравился, если бы не вокал, финальный трек
-посредственный вокал просто теряется в музыке

Autumn Rain Melancholy - Seven Steps to Infinity
-ужасные вокалы, особенно скрим и гроул, не говоря уже о детском чистом, как на утреннике
-здесь была заковыристая ирония, смысл которой был в намеке, что вокалиска группы поет, как школьница
-музыка могла бы, но пионэры и вожатая перевели стрелки под откос)))
-брутальный вокал тут просто чудовищен
-Вокалы ужасны, оба
P.S. На самом деле, может, жалоб и больше, но не везде можно разобрать на какую именно "школьность" жалуются - общую школьность музыки или конкретно вокала.

Deathkings - All That Is Beautiful
-затянутые треки, хреновый вокал
-музыка понравилась, орущий местами вокалист - нет

Doomshine - Thy Kingdoom Come
-певун слабоват со всех сторон
-Вокал подбесил

Ecthalion - In The Embrace Of Nocturnity (demo)
-акустика - хорошо, все остальное - плохо, особлiве бабий вой
-Женский вокал отвратен
-Собирался ставить +2, а потом — херакс! — и девка запела. Спасибо-пожалуйста, вот вам кол, до свиданья.

Enchantment - Dance The Marble Naked
-сейчас слушаю, грешу на вокал

Maleficium - This Illusion Of Humanity
-было же нормально, зачем тётка завыла?
-Вокалистка не нужна
-девушка подпортила первый трек

Memento Mori - Life, Death And Other Morbid Tales
-вокал омерзителен
-из-за вокала в основном мне это слушать не хочется
-вокал Марколина не люблю (хз, считать ли это именно претензией к вокалу)

Moon of Sorrow - Crystal Emotions
-отвратительный чистый вокал, как мужской так и женский
-метализированный Пинк Флойнд с крайне хреновым вокалом
-с вокалиста ржал в голос
-Местами вокалист вызывает фейспалм. Хотя нет. Вокалист вызывает фейспалм всегда
-только начинают петь - лучше б они этого не делали, все мистику портят

Mourn - Mourn
-это пение вынести тяжело
-женский чистый, причём, настолько невыразительный. жуть
-Вокал не нравится, вторая группа подряд с отвратным вокалом
-очень утомительный женский вокал
-Вокал просто нелеп
-женский вокал (не самая распространенная вещь в думе такого толка) вместо того, чтобы добавлять группе какую-никакую изюминку, даже немного раздражает ибо на редкость невыразителен.
-Женский вокал совсем не
-70-тнический хард с заунывным вокалом

Nattvindens Gråt - A Bard's Tale
-они что, сговорились все петь так отвратно?
-смищной вокал как единственное "достоинство"
-Такое впечатление, что панк какой-то на вокале стебается...
-0 в основном за вокал, вот уж где позорище
-третья группа подряд с отвратным вокалом
-изображающий пение алкаш очень колоритен, даже не будут лишать из балла. Второй "бард", впрочем, не лучше.
-музыка норм, несмотря на косяки вокалиста
-вокал, кажется, не вполне поставлен, так ещё и он периодически пускается в какие-то непонятные певчески эксперименты, как, например, то, что он творит в припевах в “Road Goes Ever On” и “Stormwind the Soothsayer” – это что вообще за дичь??
-вокал специфический, хотя пока крутил педали не велике, даже к нему привык
-Кошмар с вывернутой челюстью. Меня аж перекосило от таких вокалирований.

Nightly Gale - Imprint
-что, четвёртая с мерзкими голосами к ряду?!

S.C.A.L.P - Through Eternity
-голоса опять всё портят

Serpent - In The Garden Of Serpent
-показалось, что вокалист пьяный

Tacit Fury - The Invented Pain
-когда баба начинает петь вообще сущий кошмар
-чистые вокальные партии, конечно, всё портят

The Doomsday Cult - Language of Misery
-вокал smile2.gif( smile2.gif

Unsilence - Transfiguration (EP)
-слабенький вокал, из-за этого единичка
-плохая реализация и особенно вокал все же опустили оценку с 2 до 1
-Вокалист бы подучился петь[/more]

Вокал Nattvindens Gråt мне нравится. Еще с 2009 года, когда впервые услышал.
(1) Old Vyaine,
Nov 7 2019, 18:40:34 Лучший советчик МА - Часть 3 (Трэш) - Тур 1, Общий сбор
ЦИТАТА(Deze @ Nov 7 2019, 18:24:00) *
Вам, мне жаль тебе это сообщать, но у тебя снова мимо.
А там две песни на 7 минут.
И ты, кстати, зря мечешься - у тебя, если посмотреть в твои списки в Сатурналиях, полно вариантов что посоветовать:

Kublai Khan - Annihilation 
Shah - Beware
Re-Animator - Laughing
Sacrosanct - Tragic Intense
Sacrosanct - Recesses For The Depraved
Thought Industry - Songs for Insects
Blood Pollution - Metal Zombies


Как минимум альбомы Shah, Sacrosanct и Thought Industry люто, бешено приветствуются лично мною.

Thought Industry - Songs for Insects
(1) Deze,
Oct 24 2019, 15:06:33 Ash Ra Tempel - Starring Rosi (1973)
Register
(1) Olethros,
Oct 23 2019, 17:12:31 Ash Ra Tempel - Starring Rosi (1973)


*Artist: Ash Ra Tempel
*Album: Starring Rosi
*Year: 1973
*Genre: Kraut Rock
*Country: Germany
*Format: mp3@CBR320kbps
*Size: 80MB

Tracklist:
1. Laughter Loving
2. Day-Dream
3. Schizo
4. Cosmic Tango
5. Interplay Of Forces
6. The Fairy Dance
7. Bring Me Up
******************************
Total playing time: 35:11

[more=Technical info]
Input File: 01 Ash Ra Tempel - Laughter Loving.mp3
Channels : 2
Sample Rate : 44100
Precision : 16-bit
Duration : 00:08:03.22 = 21310046 samples = 36241.6 CDDA sectors
File Size : 19.3M
Bit Rate : 320k
Sample Encoding: MPEG audio (layer I, II or III)
Comments :
Title=Laughter Loving
Artist=Ash Ra Tempel
Album=Starring Rosi
Tracknumber=01
Year=1973
Genre=Progressive Rock

[/more]

Register
(2) FUDEDOR, mirotvorets,
Oct 20 2019, 14:36:39 Ash Ra Tempel - Seven Up (1973)
Register
(2) marilin, Olethros,
Oct 20 2019, 03:53:13 Лучший советчик МА - Часть 2 (Дум) - Тур 2, Рейтингование
ЦИТАТА(vosmidesijatye @ Oct 19 2019, 20:17:04) *
А вот фолк - говно, да.

Ага, при этом у тебя jethro tull - не говно. Просто король логики! hmm.gif
(2) Exorcist, infiltrator,
Oct 19 2019, 04:51:41 Ash Ra Tempel - Seven Up (1973)


*Artist: Ash Ra Tempel
*Album: Seven Up
*Year: 1973
*Genre: Kraut Rock
*Country: Germany
*Format: mp3@CBR320kbps
*Size: 84MB

Tracklist:
01 - Space
02 - Time
******************************
Total playing time: 37:38

[more=Technical info]
Input File: 01 - Space.mp3
Channels : 2
Sample Rate : 44100
Precision : 16-bit
Duration : 00:16:02.16 = 42431168 samples = 72161.9 CDDA sectors
File Size : 38.5M
Bit Rate : 320k
Sample Encoding: MPEG audio (layer I, II or III)
Comments :
Title=Space
Artist=Ash Ra Tempel
Album=Schwingungen + Seven Up
Tracknumber=4
Year=1972
Genre=Krautrock

[/more]

Register
(2) FUDEDOR, marilin,
Oct 17 2019, 15:09:12 Лучший советчик МА - Часть 2 (Дум) - Тур 2, Рейтингование
ЦИТАТА(Deze @ Oct 17 2019, 16:15:15) *
вот этот Hybernoid. Вторых я раньше не слышал и теперь скажу, что они таки тащат gop_spb.gif

дважды нет. 1. неформатны и 2. полное гугно
(3) avather, hammer, Johnix,
Oct 16 2019, 18:08:34 Ash Ra Tempel - Join Inn (1973)
Register
(1) Olethros,
Oct 15 2019, 18:23:49 Ash Ra Tempel - Join Inn (1973)


*Artist: Ash Ra Tempel
*Album: Join Inn
*Year: 1973
*Genre: Kraut Rock
*Country: Germany
*Format: mp3@CBR320kbps
*Size: 99MB

Tracklist:
01. Freak 'n' Roll
02. Jenseits
******************************
Total playing time: 43:27

[more=Technical info]
Input File: 01. Freak 'n' Roll.mp3
Channels : 2
Sample Rate : 44100
Precision : 16-bit
Duration : 00:19:14.27 = 50903131 samples = 86570 CDDA sectors
File Size : 46.2M
Bit Rate : 320k
Sample Encoding: MPEG audio (layer I, II or III)
Comments :
Title=Freak 'n' Roll
Album=Join Inn
Tracknumber=01

[/more]

Register
(3) FUDEDOR, Ghostb, marilin,
Oct 15 2019, 16:37:12 The Birthday Party - Hee-Haw (1989)
Register
(1) Tyrone,
Oct 14 2019, 17:37:14 The Birthday Party - Hee-Haw (1989)


*Artist: The Birthday Party
*Album: Hee-Haw
*Year: 1989
*Genre: Post-Punk
*Country: Australia
*Format: mp3@CBR320kbps
*Size: 91MB

Tracklist:
01 - Mr. Clarinet
02 - Happy Birthday
03 - Hats on Wrong
04 - Guilt Parade
05 - The Friend Catcher
06 - Waving My Arms
07 - Catman
08 - Riddle House
09 - A Catholic Skin
10 - The Red Clock
11 - Faint Heart
12 - Death by Drowning
13 - The Hair Shirt
******************************
Total playing time: 40:44

[more=Technical info]
Input File: 01 - Mr. Clarinet.mp3
Channels : 2
Sample Rate : 44100
Precision : 16-bit
Duration : 00:03:44.07 = 9881575 samples = 16805.4 CDDA sectors
File Size : 8.96M
Bit Rate : 320k
Sample Encoding: MPEG audio (layer I, II or III)
Comments :
Title=Mr. Clarinet
Artist=The Birthday Party
Album=Hee Haw
Tracknumber=1
Year=1989

[/more]

Register
(4) FUDEDOR, Ghostb, infiltrator, Olethros,
Oct 11 2019, 17:49:47 Лучший советчик МА - Часть 2 (Дум) - Тур 2, Рейтингование
ЦИТАТА(vosmidesijatye @ Oct 11 2019, 18:19:58) *
Поддержу Ангара.

Хэви близок к глэму, так что не надо тут ля-ля.



ЦИТАТА(Anger @ Oct 11 2019, 18:19:05) *
а чего ты ржёшь-то? они там все в одной куче были: глэм, хэви, хард-н-хэви, мегадэт, мэйден, бон джови 1488.gif

Если вы такие умные, что же вы строем не ходите?
(3) Alexis The Best, infiltrator, plfan93,
Oct 8 2019, 17:03:06 The Birthday Party - Junkyard (1982)


*Artist: The Birthday Party
*Album: Junkyard
*Year: 1982
*Genre: Post-Punk
*Country: Australia
*Format: mp3@CBR320kbps
*Size: 107MB

Tracklist:
01 - Blast Off
02 - She's Hit
03 - Dead Joe
04 - The Dim Locator
05 - Hamlet (Pow, Pow, Pow)
06 - Several Sins
07 - Big-Jesus-Trash-Can
08 - Kiss Me Black
09 - 6 Gold Blade
10 - Kewpie Doll
11 - Junkyard
12 - Dead Joe (2nd version)
13 - Release the Bats
******************************
Total playing time: 48:10

[more=Technical info]
Input File: 01 - Blast Off.mp3
Channels : 2
Sample Rate : 44100
Precision : 16-bit
Duration : 00:02:23.02 = 6306962 samples = 10726.1 CDDA sectors
File Size : 5.89M
Bit Rate : 330k
Sample Encoding: MPEG audio (layer I, II or III)
Comments :
Title=Blast Off
Artist=The Birthday Party
Album=Junkyard
Tracknumber=1
Year=1982
Genre=Post Punk

[/more]

Register
(4) Diflock, FUDEDOR, gwar, Tyrone,
Oct 4 2019, 02:59:34 Children Of Bodom - Hate Crew Deathroll (2003)
Old Vyaine, ты окончательно забронзовел. Очень часто стал себя цитировать. "Дарахой Леонид Илич" 1488.gif
(1) Exorcist,
Oct 3 2019, 03:09:14 Children Of Bodom - Follow The Reaper (2000)
ЦИТАТА(6666666 @ Oct 3 2019, 00:43:52) *
Конец первого конца. "Everytime I Die" не нужна.

Дайте уже Максу спазмолгон, или там - но-шпу. Его, похоже, сильно скрутило.
(2) BleedingSun, Exorcist,
Oct 2 2019, 16:28:46 Лучший советчик МА - Часть 2 (Дум) - Тур 1, Общий сбор
[youtube]LhnFhDVKB_w[/youtube]
(1) Lux,
Sep 21 2019, 16:14:39 Sirrah - Did Tomorrow Come... (1997)
ЦИТАТА(Old Vyaine @ Nov 19 2010, 23:00:37) *
В Зале Моей Скорби по распавшимся группам их логотип недалеко от красного угла висит.

Этот угол должен быть черным.

ЦИТАТА(Old Vyaine @ Sep 21 2019, 17:16:31) *
Гениальный альбом.

Ну, скажем так: очень даже неплохой.
(1) Old Vyaine,

59 Pages V   1 2 3 > » 
- Lo-Fi Version Support form
Copyrights and abuse reports form
Time is now: 14th December 2019 - 05:43:06