Welcome Guest ( Log In | Register )

История благодарностей участнику vosmidesijatye ::: Спасибо сказали: 36364 раз(а)
Дата поста: В теме: За сообщение: Спасибо сказали:
Today, 20:35:32 Пламень Мрака - Эхо Былого III [compilation] (2020)
Пламень в ср@ке .

Наумчукофщина какая то 14.gif . Единственнное шо не по украински это призывно вытарчивающие сисяндры...
(1) ingram,
Yesterday, 22:14:44 K.F.R - L'enfer À Sa Source (2019)
Зело хорошечный релиз (как и всегда у Таккарди).

Большое спасибо за релиз.
(2) infiltrator, LazarShadow,
Jan 16 2020, 12:48:32 Svarttjern - Shame Is Just A Word (2020)
Shame Is Just A Word - true discovery 1488.gif

(2) babanguida, wolverine,
Jan 15 2020, 23:24:34 Тальков Игорь - Этот Мир (1993)
ЦИТАТА(Shub @ Jan 16 2020, 01:11:38) *
Ну дак этот говнюк тем ещё антисоветчиком был и подпиндосником, не удивительно.


Игорь Владимирович был патриотом. Если бы ты послушал Глобус, Родина моя, Господин Президент и прочие произведения все бы понял. А то что он не отдр@чивал на совок не так уж важно.

ЦИТАТА(Shub @ Jan 16 2020, 01:11:38) *
подпиндосник


Все американское - Кампутер, мобилу выкидывай, вырубай инет, переставай слушать мальма сладж и стоунер и выкидывай все свои гитарные пабрякушки 25.gif
(1) Moonshtook,
Jan 15 2020, 22:59:09 Kalmankantaja - Nostalgia I: Bones And Dust (2020)
В Украине не работает этот яндекс же 15.gif

@320

Register


Register
(4) Daale, legion01, nikolay81, Tyrone,
Jan 15 2020, 20:12:11 Brujeria - Amaricon Czar [single] (2019)
ЦИТАТА(Kazoth @ Jan 15 2020, 22:06:38) *
Всё хотят Трампа побольнее уколоть, а у самих мозгов не хватает, что бы изящно это сделать. Как дети малые...


Трамп заслуживает только уважения - и бизнес удержал и преумножил и страну под ср@ку лет возглавил. bye.gif

А эти как орали нестройыми голосами под примитивный грохот и лязг вместо музыки - так и орут, да вот только надо это неисчислимо малому количеству патлачей 1488.gif
(2) Shadechaser, Winter Funeral,
Jan 15 2020, 19:06:22 Лучший советчик МА - Часть 5 (Прог) - Тур 1, Общий сбор (2) Daale, infiltrator,
Jan 15 2020, 07:55:09 Culto Al Qondor - Electricidad (2019)
Доля краута и медитативности увеличилась.

Зело круто.
(1) Lord_Hip,
Jan 14 2020, 20:28:29 Thy Grief - The Frozen Tomb Of Mankind (1997)
FLAC

Register
(3) rickzammuto, thenecromancer, varlam4,
Jan 14 2020, 19:28:37 Culto Al Qondor - Electricidad (2019)


*Artist: Culto Al Qondor
*Album: Electricidad
*Year: 2019
*Genre: Psychedelic Rock/Krautrock
*Country: Peru
*Format: mp3@CBR320kbps
*Size: 113MB

Tracklist:
1. E1 12:19
2. E2 12:38
3. Catedral (E3) 24:52
******************************
Total playing time: 49:49



[more=Technical info]
Input File: 01 - e1.mp3
Channels : 2
Sample Rate : 44100
Precision : 16-bit
Duration : 00:12:17.25 = 32512505 samples = 55293.4 CDDA sectors
File Size : 29.5M
Bit Rate : 320k
Sample Encoding: MPEG audio (layer I, II or III)
Comments :
Title=E1
Artist=Culto Al Qondor
Album=Electricidad
Tracknumber=1/3

[/more]

Register
(4) gikaki, Lord_Hip, marilin, Olethros,
Jan 14 2020, 19:26:35 Culto Al Qondor - Templos (2017)


*Artist: Culto Al Qondor
*Album: Templos
*Year: 2017
*Genre: Psychedelic Rock/Krautrock
*Country: Peru
*Format: mp3@VBR289kbps
*Size: 94MB

Tracklist:
1. Martillo 11:04
2. Amanecer en Tres Cruces 11:01
3. Antiguos Dioses sobre Chilca 13:00
4. Templos 10:29
******************************
Total playing time: 45:34



[more=Technical info]
Input File: 01. Martillo.mp3
Channels : 2
Sample Rate : 44100
Precision : 16-bit
Duration : 00:11:04.14 = 29288442 samples = 49810.3 CDDA sectors
File Size : 22.3M
Bit Rate : 268k
Sample Encoding: MPEG audio (layer I, II or III)
Comments :
Title=Martillo
Artist=Culto al Qondor
Album=Templos
Tracknumber=1
Year=2017
Genre=Stoner Rock

[/more]

Register
(4) gikaki, Lord_Hip, marilin, Olethros,
Jan 14 2020, 18:40:32 Diamanda Galás - At Saint Thomas The Apostle Harlem [live] (2017)
@320

Register


FLAC

Register
(1) thenecromancer,
Jan 13 2020, 20:56:25 Wormhole - The Weakest Among Us (2020)
ЦИТАТА(babanguida @ Jan 13 2020, 23:52:03) *
You can go for it. 27.gif


The quality of this release can be easily scanned from its cover 22.gif
(2) babanguida, biroutios,
Jan 13 2020, 20:21:11 Loserfur - Born Pissed (2020)


*Artist: Loserfur
*Album: Born Pissed
*Year: 2020
*Genre: Stoner/Doom Metal
*Country: United States
*Format: mp3@CBR320kbps
*Size: 67MB

Tracklist:
1. White Horse 04:16
2. To Be Gutted 04:04
3. The Shit That Killed Elvis 03:33
4. Satan's Throne Room 06:46
5. Fugal Worship 04:44
6. Fuck Y'all 02:03
7. Black Horse 02:37
******************************
Total playing time: 28:03



[more=Technical info]
Input File: Loserfur - Born Pissed - 01 White Horse.mp3
Channels : 2
Sample Rate : 44100
Precision : 16-bit
Duration : 00:04:16.72 = 11321308 samples = 19253.9 CDDA sectors
File Size : 10.4M
Bit Rate : 324k
Sample Encoding: MPEG audio (layer I, II or III)
Comments :
Title=White Horse
Artist=Loserfur
Album=Born Pissed
Tracknumber=1
Year=2020

[/more]

Register
(12) ASkyThatBurns, Bolitho, infiltrator, LEGION69, Leshiy666, marilin, Olethros, Ostinato, Rosen, SaintVitus, stub888, VALERY,
Jan 13 2020, 20:00:35 The Fërtility Cült - Kosmodysseia (2019)


*Artist: The Fërtility Cült
*Album: Kosmodysseia
*Year: 2019
*Genre: Psychedelic/Stoner Doom Metal
*Country: Finland
*Format: mp3@CBR320kbps
*Size: 112MB

Tracklist:
1. Kosmodysseia part I: The Planeswalker 07:27
2. Return to the Desert Planet 07:50
3. Star Siren's Song 06:55
4. Visions of Home 01:48
5. Hunters of Galactic Daemons 04:23
6. Kosmodysseia part II: Timeless Ithaca 08:03
7. The Queen of Spacetime 10:23
******************************
Total playing time: 46:49



[more=Technical info]
Input File: The Fërtility Cült - Kosmodysseia - 01 Kosmodysseia part I- The Planeswalker.mp3
Channels : 2
Sample Rate : 44100
Precision : 16-bit
Duration : 00:07:27.08 = 19716404 samples = 33531.3 CDDA sectors
File Size : 18.1M
Bit Rate : 323k
Sample Encoding: MPEG audio (layer I, II or III)
Comments :
Title=Kosmodysseia part I: The Planeswalker
Artist=The Fërtility Cült
Album=Kosmodysseia
Tracknumber=1
Year=2019

[/more]

Register
(11) ASkyThatBurns, Black Cat, Femto, infiltrator, Leshiy666, marilin, Moonshtook, Olethros, Rosen, stub888, VALERY,
Jan 13 2020, 18:11:53 Türst - Nuit D'hiver [ep] (2020)
@320

Register
(1) rimfrost,
Jan 9 2020, 20:04:05 Gherzen - 1881 (2019)
@320

Register


Register
(4) Boozer, Moonshtook, rimfrost, vasiljev_sergej,
Jan 9 2020, 13:00:00 Rage - In Vain (Edition III) [ep] (1998)
ЦИТАТА(DarkHorde @ Jan 9 2020, 15:20:13) *
Только не забудь название альбома поправить.


Миш, это в форме добавления релиза при модерации частенько числительные и заглавные буквы меняются автоматом на маленькие. crazy.gif
(2) infiltrator, slack,
Jan 9 2020, 12:54:47 Rage - Wings Of Rage (2020)
@320

Register
(9) atavist, boby9052, Devourer, DMIYUR, hellbibber, infiltrator, kimkayoung, postal67, Shadechaser,
Jan 8 2020, 20:45:36 Новости Death Metal направления
Cannibal Corpse Enter ‘The Crypts’ To Begin Work on New Album

Just over a month ago, Cannibal Corpse wrapped up their final tour of 2019 and it looks like they're calling it a day regarding their recent touring cycle for their latest album as the death metal legends announced they will now focus on their next record.

In a recent social media post (seen further down the page), the band extended their gratitude toward all the fans who came to see the band on their various tours over the last two years, revealing that work will soon commence on the forthcoming 15th album. "Thanks for all your support of Red Before Black and all our touring in support of the record. Time to enter the crypts and begin work on the next record," wrote Cannibal Corpse, who added a call-to-arms message, "Keep supporting death metal in the new decade!"
(2) infiltrator, Occultas,
Jan 8 2020, 20:11:54 Brunt - Ataraxy (2019)


*Artist: Brunt
*Album: Ataraxy
*Year: 2019
*Genre: Stoner/Doom Metal/Psychedelic/Post Rock
*Country: Unknown
*Format: mp3@CBR320kbps
*Size: 76MB

Tracklist:
1. The Grauballe Man 10:20
2. Light Of The Mire 09:40
3. Ataraxy 04:04
4. Black Smoke 09:23
******************************
Total playing time: 33:27



[more=Technical info]
Input File: 01. The Grauballe Man.mp3
Channels : 2
Sample Rate : 48000
Precision : 16-bit
Duration : 00:10:20.96 = 29805840 samples ~ 46571.6 CDDA sectors
File Size : 24.8M
Bit Rate : 320k
Sample Encoding: MPEG audio (layer I, II or III)
Comments :
Title=The Grauballe Man
Artist=Brunt
Album=Ataraxy
Tracknumber=1
Year=2019
Genre=Metal

[/more]

Register
(9) ASkyThatBurns, autumnwood, infiltrator, Olethros, osthethrasher, Ostinato, Rosen, stub888, VALERY,
Jan 8 2020, 19:56:00 Sanctum Sathanas - Xanthosis (2019)
@320

Register
(2) rimfrost, SaintVitus,
Jan 8 2020, 19:53:21 Irae - The Maniac Perversion Of My Soul [demo] (2019)
@320

Register
(1) rimfrost,
Jan 8 2020, 19:49:19 Vonülfsrëich - Ylfsreälm Inguz [ep] (2019)
@320

Register
(1) rimfrost,
Jan 8 2020, 19:46:10 Vintlechkeit - Hymnen Var... [demo] (2020)
@320

Register
(1) rimfrost,

429 Pages V   1 2 3 > » 
- Lo-Fi Version Support form
Copyrights and abuse reports form
Time is now: 20th January 2020 - 22:15:11