Welcome Guest ( Log In | Register )

История благодарностей участнику vosmidesijatye ::: Спасибо сказали: 34437 раз(а)
Дата поста: В теме: За сообщение: Спасибо сказали:
Yesterday, 15:35:42 Лучший советчик МА - Часть 2 (Дум) - Тур 2, Рейтингование
Ишь ты, как хорошечно mirotvorets вкусы ангара изучил 28.gif 25.gif
(1) mirotvorets,
Oct 16 2019, 21:07:15 Machine Head - Do Or Die [single] (2019)
Роб продолжает чудить

ЦИТАТА
Адекватный ответ на неадекватные ругательства - Эдсель Доуп отвечает на слова Роба Флинна

Роб Флинн, наехав на критиков своей новой песни, наехал и на группу Dope (ни за что, ни про что). Её фронтмен не мог не ответить.

"Вчера, Роб Флинн задался вопросом "кто, блин, слушает Dope?" Окей, хорошо."

"Я люблю Machine Head, это правда. Если бы мы удосужились играть с ними на одной сцене, мы бы выступали перед ними. Мы относимся к ним с уважением! Но вот ответ на твой вопрос, Роб, тебя не обрадует. Если судить по Spotify, основной платформе для прослушивания стриминговой музыки: Dope - 1,238,355 прослушиваний в месяц, Machine Head - 1,208,667 в месяц. Довольно близко, братец, не находишь?"

"Можно упомянуть и попавшую под удар Die MF Die, которая там же имеет на 30 миллионов прослушиваний больше, чем любая песня, написанная Робом. Это не укол в сторону Роба. Просто факты."

"Кто, блин, сказал, что Do Or Die - плагиат Die MF Die? Мы точно нет. Я не владею правами на эту злосчастную фразу. Чего же ты бесишься так?"

"И наконец, не моя проблема, что люди ассоциируют эту фразу с нами. Так получилась, что это песня известна, известна долгое время. Я уважаю Роба, но не понимаю, чего он хочет добиться своим поведением в последние пару дней. Надеюсь, тема закрыта."

(1) Baarin,
Oct 16 2019, 20:12:59 Новости Death Metal направления
Хорош уже вам.
(2) infiltrator, Фо,
Oct 16 2019, 19:43:52 Новости Death Metal направления
ЦИТАТА(Deze @ Oct 16 2019, 22:40:03) *
А вот эти слова огорчили 80-го 1488.gif


Ни в коем разе. проссто странно что Фо столько торчит на форуме и в свое время Рогга звучал постоянно в каждой теме почти но он не удосужился ознакомиться с сабжем.

Но таки чтобы дать некую картинку пара видосов Рогги и пары из его 100 500 шведских дэт жужжалок

[youtube]KbNcLjhuodc[/youtube]

[youtube]yeMjbUBwUPE[/youtube]

И подобных альбомов Роггатый творит не один и не два в год.
(2) Decapitated, infiltrator,
Oct 16 2019, 18:31:17 Black Magic Rites - Psychocoven (2019)
ЦИТАТА(babanguida @ Oct 16 2019, 20:01:25) *
Corrosion of Conformity vibes at first.
Any feedback about the whole thing?


Thick sound, mesmrizing vocals.

It looks promising, there`s a sludgy vibes for sure, something Electric Wizard like.

A bit dull but I definitely will give it another tries. bye.gif

Load and listen, it worth it 20.gif smile1.gif


Буду признателен, если появится ФЛАК smile1.gif
(3) babanguida, infiltrator, Samaritianin,
Oct 16 2019, 18:22:35 Новости Death Metal направления
Скорее, тут радость от возрождения (скорее всего чисто фесты покатать) коллектива, полагаю. smile1.gif
(2) Decapitated, infiltrator,
Oct 16 2019, 15:36:06 Dry Kill Logic - Vices [single] (2019)
ЦИТАТА(scrollbar @ Oct 16 2019, 17:28:48) *
Чуть не забыл: мазафака и в неформат перенести


Нихт, пусть тут торчит, хорошая песня и ведь метал? Метал.

Пусть больше металистов скачают и просветятся 25.gif

ЦИТАТА(Anger @ Oct 16 2019, 03:10:13) *
здесь нет мазафаки и близко. ближе к альту или мк
(2) infiltrator, Phlebotomized,
Oct 16 2019, 14:46:19 Алиса - Посолонь (2019)
Кинчев: Я привык, что наши новые альбомы никому не нравятся m0114.gif 9.gif 1488.gif 15.gif

https://nsn.fm/music/kinchev-ya-privyk-chto...u-ne-nravyatsya
(1) Emm Human,
Oct 16 2019, 12:16:13 Teitanblood - Accursed Skin [ep] (2016)
Пара дней осталась, скорей бы, скорей бы новый полноформатец... pray.gif
(1) babanguida,
Oct 16 2019, 10:48:12 Striborg - An Existential Burden (2019)
ЦИТАТА(LazarShadow @ Oct 16 2019, 12:45:07) *
Re-upload this album. All links are dead. pray.gif


Bandcamp are free in any format possible. bye.gif
(1) canadaspaceman,
Oct 16 2019, 10:30:53 Black Magic Rites - Psychocoven (2019)
Описание 19.gif 20.gif 10.gif

ЦИТАТА
Black Magic Rites - oldschool doom - sludge metal from Silesia, Poland. Gathering influences from Sabbath, Wizard, hammer horrors, giallo movies, satanic rituals and erotic occult perversions we bring you some nasty sounds. We seek the psychedelic lust, so JOIN OUR PSYCHOCOVEN NOW!


Если все окажется так хорошечно, то это будет бомба.

Самара- спасибо в любом случае!! metaler.gif
(2) infiltrator, Samaritianin,
Oct 16 2019, 08:28:08 Alkonost - Парус [single] (2019)
Ужасная музыка.

Аlkoponos.
(2) infiltrator, suseka,
Oct 16 2019, 08:24:46 Goblin - Sad, Alone And Abandoned​.​.​. (2019)
Самый лучший Гоблин - итальянский smile1.gif
(2) Deze, infiltrator,
Oct 16 2019, 08:04:56 Anna Von Hausswolff - Dead Magic (2018)
ЦИТАТА(Forest Silence @ Feb 24 2018, 22:08:35) *
Посоветуйте еще чёнить подобное?


Очень впечатлила эта штуковина

Angel Olsen - All Mirrors (2019)
(1) Forest Silence,
Oct 16 2019, 08:01:10 Sanctvs - Mors Aeterna (2019)
babanguida Damn, it`s quite atmospheric outfit btw. I approve smile1.gif
(2) babanguida, infiltrator,
Oct 16 2019, 06:27:50 Angel Olsen - All Mirrors (2019)
Отличнейший материал smile1.gif

Любителям Anna Von Hausswolff и Dead Can Dance тут есть чем похрумкать)
(1) Ghostb,
Oct 16 2019, 06:21:21 Angel Witch - Angel Of Light (2019)
Это всё пустое.

Пока качнул в таком качестве, надеюсь на материал неплохой. Благо их одноименный песняк вообще один из гимнов жанра) pray.gif
(1) Hellraiser,
Oct 16 2019, 06:07:31 Angel Witch - Angel Of Light (2019)
Промо рип, вбр...

Так не тока здесь написано..

Да ладно, че мелочиться, это же русиш интернетиш, не успеешь пукнуть, тебе тут и 320 и флачину подвезут, тем более релизер не был замечен в мухлевании с битрейтом и подобным.
(1) Hellraiser,
Oct 16 2019, 05:47:47 Necronomicon - Unus (2019)
@320

Register


Register
(8) A.L.Rapsod, infiltrator, Mist13Signifier, Sheogorath, smes, vader69, vov7609, wtk.412,
Oct 15 2019, 20:31:33 Angel Olsen - All Mirrors (2019)


*Artist: Angel Olsen
*Album: All Mirrors
*Year: 2019
*Genre: Indie Folk/Rock/Alternative Country
*Country: United States
*Format: mp3@CBR320kbps
*Size: 107MB

Tracklist:
1.Lark 06:18
2.All Mirrors 04:42
3.Too Easy 02:57
4.New Love Cassette 03:26
5.Spring 03:23
6.What It Is 03:16
7.Impasse 04:23
8.Tonight 04:38
9.Summer 04:05
10.Endgame 05:19
11.Chance 05:59
******************************
Total playing time: 48:26



[more=Technical info]
Input File: 01 - Lark.mp3
Channels : 2
Sample Rate : 44100
Precision : 16-bit
Duration : 00:06:20.05 = 16760337 samples = 28504 CDDA sectors
File Size : 15.2M
Bit Rate : 320k
Sample Encoding: MPEG audio (layer I, II or III)
Comments :
Title=Lark
Artist=Angel Olsen
Album=All Mirrors
Tracknumber=1
Year=2019

[/more]

Register
(1) thenecromancer,
Oct 15 2019, 20:07:19 Dry Kill Logic - Vices [single] (2019)


*Artist: Dry Kill Logic
*Album: Vices [single]
*Year: 2019
*Genre: Groove/ Alternative Metal
*Country: United States
*Format: mp3@CBR320kbps
*Size: 10MB

Tracklist:
1. Vices 04:18
******************************
Total playing time: 4:18



[more=Technical info]
Input File: Dry Kill Logic - Vices.mp3
Channels : 2
Sample Rate : 44100
Precision : 16-bit
Duration : 00:04:19.15 = 11428603 samples = 19436.4 CDDA sectors
File Size : 10.7M
Bit Rate : 329k
Sample Encoding: MPEG audio (layer I, II or III)
Comments :
Title=Vices
Artist=Dry Kill Logic
Album=Vices
Tracknumber=01
Year=2019

[/more]

Register
(11) Anger, artscald, Emm Human, infiltrator, infozahist, JPV, neoatheist, Olethros, Phlebotomized, Rosen, Typhoid,
Oct 15 2019, 16:20:27 Machine Head - Do Or Die [single] (2019)
Ангар опускают в дерьмецо Флинна не подобные заявления , к ним уже давно фанаты привыкли ,что стоят лишь его слова о рэпе в 1994.

Ишь ты, маленький подтирашка, смс свое прежнее удалил, а я пишу, строчу на него ответ 15.gif

ЦИТАТА(mirotvorets @ Oct 15 2019, 18:04:15) *
Слипнотовский вокал, коровый брейкдаун на 2.0,


Странно что наш грувовед этого не заметил 1488.gif
(2) infiltrator, mirotvorets,
Oct 15 2019, 16:13:08 Machine Head - Do Or Die [single] (2019)
Неотесанный метал, ну ну. Неотесанный был бы если бы он вдарил горошком по временам дебюта и сделал бы музло еще яростнее и сырше, а так это обычный трёп типа "Я такой злой, я мяталист, мои песни про ненавиздь!" а на деле - мейнстримовый тяж gop_spb.gif
(1) Ghostb,
Oct 15 2019, 08:02:11 Machine Head - Do Or Die [single] (2019)
Текст уровня Золтана Фаркаша 15.gif
(3) Anger, Baudolino, infiltrator,
Oct 14 2019, 19:51:15 Kadavar - For The Dead Travel Fast (2019)


*Artist: Kadavar
*Album: For The Dead Travel Fast
*Year: 2019
*Genre: Psychedelic/Stoner/Hard Rock
*Country: Germany
*Format: mp3@CBR320kbps
*Size: 107MB

Tracklist:
1. The End 02:18
2. The Devil's Master 05:07
3. Evil Forces 04:43
4. Children Of The Night 05:59
5. Dancing With The Dead 05:09
6. Poison 05:25
7. Demons In My Mind 04:44
8. Saturnales 04:04
9. Long Forgotten Song 07:49
******************************
Total playing time: 45:18




[more=Technical info]
Input File: 01. The End.mp3
Channels : 2
Sample Rate : 44100
Precision : 16-bit
Duration : 00:02:18.77 = 6119889 samples = 10408 CDDA sectors
File Size : 6.02M
Bit Rate : 347k
Sample Encoding: MPEG audio (layer I, II or III)
Comments :
Title=The End
Artist=Kadavar
Album=For the Dead Travel Fast
Tracknumber=1/9
Year=2019
Genre=Classical
Discnumber=1/1

[/more]

Register
(5) infiltrator, marilin, Olethros, Oskulum, stub888,

412 Pages V   1 2 3 > » 
- Lo-Fi Version Support form
Copyrights and abuse reports form
Time is now: 18th October 2019 - 07:46:25