Welcome Guest ( Log In | Register )

История благодарностей участнику vosmidesijatye ::: Спасибо сказали: 45910 раз(а)
Дата поста: В теме: За сообщение: Спасибо сказали:
Jan 17 2022, 12:25:20 Russian Black Metal
ЦИТАТА(FullofHate @ Jan 17 2022, 14:13:08) *
15.gif
Воскресный вечер. На часах 22:32.
Пользователь unhuman специально зашел на форум написать какую-нибудь пакость, дабы продемонстрировать окружающим свой уровень мизантропичности и непримиримости.
Но почему-то смог написать примитивную банальность, вызывающую не эмоциональный отклик, но чувство "испанского стыда". Почему-то я уверен, что сочинял ты это неделю.
Вот уж у кого быт действительно тлен...

Еще раз говорю - не перекладывай с больной головы на здоровую.
Полагаю, таких лопат в твоей жизни было достаточно, иначе не могу объяснить происходящее торжество демонстрируемой глупости.


Зачем ваще реагировать на подобные вбросы? Отвечать че-то, разъяснять? Прочел-мысленно поржал-мимо прошел))) Все равно ничего не разъяснишь, подобные юзеры лишь дальше будут бугуртить, срываясь в оскорбления, не вникнув в смысл тобою написанного.

Это все равно что ассонику отвечать на его односложные предложения.
(1) Unknown,
Jan 17 2022, 10:23:01 Кому-то Неймётся, или Переголосовалка Попсачей - Часть 1: 1980 - 1984
Опять Лёша бомбит в своём фирменном стиле 15.gif Но вот с этим тезисом я согласен полностью

ЦИТАТА(Alexis The Best @ Jan 17 2022, 11:17:54) *
но как можно было "зевать" на сольнике Дио 84 года, я не смогу понять никогда


ибо сей альбом - один из крутейших в хэви метале. dwarf-1.gif

(1) Alexis The Best,
Jan 15 2022, 20:43:56 Scorpions - Rock Believer [single] (2022)
ЦИТАТА(paganheart @ Jan 15 2022, 22:37:20) *
Свистеть балладки в 80х и без них хватало оглоедов среди глемово-хайровой Ылитки. 25.gif


Так то да, но вот баллады у Скорпов одни из лучших в мировой музыке вообще, от относительно малораскрученных до заежженных и навязших в зубах. Почему то великое множество глэмовых групп при всем их высоком уровне не сподобилось хотя бы одну песню а-ля Still Loving You, Send Me An Angel, Holiday, Yellow Raven и т.д. сочинить.

А их более тяжёлое творчество шикарно как в хард-роковой ипостаси 70-х, так и в более AOR-версии 1980-х годов, но тут уж кому что больше любо. Я вот допустим обожаю как условный In Trance, так и не менее талантливый Savage Amusement 25.gif
(1) plfan93,
Jan 15 2022, 13:00:59 Scorpions - Rock Believer [single] (2022)


*Artist: Scorpions
*Album: Rock Believer [single]
*Year: 2022
*Genre: Hard Rock/Aor
*Country: Germany
*Format: mp3@CBR320kbps
*Size: 9MB

Tracklist:
1. Rock Believer 03:57
******************************
Total playing time: 3:57



[more=Technical info]
Input File: 01 Rock Believer.mp3
Channels : 2
Sample Rate : 44100
Precision : 16-bit
Duration : 00:03:57.20 = 10460696 samples = 17790.3 CDDA sectors
File Size : 9.68M
Bit Rate : 327k
Sample Encoding: MPEG audio (layer I, II or III)
Comments :
Title=Rock Believer
Artist=Scorpions
Album=Rock Believer
Genre=Rock

[/more]

Register
(5) Aresson, gwar, NathanSS, Wail, zakroiotkroev,
Jan 13 2022, 11:09:39 Шлем - Верхом На Кукулькане (2021)
ЦИТАТА(Faust_Vulkan_16 @ Jan 13 2022, 13:08:10) *
Что-то навеяло...


В последние дни ты совсем уже пошлячком стал, везде секас и половые извращенья видяца. 1488.gif

Как никогда соответствуешь статусу bye.gif
(1) Faust_Vulkan_16,
Jan 13 2022, 10:58:10 Cult Of Luna
[youtube]RjyLAHVsxrw[/youtube]
(1) kjemiker,
Jan 12 2022, 10:19:19 Dance With The Dead - Driven To Madness (2022)


*Artist: Dance With The Dead
*Album: Driven To Madness
*Year: 2022
*Genre: Retrowave/Synthwave/Synthpop
*Country: United States
*Format: mp3@CBR320kbps
*Size: 90MB

Tracklist:
1. March Of The Dead (feat. John Carpenter & Cody Carpenter) 01:55
2. Firebird 03:32
3. Hex 03:41
4. Sledge 03:25
5. Kiss Of The Creature 03:44
6. Wyrm Of Doom 04:20
7. Start The Thaw 04:11
8. I'm Your Passenger 03:57
9. Nebula 05:37
10. A New Fear 04:37
******************************
Total playing time: 38:59



[more=Technical info]
Input File: 02. Firebird.mp3
Channels : 2
Sample Rate : 44100
Precision : 16-bit
Duration : 00:03:33.04 = 9395196 samples = 15978.2 CDDA sectors
File Size : 8.55M
Bit Rate : 321k
Sample Encoding: MPEG audio (layer I, II or III)
Comments :
Title=Firebird
Artist=Dance With the Dead
Album=Driven to Madness
Tracknumber=02/10
Year=2022
Genre=Synthpop
Discnumber=1/1

[/more]

Register
(12) 6666666, Bloodn Lord, gwar, insufferable, nemx, Shadowman, Shub, Sordes, tOmV, Vitald, xska, yuratroll,
Jan 11 2022, 19:40:50 Кому-то Неймётся, или Переголосовалка Попсачей - Часть 1: 1980 - 1984
ЦИТАТА(WOLAND @ Jan 11 2022, 20:47:23) *
Black Sabbath-1989 - Нищяк , самый оккультный альбом легенды. Да и во всем в порядке он.
Как он может не нравиться.


Этот альбом действительно с очень явственно ощущающийся мрачной атмосферностью, впрочем "оккультность" ощущается и в дебюте и в альбоме с Гилланом и немного в 2013.

А 1989, как и 1987 - лучшие альбомы с Мартином. Великолепны полностью pray.gif

(1) WOLAND,
Jan 11 2022, 17:37:50 Perturbator - I Am The Night (2012)
ЦИТАТА(Shadowman @ Jan 11 2022, 15:25:26) *
Да, Midnight Danger действительно хороши - у меня даже есть их дискография, которую уже заслушал чуть не до дыр.


У них ипишка новая вышла недавно, на диско в трэкере обновили)
(1) Shadowman,
Jan 11 2022, 04:28:00 Perturbator - I Am The Night (2012)
ЦИТАТА(Shadowman @ Jan 7 2022, 02:58:46) *
В последнее время плотно подсел на synthwave и darksynth. Сегодня скачал на рутрекере дискографию Perturbator. Пока успел прослушать только сабжевый альбом, но, похоже, это лучшее, что я слышал в рамках жанра.


Рекомендую зело шикарнейших и мрачно-атмосферных VHS Glitch Vhs Glitch - Evil Technology (2014) , которые, к сожалению, не достаточно известны любителям жанра, (и это токма один альбом, цельная диско лежит сами знаете где), а также Tokyo Rose - The Chase: Last Run (2017) и Midnight Danger - Chapter 2: Endless Nightmare (2020) (вот эти ваще выпустили лучший альбом в хоррор-синте за 20 год).

Ну и периодически чекаю на новинки ростер пожалуй самого влиятельного лейбла в жанре на предмет новинок, у них впечатляющий каталог. bye.gif
(1) Shadowman,
Jan 9 2022, 22:08:27 Blue Merrow - Blue Merrow (2022)


*Artist: Blue Merrow
*Album: Blue Merrow
*Year: 2022
*Genre: Psychedelic/Acid Rock
*Country: Spain
*Format: mp3@CBR320kbps
*Size: 118MB

Tracklist:
1. Uncle Tom 07:20
2. Blue Merrow 10:15
3. Three Ways To Say Goodbye 06:55
4. The Utopist 08:15
5. Crossing Time 07:11
6. Traveller's Way 06:23
7. Images 04:28
******************************
Total playing time: 50:47



[more=Technical info]
Input File: 02 - Blue Merrow.mp3
Channels : 2
Sample Rate : 44100
Precision : 16-bit
Duration : 00:10:15.46 = 27141610 samples = 46159.2 CDDA sectors
File Size : 24.8M
Bit Rate : 323k
Sample Encoding: MPEG audio (layer I, II or III)
Comments :
Title=Blue Merrow
Artist=Blue Merrow
Album=Blue Merrow
Tracknumber=2
Year=2022
Genre=Rock
Discnumber=1/1

[/more]

Register
(6) denver, Ice Gnoll, KVRT, marilin, paganheart, StabWound,
Jan 8 2022, 14:14:15 Vulcano - Eye In Hell (2020)
Vulcano - Stone Orange - 04 // 02 // 22



1. Metal Seeds
2. Putrid Angels Ritual
3. Tear Gas
4. Keep Mind
5. A Night in a Metal Gig
6. 7 Seconds in Hell
7. Stone Orange
8. Trigger of Violence
9. Night Terror with Satan
10. Rebels from 80s
11. Ship of Dead
12. The Altar of Defiance
13. Witches Don't Lie
14. Lives Moves Toward Death
15. 418
16. Vulcano Will Live Forever
(1) Occultas,
Jan 5 2022, 07:40:35 Шлем - Верхом На Кукулькане (2021)


*Artist: Шлем
*Album: Верхом На Кукулькане
*Year: 2021
*Genre: Black Metal/Punk
*Country: Russian Federation
*Format: mp3@CBR320kbps
*Size: 50MB

Tracklist:
1. Блицкриг 03:01
2. Чёрная Спираль 05:47
3. Колька И Космический Конкистадор 04:27
4. На Марс 03:09
5. Возвращение Кукулькана 05:02
6. Сто Мечей 03:37
******************************
Total playing time: 25:03



[more=Technical info]
Input File: 05 Возвращение Кукулькана.m4a
Channels : 2
Sample Rate : 12000
Precision : 16-bit
Duration : 00:00:02.37 = 28380 samples ~ 177.375 CDDA sectors
File Size : 10.9M
Bit Rate : 37.0M
Sample Encoding: MPEG audio (layer I, II or III)

[/more]

Register
(15) alikkon, Aresson, artscald, caro, DMIYUR, judaz, Old Vyaine, oldvarg, Olethros, SilentNidhogg, stormhatt, supremo, VALERY, varlam4, volostakoeto,
Jan 2 2022, 12:36:53 Crimson Caravan - The Glow (2021)


*Artist: Crimson Caravan
*Album: The Glow
*Year: 2021
*Genre: Stoner/Doom Metal
*Country: Russian Federation
*Format: mp3@CBR320kbps
*Size: 77MB

Tracklist:
1. The Cult Of the Great Wheel 04:36
2. The Glow 06:24
3. Highwayman 04:33
4. Iguana-On-A-Stick 03:52
5. Mosquitos 03:49
6. Wastelands 05:52
******************************
Total playing time: 29:06



[more=Technical info]
Input File: Crimson Caravan - The Glow - 01 The Cult of the Great Wheel.mp3
Channels : 2
Sample Rate : 44100
Precision : 16-bit
Duration : 00:04:36.39 = 12188799 samples = 20729.2 CDDA sectors
File Size : 11.2M
Bit Rate : 325k
Sample Encoding: MPEG audio (layer I, II or III)
Comments :
Title=The Cult of the Great Wheel
Artist=Crimson Caravan
Album=The Glow
Tracknumber=1
Year=2021

[/more]

Register
(15) alikkon, artscald, Brutal, caro, chipsgott, djsema4, HMHamster, LordOvDarkness, Mencae77, Olethros, Phlebotomized, snot, VALERY, vlad74, Wail,
Dec 28 2021, 18:55:28 Black metal top-2021
Daale Спасибо за топы, читается с интересом smile1.gif
(1) Daale,
Dec 22 2021, 18:38:35 Новости Thrash Metal направления
Overkill has been working on new material and, in a recent social media post to wrap up the year, they confirmed their 20th record will be released next year.
(2) Emm Human, скептик,
Dec 22 2021, 17:40:55 Леонид Фёдоров - Последний Друг (2021)


*Artist: Леонид Фёдоров
*Album: Последний Друг
*Year: 2021
*Genre: Avant-Garde Rock
*Country: Russian Federation
*Format: mp3@CBR320kbps
*Size: 117MB

Tracklist:
1. Землекоп 08:21
2. Кукурузинка 02:59
3. Все Кто Дороги 04:43
4. Думаю 02:11
5. Кузнечики 07:49
6. Небо 03:51
7. Дырки 05:53
8. Последний Друг 04:32
9. Старуха 06:07
10. Увертюра 03:50
******************************
Total playing time: 50:16



[more=Technical info]
Input File: 04. Думаю.mp3
Channels : 2
Sample Rate : 44100
Precision : 16-bit
Duration : 00:02:11.11 = 5782127 samples = 9833.55 CDDA sectors
File Size : 5.48M
Bit Rate : 334k
Sample Encoding: MPEG audio (layer I, II or III)
Comments :
Title=Думаю
Artist=Леонид Федоров
Album=Последний друг
Tracknumber=4/10
Year=2021
Genre=Rock
Discnumber=1/1

[/more]

Register
(7) A.L.Rapsod, Aresson, Ash_1980, Maestrovs, Norge, Olethros, VALERY,
Dec 22 2021, 11:28:37 Новости Death Metal направления
Abyssus - Death Revival - 21 // 01 // 22



1. Metal of Death 04:15
2. The Ten Commandments 04:28
3. Uncertain Future 03:51
4. The Beast Within 04:26
5. Genocide 06:26
6. The Witch 02:52
7. When Wolves Are Out to Hunt 06:58

Sentient Horror - Rites of Gore - 22 // 04 // 22



1. A Faceless Corpse
2. Obliteration of Souls
3. Swamp Burial
4. Rites of Gore
5. Splitting Skulls
6. Descend to Chaos
7. The Grave Is My Home
8. Till Death Do Us Rot
9. The Eyes of Dread
10. Supposed to Rot
(2) DarkHorde, obscenity,
Dec 17 2021, 14:54:26 Pissing Razors - Eulogy Death March (2021)


*Artist: Pissing Razors
*Album: Eulogy Death March
*Year: 2021
*Genre: Groove Metal
*Country: United States
*Format: mp3@CBR320kbps
*Size: 131MB

Tracklist:
1. In Spite Of My Scars (feat. Dave Linsk from Overkill)
2. Unsee
3. Chemical Burn
4. Result Of Virtue Intro
5. Result Of Virtue
6. In The Shadows
7. Eulogy Death March
8. Left For Dead
9. Pulverized
10. Crushing Grip
11. Wasting Away (Nailbomb Cover) (feat Steev Esquivel from Skinlab)
12. Nothing To Say
13. Sharpened Word
14. Die For The Crown
******************************
Total playing time: 57:18



[more=Technical info]
Input File: 01 In Spite of My Scars (Feat Dave Linsk From Overkill).mp3
Channels : 2
Sample Rate : 48000
Precision : 16-bit
Duration : 00:04:44.34 = 13648464 samples ~ 21325.7 CDDA sectors
File Size : 11.4M
Bit Rate : 320k
Sample Encoding: MPEG audio (layer I, II or III)
Comments :
Title=In Spite of My Scars (Feat Dave Linsk From Overkill)
Artist=Pissing Razors
Album=Eulogy Death March
Tracknumber=1
Year=2021
Genre=Groove Metal/Thrash Metal

[/more]

Register
(11) artscald, boby9052, canadaspaceman, gobblin, gwar, hell_armageddon, lortz, Olethros, p4B10, stumpheavyrock, Z28517,
Dec 17 2021, 14:12:02 Black Willows - Shemurah (2021)
Yeh yeh

Register
(2) Ostinato, robertho777,
Dec 17 2021, 05:04:01 Reek - Porn For Satan (2021)
Увидев страну Швеция, ради прикола щёлкнул допинфу - а вдруг и тут Рогга?

И таки да 15.gif
(3) Bitchkiller, ingram, RUSP73,
Dec 17 2021, 05:02:19 Tears Of Fire - Relics Of Ancient Fire (2021)
Названия больно странные для жанра...
(1) Mencae77,
Dec 17 2021, 04:59:48 1945 - Heavy Metal Is Not For Sale (2021)
ЦИТАТА(wolfskaiser @ Dec 17 2021, 01:28:11) *
Heavy Metal Is Not For Sale


Да что вы говорите 1488.gif
(1) Shadowman,
Dec 17 2021, 04:02:18 Black Willows - Shemurah (2021)


*Artist: Black Willows
*Album: Shemurah
*Year: 2021
*Genre: Stoner/Doom Metal
*Country: Switzerland
*Format: mp3@CBR320kbps
*Size: 182MB

Tracklist:
1. Communion 19:33
2. Interlude I 02:24
3. Ascent 18:06
4. Interlude II 03:39
5. Blindness 10:51
6. Annhihilated 08:07
7. Anathem 10:57
8. Aphorism 06:13
******************************
Total playing time: 1:19:50



[more=Technical info]
Input File: 01 - Communion.mp3
Channels : 2
Sample Rate : 44100
Precision : 16-bit
Duration : 00:19:33.36 = 51745088 samples = 88001.9 CDDA sectors
File Size : 46.9M
Bit Rate : 320k
Sample Encoding: MPEG audio (layer I, II or III)
Comments :
Title=Communion
Artist=Black Willows
Album=Shemurah
Tracknumber=01/08
Year=2021

[/more]

Register
(14) artscald, Brutal, caro, chickenfucker, gena, HMHamster, Kodel, Olethros, SatanicPanzer, Scorpi, skidnik, VALERY, varlam4, wreak,
Dec 8 2021, 14:42:34 Low Orbit - Crater Creator (2021)


*Artist: Low Orbit
*Album: Crater Creator
*Year: 2021
*Genre: Stoner/Doom Metal
*Country: Canada
*Format: mp3@CBR320kbps
*Size: 82MB

Tracklist:
1. Crater Creator 05:11
2. Tardis 04:28
3. Sea Of See 05:47
4. Empty Space 05:25
5. Monocle 04:59
6. Wormhole 04:06
7. Timelord 05:51
******************************
Total playing time: 35:47



[more=Technical info]
Input File: 05. Monocle.mp3
Channels : 2
Sample Rate : 48000
Precision : 16-bit
Duration : 00:04:59.79 = 14389776 samples ~ 22484 CDDA sectors
File Size : 12.1M
Bit Rate : 323k
Sample Encoding: MPEG audio (layer I, II or III)
Comments :
Title=Monocle
Artist=Low Orbit
Album=Crater Creator
Tracknumber=5/7
Year=2021
Genre=Stoner

[/more]

Register
(10) Aamiinaa, artscald, caro, chipsgott, eddbuzz, gena, HMHamster, scrollbar, VALERY, wreak,

497 Pages V   1 2 3 > » 
- Lo-Fi Version Support form
Copyrights and abuse reports form
Time is now: 19th January 2022 - 03:04:04