Welcome Guest ( Log In | Register )

История благодарностей участнику vosmidesijatye ::: Спасибо сказали: 33322 раз(а)
Дата поста: В теме: За сообщение: Спасибо сказали:
Yesterday, 14:00:27 Znich - Мроя (2011)
@320

Register
(1) Immortal666666,
Yesterday, 11:47:49 Vordr - Vordr (2019)
@320

Register
(5) gena, infiltrator, rimfrost, Strygaldwir, waltergehtwahlen,
Yesterday, 10:57:42 Un - The Tomb Of All Things (2015)
ЦИТАТА(Borderline1991 @ Aug 23 2019, 13:53:10) *
So the only problem now is to have enough discipline to save the money for concerts and not smoke it all before.


That`s not a poblem at all. 23.gif The problem is to have no stuff for a very long time. And if you want to save money - switch on hash, it`s way cheaper and kills ya almost instantly. More philosophic and trippy thang. crazy.gif headcrab.png 25.gif
(1) Borderline1991,
Yesterday, 10:51:24 Equilibrium - Renegades (2019)
@320

Register


Register

(2) Fess, fffrost,
Yesterday, 10:50:39 Illdisposed - Reveal Your Soul For The Dead (2019)
@320

Register


Register


(3) boby9052, Ostinato, the_metalist,
Yesterday, 10:49:59 Sacred Reich - Awakening (2019)
@320

Register


Register


(3) infiltrator, muskatnuss, Phantom_Voodoo,
Yesterday, 10:34:32 Un - The Tomb Of All Things (2015)
ЦИТАТА(Borderline1991 @ Aug 23 2019, 12:52:42) *
the mightiest Dopethrone will perform pray.gif and there will be lots and lots of demonsmoke. dooo.gif metaler.gif banana.gif


Dats for sure. You`re the happiest man, I can only dream of seeing Dopethrone live here in my town. But one should never give up hope.

So get prepared and baked! 9.gif
(1) Borderline1991,
Yesterday, 09:41:20 Un - The Tomb Of All Things (2015)
ЦИТАТА(Borderline1991 @ Aug 23 2019, 12:38:24) *
I'll get to see them live soon performing with Conan, I'm excited, should be great live! 20.gif


Don`t forget to fill yourself with a good portion of da weed (or hash) 27.gif
(1) Borderline1991,
Aug 22 2019, 22:07:26 Edenbridge - Live And Let Go [single] (2019)


*Artist: Edenbridge
*Album: Live And Let Go [single]
*Year: 2019
*Genre: Symphonic Power Metal
*Country: Austria
*Format: mp3@CBR320kbps
*Size: 10MB

Tracklist:
1. Live and Let Go 04:30
******************************
Total playing time: 4:30



[more=Technical info]
Input File: 01. Live and Let Go.mp3
Channels : 2
Sample Rate : 44100
Precision : 16-bit
Duration : 00:04:30.67 = 11936503 samples = 20300.2 CDDA sectors
File Size : 10.8M
Bit Rate : 320k
Sample Encoding: MPEG audio (layer I, II or III)
Comments :
Title=Live and Let Go
Artist=Edenbridge
Album=Live and Let Go
Tracknumber=01/01
Year=2019
Discnumber=1/1

[/more]

Register
(5) Devourer, gwar, infiltrator, infozahist, metalwoman,
Aug 22 2019, 21:51:06 Illdisposed - Grey Sky Over Black Town (2016)
Налетаем, кочаем пока в модерке новьё торчит.

Illdisposed - Reveal Your Soul for the Dead (2019)



Время: 0:42:43
Качество: mp3, 320 kbps
Размер: 97.98 Мб

Tracklist:
01. Reveal Your Soul... (1:34)
02. ...For the Dead (4:06)
03. With Hate (2:55)
04. This Is Our Calling for the End (4:14)
05. What Will I Become? (4:24)
06. We Must Endure (4:06)
07. To Sail You Away (4:05)
08. We Are One (3:58)
09. Drink It All (4:34)
10. She's Not in Our Way (4:22)
11. All Is Sworn (4:25)

Register


Register
(1) Johnix,
Aug 22 2019, 21:07:57 Mantra Machine - Nitrogen (2014)


*Artist: Mantra Machine
*Album: Nitrogen
*Year: 2014
*Genre: Instrumental/Acid/Stoner Rock/Heavy Psych
*Country: Netherlands
*Format: mp3@CBR320kbps
*Size: 140MB

Tracklist:
1. Andromeda 07:38
2. Stinger 06:23
3. Predator 06:28
4. Thistle 07:11
5. Nitrogen 07:05
6. Ultrabase 06:34
7. Dunajam (Bonus Track) 09:31
8. Triumph (Bonus Track) 09:32
******************************
Total playing time: 1:00:22



[more=Technical info]
Input File: 01 - Andromeda.mp3
Channels : 2
Sample Rate : 44100
Precision : 16-bit
Duration : 00:07:40.36 = 20301788 samples = 34526.9 CDDA sectors
File Size : 18.5M
Bit Rate : 322k
Sample Encoding: MPEG audio (layer I, II or III)
Comments :
Title=Andromeda
Artist=Mantra Machine
Album=Nitrogen
Tracknumber=1
Year=2014
Genre=Stoner / Space Rock

[/more]

Register
(1) Olethros,
Aug 22 2019, 20:58:05 Slowjoint - Hashed Potato [single] (2014)


*Artist: Slowjoint
*Album: Hashed Potato [single]
*Year: 2014
*Genre: Psychedelic Stoner/Sludge/Doom Metal
*Country: Denmark
*Format: mp3@CBR320kbps
*Size: 20MB

Tracklist:
1. Hashed Tomato 06:43
******************************
Total playing time: 6:43



[more=Technical info]
Input File: Slowjoint - Hashed Potato - 01 Hashed Tomato.mp3
Channels : 2
Sample Rate : 44100
Precision : 16-bit
Duration : 00:06:43.67 = 17801671 samples = 30275 CDDA sectors
File Size : 16.3M
Bit Rate : 323k
Sample Encoding: MPEG audio (layer I, II or III)
Comments :
Title=Hashed Tomato
Artist=Slowjoint
Album=Hashed Potato
Tracknumber=1
Year=2017

[/more]

Register
(2) artscald, stub888,
Aug 22 2019, 20:04:32 Slowjoint - Jutlandian (2019)


*Artist: Slowjoint
*Album: Jutlandian
*Year: 2019
*Genre: Psychedelic Stoner/Sludge/Doom Metal
*Country: Denmark
*Format: mp3@CBR320kbps
*Size: 96MB

Tracklist:
1. Jutlandian 08:41
2. Snot Shovel 03:24
3. Pigs 02:48
4. Out of Reach 06:49
5. Stagger Me 04:58
6. The Last Pick 03:01
7. Bottom Shelf 04:15
8. Couch Cougher 04:59
******************************
Total playing time: 38:55




[more=Technical info]
Input File: Slowjoint - Jutlandian - 01 Jutlandian.mp3
Channels : 2
Sample Rate : 44100
Precision : 16-bit
Duration : 00:08:41.30 = 22989418 samples = 39097.6 CDDA sectors
File Size : 21.0M
Bit Rate : 323k
Sample Encoding: MPEG audio (layer I, II or III)
Comments :
Title=Jutlandian
Artist=Slowjoint
Album=Jutlandian
Tracknumber=1
Year=2019

[/more]

Register
(2) artscald, stub888,
Aug 22 2019, 18:29:12 Bauhaus - In The Flat Field (1980)


*Artist: Bauhaus
*Album: In The Flat Field
*Year: 1980
*Genre: Gothic Rock/Post Punk
*Country: United Kingdom
*Format: mp3@CBR320kbps
*Size: 156MB

Tracklist:
1. Dark Entries 03:53
2. Double Dare 04:54
3. In the Flat Field 05:01
4. God in an Alcove 04:08
5. Dive 02:14
6. Spy in the Cab 04:31
7. Small Talk Stinks 03:35
8. St. Vitus Dance 03:32
9. Stigmata Martyr 03:47
10. Nerves 07:07
11. Telegram Sam 02:12
12. Rosegarden Funeral of Sores 05:34
13. Terror Couple Kill Colonel 04:21
14. Scopes 01:35
15. Untitled 01:27
16. God in an Alcove 04:10
17. Crowds 03:15
18. Terror Couple Kill Colonel (remix) 04:33
******************************
Total playing time: 1:09:49



[more=Technical info]
Input File: 01. Dark Entries.mp3
Channels : 2
Sample Rate : 44100
Precision : 16-bit
Duration : 00:03:52.77 = 10265025 samples = 17457.5 CDDA sectors
File Size : 9.31M
Bit Rate : 320k
Sample Encoding: MPEG audio (layer I, II or III)
Comments :
Title=Dark Entries
Artist=Bauhaus
Album=In the Flat Field
Tracknumber=1
Year=1999

[/more]

Register
(2) babanguida, Olethros,
Aug 22 2019, 18:28:30 Bauhaus - Go Away White (2008)
All disco is upped and I added all da albums that are not still here.
(1) babanguida,
Aug 22 2019, 18:21:18 Bauhaus - The Sky's Gone Out (1982)


*Artist: Bauhaus
*Album: The Sky's Gone Out
*Year: 1982
*Genre: Gothic Rock/Post Punk
*Country: United Kingdom
*Format: mp3@CBR320kbps
*Size: 134MB

Tracklist:
1. Third Uncle 05:19
2. Silent Hedges 03:12
3. In The Night 03:07
4. Swing The Heartache 05:54
5. Spirit 05:34
6. The Three Shadows Part 1 04:24
7. The Three Shadows Part 2 03:10
8. The Three Shadows Part 3 01:37
9. All We Ever Wanted Was Everything 03:52
10. Exquisite Corpse 05:39
11. Ziggy Stardust 03:13
12. Party Of The First Part 05:27
13. Spirit 03:46
14. Watch That Grandad Go 05:40
******************************
Total playing time: 59:54



[more=Technical info]
Input File: 01. Third Uncle.mp3
Channels : 2
Sample Rate : 44100
Precision : 16-bit
Duration : 00:05:18.71 = 14055287 samples = 23903.5 CDDA sectors
File Size : 12.8M
Bit Rate : 320k
Sample Encoding: MPEG audio (layer I, II or III)
Comments :
Title=Third Uncle
Artist=Bauhaus
Album=The Sky's Gone Out
Tracknumber=1
Year=1988

[/more]

Register
(2) babanguida, Olethros,
Aug 22 2019, 18:11:11 Bauhaus - Mask [re-release 1998] (1981)
@320

Register
(2) babanguida, thenecromancer,
Aug 22 2019, 18:03:06 Bauhaus - Burning From The Inside (1983)


*Artist: Bauhaus
*Album: Burning From The Inside
*Year: 1983
*Genre: Gothic Rock/Post Punk
*Country: United Kingdom
*Format: mp3@CBR320kbps
*Size: 126MB

Tracklist:
1. She's In Parties 05:46
2. Antonin Artaud 04:09
3. Wasp 00:21
4. King Volcano 03:32
5. Who Killed Mr. Moonlight 05:01
6. Slice of Life 03:44
7. Honeymoon Croon 02:55
8. Kingdom's Coming 02:27
9. Burning From the Inside 09:21
10. Hope 03:17
11. Lagartija Nick 03:05
12. Here's the Dub 03:19
13. Departure 04:50
14. The Sanity Assassin 04:05
******************************
Total playing time: 55:52



[more=Technical info]
Input File: 01. She's In Parties.mp3
Channels : 2
Sample Rate : 44100
Precision : 16-bit
Duration : 00:05:45.67 = 15244223 samples = 25925.5 CDDA sectors
File Size : 13.8M
Bit Rate : 320k
Sample Encoding: MPEG audio (layer I, II or III)
Comments :
Title=She's In Parties
Artist=Bauhaus
Album=Burning From the Inside
Tracknumber=1
Year=1983

[/more]

Register
(3) babanguida, Ghostb, Olethros,
Aug 22 2019, 17:51:46 Decrepit Birth - Diminishing Between Worlds (2008)
ЦИТАТА(troll_swamp @ Aug 22 2019, 20:47:50) *
Молодчина, жги, не стесняйся. 9.gif 9.gif 9.gif


Всё правильно, стыдно - когда видно 1488.gif
(2) quicksand, troll_swamp,
Aug 22 2019, 17:38:59 Föllakzoid - I (2019)


*Artist: Föllakzoid
*Album: I
*Year: 2019
*Genre: Krautrock/Minimal Techno
*Country: Chile
*Format: mp3@CBR320kbps
*Size: 137MB

Tracklist:
1. I 17:00
2. II 13:00
3. III 17:00
4. IIII 13:00
******************************
Total playing time: 1:00:00



[more=Technical info]
Input File: 01. I.mp3
Channels : 2
Sample Rate : 44100
Precision : 16-bit
Duration : 00:00:01.02 = 44982 samples = 76.5 CDDA sectors
File Size : 40.9M
Bit Rate : 321M
Sample Encoding: MPEG audio (layer I, II or III)
Comments :
Title=I
Artist=Föllakzoid
Album=I
Tracknumber=1/4
Year=2019
Genre=krautrock
Discnumber=1/1

[/more]

Register
(1) Olethros,
Aug 22 2019, 17:22:26 Bauhaus - Go Away White (2008)
Will do it tonight.
(1) babanguida,
Aug 22 2019, 14:02:06 B. B. King - Midnight Believer (1978)
You are a man with a taste in music, I understood it long ago.

Of course, my taste is perfect but you stand near me. 25.gif
(1) babanguida,
Aug 22 2019, 13:46:15 Stone Brigade - Madman's Paradise (2019)
А клипчанский то хорошо звучит - помпезность в лучшем значении этого слова, приятная музыка...

(3) Hellraiser, infiltrator, Samaritianin,
Aug 22 2019, 12:50:12 Sacred Reich - Alive 2019 [ep] (2019)
ЦИТАТА(slack @ Aug 22 2019, 10:10:50) *
Ставлю на Сэма 15.gif


Проиграл ты, Некроскам залил в модерку. 1488.gif

Ну а первым я кину сюда, а то хрен знает, скока еще в модерке пропарится.

Итак, встречаем! 25.gif



Sacred Reich - Awakening (2019)

Время: 0:31:23
Качество: mp3, 320 kbps
Размер: 71.77 Мб

Tracklist:
01. Awakening (4:08)
02. Divide & Conquer (3:40)
03. Salvation (3:59)
04. Manifest Reality (4:44)
05. Killing Machine (3:18)
06. Death Valley (5:22)
07. Revolution (2:48)
08. Something to Believe (3:24)

Register


Register


(3) infiltrator, slack, Yarri,
Aug 22 2019, 11:52:45 Black Funeral - Az-I-Dahak (2004)
ЦИТАТА(Occultas @ Aug 22 2019, 13:40:14) *
reup 320


There`s no available 320 in da net, only FLAC, Can up it and you can make ya own rip.
(1) Occultas,

403 Pages V   1 2 3 > » 
- Lo-Fi Version Support form
Copyrights and abuse reports form
Time is now: 24th August 2019 - 04:03:46

Кедровые орехи 500 купить.