Welcome Guest ( Log In | Register )

История благодарностей участнику vosmidesijatye ::: Спасибо сказали: 41052 раз(а)
Дата поста: В теме: За сообщение: Спасибо сказали:
Yesterday, 14:44:47 Yma Sumac - Miracles (1972)


*Artist: Yma Sumac
*Album: Miracles
*Year: 1972
*Genre: Rock/Vocal Virtuoso
*Country: Peru
*Format: mp3@CBR320kbps
*Size: 71MB

Tracklist:
1. Remember 04:08
2. Medicine Man 03:05
3. Let Me Hear You 02:27
4. Tree Of Life 02:55
5. Flame Tree 02:47
6. Zebra 02:51
7. Azure Sands 02:37
8. Look Around 02:18
9. Magenta Mountain 02:57
10. El condor pasa 04:49
******************************
Total playing time: 30:54



[more=Technical info]
Input File: 01. Remember.mp3
Channels : 2
Sample Rate : 48000
Precision : 16-bit
Duration : 00:04:07.66 = 11887632 samples ~ 18574.4 CDDA sectors
File Size : 10.0M
Bit Rate : 323k
Sample Encoding: MPEG audio (layer I, II or III)
Comments :
Title=Remember
Artist=Yma Sumac
Album=Miracles
Tracknumber=01
Year=1972
Genre=World Music, Vocal, Exotica

[/more]

Register
(3) A.L.Rapsod, Borderline1991, Shub,
Nov 24 2020, 19:43:12 Winterfun - Thank My Songs (2020)
ЦИТАТА(Ghostb @ Nov 24 2020, 21:47:43) *
Не перестаю восхищаться этим товарищем pray.gif Пишите больше!


Да, подобного масштаба эпишности давно почитывать не приходилось 1488.gif 25.gif
(1) Ghostb,
Nov 24 2020, 15:17:02 Skaz - Сказ [ep] (2020)
A correct one:

Register
(2) eddbuzz, VALERY,
Nov 23 2020, 12:58:58 Skaz - Сказ [ep] (2020)


*Artist: Skaz
*Album: Сказ [ep]
*Year: 2020
*Genre: Stoner/Doom Metal
*Country: Russian Federation
*Format: mp3@CBR320kbps
*Size: 58MB

Tracklist:
1. Безбледный 06:42
2. You're Alone Now 03:25
3. Видение 04:32
4. На тебе 07:46
5. Mean Man Mystery 04:10
6. The Pale 02:21
******************************
Total playing time: 28:56



[more=Technical info]
Input File: Skaz - Сказ - 01 Безбледный.mp3
Channels : 2
Sample Rate : 44100
Precision : 16-bit
Duration : 00:06:42.93 = 17769389 samples = 30220 CDDA sectors
File Size : 16.2M
Bit Rate : 321k
Sample Encoding: MPEG audio (layer I, II or III)
Comments :
Title=Безбледный
Artist=Skaz
Album=Сказ
Tracknumber=1
Year=2020

[/more]

Register
(6) infiltrator, Olethros, robertho777, Rosen, stumpheavyrock, VALERY,
Nov 23 2020, 12:53:59 Destroy My Brains - Worthless [ep] (2018)


*Artist: Destroy My Brains
*Album: Worthless [ep]
*Year: 2018
*Genre: Sludge/Doom Metal
*Country: Canada
*Format: mp3@CBR320kbps
*Size: 107MB

Tracklist:
1. Before The Beginning 01:07
2.The Beginning 09:12
3. The Beginning Is Worthless 02:36
4. Worthless 11:57
5. Worthless Hallucinations 01:30
6. Hallucinations of a Funeral 08:20
7. Funeral Of A Hunchback 02:05
8. Hunchback / Revenge 09:23
******************************
Total playing time: 46:10



[more=Technical info]
Input File: DESTROY MY BRAINS - Worthless EP - 01 Before the Beginning.mp3
Channels : 2
Sample Rate : 44100
Precision : 16-bit
Duration : 00:01:07.61 = 2981513 samples = 5070.6 CDDA sectors
File Size : 2.94M
Bit Rate : 348k
Sample Encoding: MPEG audio (layer I, II or III)
Comments :
Title=Before the Beginning
Artist=DESTROY MY BRAINS
Album=Worthless EP
Tracknumber=1
Year=2018

[/more]

Register
(4) infiltrator, Olethros, Rosen, VALERY,
Nov 23 2020, 12:16:37 Лучший советчик МА - Часть 12 (МДМ) - Тур 2, Рейтингование
ЦИТАТА(Alexis The Best @ Nov 23 2020, 08:49:04) *
я стесняюсь спросить: а где же твои оценки?


Участие не обязательно должно сводиться к выставлению оценок, можно и просто посоветовать топовые по мнению советчика релизы.
(1) Utugg,
Nov 21 2020, 12:39:56 Альбом 2007 года в жанре technical / progressive death. Тур2
Akercocke - Antichrist - 2
Blotted Science - The Machinations Of Dementia - 1
Nile - Ithyphallic - 2
(1) Язва,
Nov 20 2020, 20:32:06 El Rojo - El Diablo Rojo (2020)


*Artist: El Rojo
*Album: El Diablo Rojo
*Year: 2020
*Genre: Stoner Metal
*Country: Italy
*Format: mp3@CBR320kbps
*Size: 97MB

Tracklist:
1. South 04:29
2. El Camino 05:01
3. The Wanderer 04:30
4. Colors 07:13
5. Ascension 06:14
6. When I Slow Down 04:17
7. Cactus Bloom 06:27
8. Dragonfly 03:19
******************************
Total playing time: 41:30



[more=Technical info]
Input File: 01. South.mp3
Channels : 2
Sample Rate : 44100
Precision : 16-bit
Duration : 00:04:29.55 = 11887111 samples = 20216.2 CDDA sectors
File Size : 11.1M
Bit Rate : 329k
Sample Encoding: MPEG audio (layer I, II or III)
Comments :
Title=South
Artist=El Rojo
Album=El Diablo Rojo
Tracknumber=1/8
Year=2020
Genre=Metal
Discnumber=1/1

[/more]

Register
(10) AHBAnep, frituz3, infiltrator, LEGION69, marilin, metaljosue, Morgoth, Olethros, Rosen, VALERY,
Nov 20 2020, 18:36:32 Vandrer - Vandrer (2020)


*Artist: Vandrer
*Album: Vandrer
*Year: 2020
*Genre: Doom Metal
*Country: Norway
*Format: mp3@CBR320kbps
*Size: 169MB

Tracklist:
1. Descension / Realm Of Inversion 15:37
2. Rememberance / To Exit The Vessel 15:01
3. The Light Trap 12:17
4. Black Portal Moksha 11:40
5. Beyond The Firmament / Into The Outward Breath 17:46
******************************
Total playing time: 1:12:21



[more=Technical info]
Input File: Vandrer - S-T - 01 Descension - Realm of Inversion.mp3
Channels : 2
Sample Rate : 44100
Precision : 16-bit
Duration : 00:15:37.27 = 41333739 samples = 70295.5 CDDA sectors
File Size : 37.7M
Bit Rate : 322k
Sample Encoding: MPEG audio (layer I, II or III)
Comments :
Title=Descension / Realm of Inversion
Artist=Vandrer
Album=S/T
Tracknumber=1
Year=2020

[/more]

Register
(22) AHBAnep, andreikun, doomTemplar, frituz3, infiltrator, LEGION69, madster, Marek, marilin, Morgoth, multizwilling, Olethros, Ostinato, robertho777, Romanza, Rosen, sergsazan, sludge666, stumpheavyrock, VALERY, VVR, Wail,
Nov 20 2020, 15:48:48 Dark Tranquillity - The Gallery (1995)
Первая песня с альбома - лучший их МДМ трэк (в традиционном прочтении стиля).
(2) plfan93, rickzammuto,
Nov 20 2020, 14:45:50 Danimal Cannon - Lunaria (2016)
ЦИТАТА(hammer @ Nov 20 2020, 16:39:33) *
.Да и не метал это.


Это - метал. Включи и послушай композиции номер 2, 5 хотя бы. Странно этого не слышать. Вполне металлически звучит, только вместо традиционных для тяжа инструментов и звучания - больший упор на синтезаторы и компуктеры.

И такой вектор развития этого вашего метала я категорически приветствую. Ибо традиционные жанры тяжа себя уже во многом исчерпали.
(1) FunZombie,
Nov 20 2020, 14:01:58 My Dying Bride - Macabre Cabaret [ep] (2020)
В любой рок н рольной банде есть драйв. В роке без драйва никуда.
(2) Ghostb, infiltrator,
Nov 20 2020, 12:23:03 Поезд Родина - Прими Раба Твоего (2020)
ЦИТАТА(6666666 @ Nov 20 2020, 14:18:41) *
А ты в какой роли из названных выступаешь?


А те как обычно вечно надо пукнуть в его сторону, хотя он и не ответит? 1488.gif

В РФ фбюнерал делают на мировом уровне, а не более - менее. Доказательством тому является дебют Comatose Vigil.

Хотя в Украине Ego Depths те же еще блистательнее, ибо челу из проекта удается делать шикарнейший Esoteric-metal.
(1) Bloodn Lord,
Nov 19 2020, 16:21:08 My Dying Bride - Macabre Cabaret [ep] (2020)
ЦИТАТА(Ghostb @ Nov 19 2020, 18:03:47) *
Продолжаю ждать и надеяться - настолько оригинально они звучали тогда, эх smile2.gif


Да это разовая акция была, понятно же, за 22 прошедших с 1998 года они лишь единажды решились на еще один по настоящему смелый эксперимент - на Эвинте, а как до так и после делали то что всегда у них получалось (с вариациями).
(2) Ghostb, infiltrator,
Nov 19 2020, 15:11:22 Dark Tranquillity - Moment (2020)
Адептуса прорвало redp.gif
(3) BelfegoR13, Ghostb, infiltrator,
Nov 19 2020, 13:56:58 Danimal Cannon - Lunaria (2016)
ЦИТАТА(hammer @ Nov 19 2020, 15:51:49) *
Ты теперь вот это вот Chiptune везде в метал "совать" будешь?


Не ворчи)
(2) FunZombie, infiltrator,
Nov 19 2020, 13:53:03 My Dying Bride - Macabre Cabaret [ep] (2020)
Даж слушать неохота после унылейше-нуднейшего прошлого.
(2) Ghostb, infiltrator,
Nov 18 2020, 19:22:19 Новости Black-направления
ЦИТАТА(babanguida @ Nov 18 2020, 20:50:34) *
perform with this KFC chicken drumstick in his hand. 1488.gif


The essense of current black metal 25.gif
(2) babanguida, infiltrator,
Nov 18 2020, 14:45:59 Thromos - Satan (2019)
ЦИТАТА(Haerelon @ Nov 18 2020, 16:45:03) *
What's the password?


metalarea.org
(3) Haerelon, infiltrator, obituarydark,
Nov 18 2020, 13:05:57 Thromos - Satan (2019)
ЦИТАТА(babanguida @ Nov 18 2020, 14:57:27) *
S A T A N






15.gif
(3) babanguida, infiltrator, nsk2008,
Nov 18 2020, 12:09:08 Goatpenis - Decapitation Philosophy (2020)
ЦИТАТА(Bloodn Lord @ Nov 18 2020, 12:40:14) *
Бразильцам однозначно снятся лавры Нергала и Коsmile3.gif


Эт действительно так. crazy.gif Никогда и представить себе не мог, что адовые товарищи будут рубать насток близко по польским лекалам, но здесь вайбы Адама просто витают.

Это не плохо, но ток в качестве эксперимента, их традиционная мелодика ближе.
(2) Bloodn Lord, infiltrator,
Nov 17 2020, 17:16:36 Akhlys - Melinoë (2020)
ЦИТАТА(babanguida @ Nov 17 2020, 19:09:00) *
It depends on the bands.


That`s what I exactly mean. bye.gif
(1) babanguida,
Nov 17 2020, 16:15:18 Jesu - Jesu (2005)
Лучший альбом этого дяди - тяжёлый, атмосферный, а не то нудное уныние что он ща выдаёт.
(1) HviteGuden,
Nov 16 2020, 18:10:02 Causa Sui - Szabodelico (2020)


*Artist: Causa Sui
*Album: Szabodelico
*Year: 2020
*Genre: Psychedelic/Stoner Rock
*Country: Denmark
*Format: mp3@CBR320kbps
*Size: 147MB

Tracklist:
1. Echoes Of Light
2. Gabor's Path
3. Sole Elettrico
4. Under The Spell
5. Vibratone
6. Laetitia
7. Szabodelico
8. Honeydew
9. Lucien's Beat
10. Premonitions
11. Rosso Di Sera Bel Tempo Si Spera
12. LaJolla
13. Merging Waters
******************************
Total playing time: 1:03:29



[more=Technical info]
Input File: 01. Echoes of Light.mp3
Channels : 2
Sample Rate : 44100
Precision : 16-bit
Duration : 00:00:00.15 = 6747 samples = 11.4745 CDDA sectors
File Size : 6.32M
Bit Rate : 331M
Sample Encoding: MPEG audio (layer I, II or III)
Comments :
Title=Echoes of Light
Artist=Causa Sui
Album=Szabodelico
Tracknumber=1/13
Year=2020
Genre=Rock
Discnumber=1/1

[/more]

Register
(7) A.L.Rapsod, infiltrator, Living_Beat, marilin, Olethros, taiachi, Wail,
Nov 16 2020, 16:46:23 Sarvari - Arcadian Nightly Mysteries (2007)
@320

Register
(2) rimfrost, varlam4,

465 Pages V   1 2 3 > » 
- Lo-Fi Version Support form
Copyrights and abuse reports form
Time is now: 26th November 2020 - 16:44:09