Welcome Guest ( Log In | Register )

История благодарностей участнику vosmidesijatye ::: Спасибо сказали: 37761 раз(а)
Дата поста: В теме: За сообщение: Спасибо сказали:
Apr 4 2020, 19:34:38 Human Serpent - For I, The Misanthropist (2018)
@320

Register


Register
(1) rimfrost,
Apr 4 2020, 17:20:22 Edellom - Sirens (2019)
@320

Register


Register
(1) Razorbladeswaltz,
Apr 4 2020, 12:48:04 Helenes - My Inferno [ep] (2020)
@320

Register


Register
(2) Razorbladeswaltz, vasiljev_sergej,
Apr 4 2020, 12:13:46 Tētēma - Necroscape (2020)


*Artist: Tētēma
*Album: Necroscape
*Year: 2020
*Genre: Experimental Rock
*Country: United States
*Format: mp3@CBR320kbps
*Size: 92MB

Tracklist:
1. Necroscape 02:53
2. Cutlass Eye 02:19
3. Wait Till Mornin' 03:05
4. Haunted On the Uptake 03:07
5. All Signs Uncensored 03:10
6. Milked Out Million 03:09
7. Soliloquy 02:44
8. Flatliner's Owl 01:16
9. Dead Still 04:14
10. Invertebrate 01:58
11. We'll Talk Inside a Dream 04:22
12. Sun Undone 04:00
13. Funerale Di Un Contadino 04:12
******************************
Total playing time: 40:29



[more=Technical info]
Input File: 1. Necroscape.mp3
Channels : 2
Sample Rate : 44100
Precision : 16-bit
Duration : 00:02:53.23 = 7639311 samples = 12992 CDDA sectors
File Size : 6.93M
Bit Rate : 320k
Sample Encoding: MPEG audio (layer I, II or III)
Comments :
Title=Necroscape
Artist=tētēma
Album=necroscape
Tracknumber=01/13
Year=2020-20-20
Discnumber=1/1

[/more]

Register
(6) as71, Ghostb, Olethros, popen13, Tular, Zhelezjaka,
Apr 3 2020, 15:17:49 Testament - Titans Of Creation (2020)
Эксперт на эксперте и экспертом погоняет 1488.gif
(1) Samaritianin,
Apr 2 2020, 17:56:31 The Ruins Of Beverast & Mourning Beloveth - Don't Walk On The Mass Graves [split] (2020)
Зело неожиданное соседство headcrab.png

@320

Register


Register
(13) Chasm, Deze, El_Chibo, gena, GFW, helvetestoner, infiltrator, maochen, nemx, supremo, tOmV, Vidder242, yuratroll,
Apr 2 2020, 17:39:01 Axel Rudi Pell - Wings Of The Storm [single] (2020)


*Artist: Axel Rudi Pell
*Album: Wings Of The Storm [single]
*Year: 2020
*Genre: Heavy Metal
*Country: Germany
*Format: mp3@CBR320kbps
*Size: 13MB

Tracklist:
1. Wings Of The Storm 05:47
******************************
Total playing time: 5:47



[more=Technical info]
Input File: 01 Wings of the Storm.mp3
Channels : 2
Sample Rate : 44100
Precision : 16-bit
Duration : 00:05:47.81 = 15338553 samples = 26086 CDDA sectors
File Size : 14.4M
Bit Rate : 331k
Sample Encoding: MPEG audio (layer I, II or III)
Comments :
Title=Wings of the Storm
Artist=Axel Rudi Pell
Album=Wings of the Storm
Genre=Heavy Metal

[/more]

Register
(8) cesar, finmetal, infiltrator, morbidangelo, Olethros, senecazm, sergsazan, thenecromancer,
Apr 2 2020, 13:12:03 Чудодейственные свойства гомеопатии, или Голосовалка за лучший альбом 2019 года, Тур 1
ЦИТАТА(Deze @ Apr 2 2020, 16:10:50) *
Интересно, сколько из списка vosmidesijatye реально метала)


Только что проверил по RYMу претендентов.

Все что не метал, убрал (включая последнего Мальмстина 25.gif 1488.gif)
(2) Deze, infiltrator,
Apr 1 2020, 11:28:56 Rainbow - Down To Earth (1979)
@320 2 CD Version

Register
(1) thenecromancer,
Apr 1 2020, 10:23:06 Лучший советчик МА - Часть 666 (Тру-блэк)
Поставьте Daale смотрящим и вопрос решен. 25.gif

Предствляю, как будет Экза корёжить от прослушивания сего этапа 15.gif
(2) Alexis The Best, infiltrator,
Mar 31 2020, 21:33:56 Ville Valo & Agents - Ville Valo & Agents (2019)
@320

Register
(2) Battaleon, KKK1488,
Mar 31 2020, 21:15:08 Funeral Rites - Rite Of Damnation (2020)
Хоть БМ слушаю не столь часто уже, но этот релиз послушал не без удовольствия. Торжественно-марширующий трэк-интро срывается в мелодичный водоворот Age Of Fire со звенящими барабанчиками. И далее...Релиз монолитен настроением, в нем грамотно сочетается характерное для жанра трещоточное жужжание, то замедляющееся, то убыстряющееся, приправленное уместным вокалом. Отмечу выразительные гитарные партии, раскиданные по альбому и рокенрольно-расколбасно торжественную Hand Of Glory, а также Lord's Funeral - вот эти трэки выделяются на фоне полотна. Звук на пласте приятно-читаемый без излишней пластмассы или, напротив, подвальной грязнотцы.

Качественный релиз отечественного производства.

(5) Bulldozzzzzzer, infiltrator, older68, sethurius, Абигор,
Mar 31 2020, 21:13:22 Nightwish - Hvman. :||: Natvre. (2020)
ЦИТАТА(6666666 @ Apr 1 2020, 00:08:31) *
А 80-й как же?


Помимо меня, не забывай Митвульфа, который высоко ценит тот же 2007.

Да и помимо нас, еще множество любителей сих записей имеется, которые не сидят на машке.
(2) Ghostb, infiltrator,
Mar 31 2020, 17:23:14 Nightwish - Hvman. :||: Natvre. (2020)
ЦИТАТА(6666666 @ Mar 31 2020, 20:19:32) *
Пока обожду, всё-таки, не чужая группа, хоть давно уже и не вывозящая за всю хурму.


Всего лишь на последнем альбоме не вывезли. А на 2007 и на утонченном, жанрово разнообразном и сложном 2011 такая хурма была, что вах-вах.
(2) Ghostb, infiltrator,
Mar 31 2020, 17:12:53 Nightwish - Hvman. :||: Natvre. (2020)
@320

Register


Register


VBR

Register
(5) djsema4, Forest, infiltrator, MAYH, StabWound,
Mar 31 2020, 15:01:51 Ville Valo - Gothica Fennica Vol. 1 [ep] (2020)
ЦИТАТА(6666666 @ Mar 31 2020, 18:00:05) *
Поешь говна толчённого.


Зачем мне есть тебя?
(2) Anger, infiltrator,
Mar 31 2020, 13:53:27 Nightwish
Пока отмодерится, зело много времени пройдет посему:

Nightwish - Human. :II: Nature.

@320

Register


Register
(1) Battaleon,
Mar 31 2020, 11:26:35 ДДТ - Актриса весна (1992)
@320

Register


Register
(1) rimfrost,
Mar 30 2020, 18:12:15 Новости Black-направления
Сатир сами знаете откуда готовит что-то новенькое

ЦИТАТА
I am in the studio these days, writing and recording for what is @satyriconofficial ‘s new mega project. Looking forward to share details with you in the not too distant future. Stay strong.
(1) Occultas,
Mar 30 2020, 14:39:45 Bonfire - Fistful Of Fire (2020)
Обложку у УДО подрезали 1488.gif

ЦИТАТА(russ777 @ Mar 30 2020, 17:31:39) *
Не знал...шо взять с колхозника... 6.gif


15.gif
(2) infiltrator, russ777,
Mar 30 2020, 12:47:49 Funkadelic - Maggot Brain (1971)


*Artist: Funkadelic
*Album: Maggot Brain
*Year: 1971
*Genre: Funk/Soul
*Country: United States
*Format: mp3@CBR320kbps
*Size: 123MB

Tracklist:
1. Maggot Brain
2. Can You Get To That
3. Hit It And Quit It
4. You And Your Folks, Me And My Folks
5. Super Stupid
6. Back In Our Minds
7. Wars Of Armageddon
8. Whole Lot Of BS
9. I Miss My Baby - US Music With Funkadelic
10. Maggot Brain (Alt Mix, Recorded 1971)
******************************
Total playing time: 54:02



[more=Technical info]
Input File: 01. Maggot Brain.mp3
Channels : 2
Sample Rate : 44100
Precision : 16-bit
Duration : 00:10:21.23 = 27396067 samples = 46592 CDDA sectors
File Size : 24.8M
Bit Rate : 320k
Sample Encoding: MPEG audio (layer I, II or III)
Comments :
Title=Maggot Brain
Artist=Funkadelic
Album=Maggot Brain
Tracknumber=01
Year=1970
Genre=Funk

[/more]

Register
(3) infiltrator, marilin, Olethros,
Mar 30 2020, 10:13:02 Ville Valo - Gothica Fennica Vol. 1 [ep] (2020)
ЦИТАТА(Slam91 @ Mar 30 2020, 12:39:14) *
Уж распустил группу если, так лучше шёл бы в другой какой-нибудь жанр. Может в акустик тот же, или что-то типа 69 глаз.


Справедливости ради, он уже проект, отличный от ХИМ, запустил в прошлом году: Ville Valo & Agents - Ville Valo & Agents (2019) . Так что велкам к ознакомлению. bye.gif

(1) Slam91,
Mar 29 2020, 19:14:21 Absurd - Promo 11/2019 A.Y.P.S. [demo] (2019)
@320

Register


Register
(4) infiltrator, recber, soulskinner681, zoog,
Mar 29 2020, 18:00:51 Мастер - Мастер Времени (2020)
От Навального сразу блевать захотел...
(3) Bulldozzzzzzer, infiltrator, RUSP73,
Mar 29 2020, 17:38:16 Rainbow - Down To Earth (1979)
ЦИТАТА(Ghostb @ Apr 12 2018, 01:23:14) *
Слабый альбом.


Не соглашусь. Вокал специфичен, да, но по материалу сильно, все таки Ричи великолепный композитор.
(1) babanguida,

439 Pages V   1 2 3 > » 
- Lo-Fi Version Support form
Copyrights and abuse reports form
Time is now: 6th April 2020 - 00:04:59