Welcome Guest ( Log In | Register )

История благодарностей участнику vosmidesijatye ::: Спасибо сказали: 44674 раз(а)
Дата поста: В теме: За сообщение: Спасибо сказали:
Yesterday, 10:29:46 Tortuga - Flying Dutchman (2021)
ЦИТАТА(Samaritianin @ Sep 22 2021, 23:34:57) *
Tortuga



(1) Rover,
Sep 22 2021, 09:43:00 Motörhead - 1916 (1991)
@320

Register
(1) thenecromancer,
Sep 22 2021, 09:34:31 Motörhead - Orgasmatron (1986)
@320

Register
(1) thenecromancer,
Sep 20 2021, 23:38:32 Новости Death Metal направления
The Lurking Fear - Death, Madness, Horror, Decay - 19 // 11 // 21

[youtube]yp5FlevsnWU[/youtube]
(1) 6666666,
Sep 19 2021, 11:33:14 Hexenblatt - Through The Woods (2021)


*Artist: Hexenblatt
*Album: Through The Woods
*Year: 2021
*Genre: Sludge/Stoner/Doom Metal
*Country: Russian Federation
*Format: mp3@CBR320kbps
*Size: 62MB

Tracklist:
1. Witchleaf 06:45
2. King Of The Oak Tree 06:25
3. Enchanter 05:43
4. Pan 04:41
******************************
Total playing time: 23:34



[more=Technical info]
Input File: Hexenblatt - Through the woods - 01 Witchleaf.mp3
Channels : 2
Sample Rate : 44100
Precision : 16-bit
Duration : 00:06:45.47 = 17881139 samples = 30410.1 CDDA sectors
File Size : 16.3M
Bit Rate : 322k
Sample Encoding: MPEG audio (layer I, II or III)
Comments :
Title=Witchleaf
Artist=Hexenblatt
Album=Through the woods
Tracknumber=1
Year=2021

[/more]

Register
(7) eddbuzz, HMHamster, Olethros, stumpheavyrock, VALERY, Wail, wreak,
Sep 16 2021, 12:42:29 Carcass - Torn Arteries (2021)
ЦИТАТА(Shadowman @ Sep 16 2021, 15:35:54) *
О! Вот теперь 320 кбс магическим образом изменят содержимое альбома


Чавось? И когда подобные случаи были то ваще? crazy.gif Обычно те кто црут альбом в 112, делают то же самое и во флаке, если муз. материал негож.

ЦИТАТА(Faust_Vulkan_16 @ Sep 16 2021, 14:57:49) *
А вообще, все испортил Амотт.


Не испортил, а придал хитовости, которая нужна была коллективу, который уже все лучшее сказал в гринде и дэте.

Keep On Rotting In The Free World допустим один из лучших мелодэтовых трэков.
(1) neludz,
Sep 15 2021, 16:48:07 Anette Olzon - Strong (2021)
Хороший альбом.

ЦИТАТА(sadmannn @ Sep 12 2021, 20:31:59) *
Но вот как по мне, то в сольном творчестве у Аньки лучше получается, чем с Nightwish


Нет, но они хороши сами по себе, как пример приятной мелодичной музыки с хорошим вокалом.

К слову о Nightwish: Самобытные, мелодически/жанрово разнообразные и творчески продуманные альбомы 2007 и 2011 годов, записанные при участии Ользон, лучше как прошлых альбомов группы (1997, к примеру), так и всех последующих, которые не привнесли ничего нового в музыкальный каталог группы, но лишь выежжали на громком имени Nightwish.
(1) Thiarnan,
Sep 15 2021, 16:40:57 Поиск по банд с нестандартными буквами в названии
Не ищеца по нестандартному названию группы - ищеца по названию альбома.

И очень часто помогает не поиск через функцию поиск, а поиск через форму добавления релиза, больше результатов выдаёт.
(1) SlimBZ,
Sep 15 2021, 01:27:52 Новости Black-направления
Moon - Pandimensional Gnosis - 29 // 10 // 21



1. Shadow of the Endless Abyss 10:58
2. Upon the Eye of the Void 12:54
3. Portal Through the Black Flame 02:56
4. Hollow Transcendence 09:16
5. Wormhole Wounds 09:48
6. Absorbing the Pandimensional Gnosis 03:48
7. Winds of Shattered Glass 06:04
(3) Chasm, Kazoth, Qliphoth,
Sep 13 2021, 13:17:15 Akercocke - Choronzon (2003)
Просматривая антологию легендарной студии Хаммер под названием Hammer House Of Horrors , а конкретно эпизод Guardian Of The Abyss обнаружил, что музыканты в качестве вступления первой композиции просто вырезали первые три минуты данного киноэпизода. 25.gif
(1) FullofHate,
Sep 12 2021, 13:34:04 Anette Olzon - Strong (2021)


*Artist: Anette Olzon
*Album: Strong
*Year: 2021
*Genre: Melodic Metal
*Country: Sweden
*Format: mp3@CBR320kbps
*Size: 120MB

Tracklist:
1. Bye Bye Bye 04:32
2. Sick Of You 05:04
3. I Need To Stay 04:47
4. Strong 04:27
5. Parasite 03:58
6. Sad Lullaby 05:20
7. Fantastic Fanatic 05:06
8. Who Can Save Them 04:35
9. Catcher Of My Dreams 05:04
10. Hear Them Roar 04:38
11. Roll The Dice 04:48
******************************
Total playing time: 52:19



[more=Technical info]
Input File: 03 - I Need to Stay.mp3
Channels : 2
Sample Rate : 44100
Precision : 16-bit
Duration : 00:04:47.52 = 12679720 samples = 21564.1 CDDA sectors
File Size : 11.6M
Bit Rate : 323k
Sample Encoding: MPEG audio (layer I, II or III)
Comments :
Title=I Need To Stay
Artist=Anette Olzon
Album=Strong
Tracknumber=3/11
Year=2021
Discnumber=1/1

[/more]

Register
(37) ace73pq, Alpha_Prime, Aresson, aviacademy, boby9052, caro, Cartman223, dcatagua, djsema4, GorAtheist, gusto24191, gwar, Herrant, HMHamster, Kasper969, kimkayoung, Lukittaz, Maestrovs, metala, nadin85, Niknne, nospeedlimit, oldvarg, pabedit, Reverend, sadmannn, Sanctus, Scuns, smes, StoneTemple, talismanFS, VALERY, Vranakrik, Wail, wreak, zerger, Сварог Барг,
Sep 12 2021, 12:28:09 Salem's Pot - ...Lurar Ut Dig På Prärien (2014)
Тем, кто хочет продолжения линии, заданной на данном полноформате, дико советую вот эту вкусняшку: Thy Sorcery - Frankenhooker [ep] (2021)

Сделано всё очень достойно! В рамках полноформата, думаю, аще буде жара жарющая!
(1) Woodsmoke,
Sep 11 2021, 21:47:21 Thy Sorcery - Frankenhooker [ep] (2021)
ЦИТАТА(Woodsmoke @ Sep 12 2021, 00:21:27) *
Цепляющий и давящий стонер/дум в духе Salem's Pot.


Крайне точное описание! Причём песни неиллюзорно реминисцируют трэки Dr. Death и Nothing Hill с крутейшего ...Lurar Ut Dig På Prärien 25.gif Зело приятно, что тот творческий период шведов продолжают наши ребята.

С нетерпением жду полноформат! pray.gif
(1) Woodsmoke,
Sep 11 2021, 14:59:06 Новости Experimental/Progressive Metal
Mastodon - Hushed and Grim - 29 // 10 // 21

Double CD - 15 tracks totals 84 minutes.

[youtube]haT5ars6RXc[/youtube]
(2) plfan93, Tular,
Sep 11 2021, 14:50:53 Hawkwind - Somnia (2021)


*Artist: Hawkwind
*Album: Somnia
*Year: 2021
*Genre: Psychedelic/Space Rock
*Country: United Kingdom
*Format: mp3@CBR320kbps
*Size: 145MB

Tracklist:
1. Unsomnia 10:20
2. Strange Encounters 06:34
3. Alcyone 05:28
4. Counting Sheep 03:24
5. China Blues 07:23
6. It's Only A Dream 03:17
7. Meditation 04:20
8. Sweet Dreams 02:20
9. I Can't Get You Off My Mind 03:58
10. Small Objects In Space 05:07
11. Pulsestar 01:44
12. Barkus 04:46
13. Cave Of Phantom Dreams 04:13
******************************
Total playing time: 1:02:54



[more=Technical info]
Input File: 01 - Unsomnia.mp3
Channels : 2
Sample Rate : 44100
Precision : 16-bit
Duration : 00:10:20.00 = 27342000 samples = 46500 CDDA sectors
File Size : 24.9M
Bit Rate : 322k
Sample Encoding: MPEG audio (layer I, II or III)
Comments :
Title=Unsomnia
Artist=Hawkwind
Album=Somnia
Tracknumber=1
Year=2021-09-10
Genre=Progressive Rock
Discnumber=1

[/more]

Register
(9) Branis, cesar, marilin, mirotvorets, oldvarg, rebornflms95, recber, sabr, Wail,
Sep 10 2021, 11:15:22 Hail Spirit Noir - Mannequins (2021)
Интересно, что у них здесь получилось. Прошлый по музыке был просто шикарен...
(1) BleedingSun,
Sep 7 2021, 12:19:32 Prasolov - Letter You'll Never Read (2021)
Rassolov true_black.gif
(2) RUSP73, WOLAND,
Sep 6 2021, 11:18:31 Stone Cadaver - Memento Mori, Motherfucker (2021)


*Artist: Stone Cadaver
*Album: Memento Mori, Motherfucker
*Year: 2021
*Genre: Stoner/Doom Metal
*Country: Denmark
*Format: mp3@CBR320kbps
*Size: 81MB

Tracklist:
1. The Reckoning 01:26
2. Realm Of Darkness 05:45
3. Doom Christ 05:59
4. Whip The Sinners 03:36
5. Paean 01:13
6. Diseased Deceased 06:29
7. Fare Thee Well 01:07
8. Murder Mountain 09:11
******************************
Total playing time: 34:46



[more=Technical info]
Input File: 01 - The Reckoning.mp3
Channels : 2
Sample Rate : 44100
Precision : 16-bit
Duration : 00:01:26.11 = 3797319 samples = 6458.03 CDDA sectors
File Size : 3.78M
Bit Rate : 351k
Sample Encoding: MPEG audio (layer I, II or III)
Comments :
Title=The Reckoning
Artist=Stone Cadaver
Album=Memento Mori, Motherfucker
Tracknumber=1/8
Year=2021
Discnumber=1/1

[/more]

Register
(9) BERZERK, caro, HMHamster, Olethros, s810ic1, sludge666, VALERY, Wail, wreak,
Sep 4 2021, 15:00:33 Новости направления MDM
[youtube]0B7jzMCeZWI[/youtube]
(1) kostja,
Sep 4 2021, 14:59:46 Новости Death Metal направления
[youtube]ON10TxN4RBg[/youtube]
(5) Antichrist, Decapitated, obscenity, Occultas, THROWER666,
Sep 4 2021, 14:54:59 Новости Heavy/Power металла
[youtube]-XkLog5N6rI[/youtube]
(1) scrollbar,
Sep 2 2021, 17:27:03 Faeces Factory - Зачем Ты Ешь Это Дерьмо? [ep] (2015)
ЦИТАТА(babanguida @ Sep 2 2021, 20:21:15) *
facepalm factory


Useless crap, I`d say. Another strike of "grincore" kids 1488.gif
(1) babanguida,
Sep 2 2021, 17:09:14 Iron Maiden - Senjutsu (2021)
ЦИТАТА(xax @ Sep 2 2021, 20:03:40) *
Слушаю часто Эксайтер с Плэин энжелом.


dooo.gif К слову, те же Dream On c Эксайтера или к примеру A Pain That I`m Used To с Энжела не менее раскрученные и известные песни, чем их т.н. классика, в своё время гонялись на радиостанциях только так, да и сейчас их можно услышать частенько. bye.gif
(1) xax,
Sep 2 2021, 14:53:35 Carnifex - Graveside Confessions (2021)


*Artist: Carnifex
*Album: Graveside Confessions
*Year: 2021
*Genre: Blackened Deathcore
*Country: United States
*Format: mp3@CBR320kbps
*Size: 147MB

Tracklist:
1. Graveside Confessions 04:29
2. Pray For Peace 04:55
3. Seven Souls 04:44
4. Cursed 05:22
5. Carry Us Away 04:39
6. Talk To The Dead 04:07
7. January Nights 03:47
8. Cemetery Wander 03:52
9. Countess Of Perpetual Torment 04:39
10. Dead Bodies Everywhere (Korn cover) 04:31
11. Cold Dead Summer 04:01
12. Alive For The Last Time 02:59
13. Collaborating Like Killers (Graveside Edition) 03:54
14. My Heart In Atrophy (Graveside Edition) 03:05
15. Slit Wrist Savior (Graveside Edition) 04:22
******************************
Total playing time: 1:03:26



[more=Technical info]
Input File: 02. PRAY FOR PEACE.mp3
Channels : 2
Sample Rate : 44100
Precision : 16-bit
Duration : 00:04:54.76 = 12998872 samples = 22106.9 CDDA sectors
File Size : 11.8M
Bit Rate : 321k
Sample Encoding: MPEG audio (layer I, II or III)
Comments :
Title=PRAY FOR PEACE
Artist=Carnifex
Album=GRAVESIDE CONFESSIONS
Tracknumber=2/15
Year=2021
Genre=Deathcore
Discnumber=1/1

[/more]

Register
(23) 6666666, AlexSmith, alikkon, atavist, caro, chipsgott, Elfrey, kimkayoung, Korpse, Marek, Metalass, Olethros, plfan93, Reverend, sludge666, smes, supremo, Taakeferd, tschunioronbeer, VALERY, vyacheslav, Wail, wreak,
Sep 2 2021, 14:24:19 Lorna Shore - ...And I Return To Nothingness [ep] (2021)
ЦИТАТА(BleedingSun @ Sep 2 2021, 17:18:20) *
Тут да... Как будто он очень сильно хочет [мат->бан], но пытается это сделать не через [мат->бан]у, а через рот crazy.gif


Вот это одна из наиболее блевотных черт металкоров и дэткоров этих.
(1) BleedingSun,

487 Pages V   1 2 3 > » 
- Lo-Fi Version Support form
Copyrights and abuse reports form
Time is now: 24th September 2021 - 01:38:18