Welcome Guest ( Log In | Register )

История благодарностей участнику vosmidesijatye ::: Спасибо сказали: 49441 раз(а)
Дата поста: В теме: За сообщение: Спасибо сказали:
Today, 13:51:56 Enslaved
[youtube]VwfHfQX6WSw[/youtube]
(1) BleedingSun,
Yesterday, 17:17:21 Черноявь - Мегиддо (2023)
Черноплодь, Черноявь... 14.gif

Че там на очереди? Чернотрон, Чернохрен, Чернобздун...
(1) aleon,
Yesterday, 17:09:13 Nightwish - The Phantom Of The Opera (Live) [single] (2023)
ЦИТАТА(Faust_Vulkan_16 @ Jan 30 2023, 12:13:15) *
Тарья лучше Флор.


Эт 100% факт, даже не обсуждаеца)

Подавляющее большинство хитов и шедевров группы записано с Тарьей.

Может по каким то там технишеским качествам вокала Флор и лучше (что тоже спорно), но по душевности, артистишности и классу что Тарья, что та же не воспринимаемая многими ретроградами Аннет однозначно лучше!
(1) Krosis,
Yesterday, 15:46:57 Nightwish - The Phantom Of The Opera (Live) [single] (2023)
ЦИТАТА(CTPEMLEHIE @ Jan 30 2023, 07:56:17) *
Марко спел божественно!!!


Истинная правда! bye.gif

Вот это -

[youtube]tL25rbnvM4o[/youtube]

наилучшее исполнение этой песни - мощное, но в то же время нежное, яростное, но при этом чувственное. Идеальный баланс разных эмоций и двух вокальных партий! И люди это чувствуют всей душой, аж плачут при вступительных тактах! pray.gif
(3) CTPEMLEHIE, Faust_Vulkan_16, Kaphiel,
Jan 27 2023, 15:42:18 Ronnie Romero - Raised On Heavy Radio (2023)
Альбом каверов)

1. The Battle Rages On (Deep Purple)
2. Metal Daze (Manowar)
3. Turbo Lover (Judas Priest)
4. Hallowed Be Thy Name (Iron Maiden)
5. Fast as a Shark (Accept)
6. No More Tears (Ozzy)
7. The Shining (Black Sabbath)
8. A Light in the Black (Rainbow)
9. Kind Hearted Light (Masterplan)
10. You Don't Remember, I'll Never Forget (Malmsteen)
11. The Four Horsemen (Metallica)

Люблю послушать кавер версии любимых песен. Особенно приятно, когда берут незаежженные композиции. С сабжа к ним относятся The Battle Rages On (Deep Purple) и The Shining (Black Sabbath). Раскрученные, но от этого не менее приятные композиции - Turbo Lover (Judas Priest), No More Tears (Ozzy), A Light in the Black (Rainbow), You Don't Remember, I'll Never Forget (Malmsteen). Их и заценил.

И хоть вокал Ромеро менее сильный и выразительный, чем у оригинальных исполнителей, приятно было переслушать композиции в ином прочтении smile1.gif
(2) AHBAnep, Olrak,
Jan 27 2023, 13:31:11 Overkill
Overkill - Scorched - 14 // 04 // 23



1. Scorched
2. Goin’ Home
3. The Surgeon
4. Twist of the Wick
5. Wicked Place
6. Won’t be Comin’ Back
7. Fever
8. Harder They Fall
9. Know Her Name
10. Bag o' Bones
(1) Emm Human,
Jan 27 2023, 13:31:00 Новости Thrash Metal направления
Overkill - Scorched - 14 // 04 // 23



1. Scorched
2. Goin’ Home
3. The Surgeon
4. Twist of the Wick
5. Wicked Place
6. Won’t be Comin’ Back
7. Fever
8. Harder They Fall
9. Know Her Name
10. Bag o' Bones
(4) Emm Human, kostja, Winner, Winterdark,
Jan 26 2023, 23:32:42 Ronnie Romero - Raised On Heavy Radio (2023)


*Artist: Ronnie Romero
*Album: Raised On Heavy Radio
*Year: 2023
*Genre: Heavy Metal/Hard Rock
*Country: Chile
*Format: mp3@CBR320kbps
*Size: 147MB

Tracklist:
1. The Battle Rages On 06:02
2. Metal Daze 04:22
3. Turbo Lover 05:31
4. Hallowed Be Thy Name 07:15
5. Fast as a Shark 03:30
6. No More Tears 07:27
7. The Shining 06:23
8. A Light in the Black 08:14
9. Kind Hearted Light 04:26
10. You Don't Remember, I'll Never Forget 04:31
11. The Four Horsemen 07:08
******************************
Total playing time: 1:04:49



[more=Technical info]
Input File: 03 Turbo Lover.mp3
Channels : 2
Sample Rate : 44100
Precision : 16-bit
Duration : 00:05:30.78 = 14587530 samples = 24808.7 CDDA sectors
File Size : 13.3M
Bit Rate : 322k
Sample Encoding: MPEG audio (layer I, II or III)
Comments :
Title=Turbo Lover
Artist=Ronnie Romero
Album=Raised On Heavy Radio
Tracknumber=3/11
Year=2023
Genre=Metal
Discnumber=1/1

[/more]

Register
(12) ace73pq, artscald, aviacademy, Brann, cesar, gwar, Marek, metala, Morda_Morda, Olrak, VALERY, vir2al,
Jan 26 2023, 22:52:23 Jackal - Awake (1973)


*Artist: Jackal
*Album: Awake
*Year: 1973
*Genre: Progressive/Psychedelic Rock
*Country: Canada
*Format: mp3@CBR320kbps
*Size: 92MB

Tracklist:
1. At The Station 05:46
2. For You 03:09
3. Sunny Side of the Day 02:48
4. A New Day Has Arisen 08:23
5. How The Time Has Flown 05:57
6. Lost In The World 02:27
7. In The Heavens 04:07
8. Awake 07:58
******************************
Total playing time: 40:35



[more=Technical info]
Input File: 04. A New Day Has Arisen.mp3
Channels : 2
Sample Rate : 44100
Precision : 16-bit
Duration : 00:08:22.45 = 22157913 samples = 37683.5 CDDA sectors
File Size : 20.5M
Bit Rate : 327k
Sample Encoding: MPEG audio (layer I, II or III)
Comments :
Title=A New Day Has Arisen
Artist=Jackal
Album=Awake
Tracknumber=04
Year=1973
Genre=Progressive Rock

[/more]

Register
(2) cesar, oldvarg,
Jan 26 2023, 22:39:06 Uriah Heep - Chaos & Colour (2023)


*Artist: Uriah Heep
*Album: Chaos & Colour
*Year: 2023
*Genre: Classic/Hard Rock
*Country: United Kingdom
*Format: mp3@CBR320kbps
*Size: 137MB

Tracklist:
1. Save Me Tonight 03:30
2. Silver Sunlight 04:31
3. Hail the Sunrise 04:23
4. Age of Changes 05:49
5. Hurricane 04:49
6. One Nation, One Sun 07:35
7. Golden Light 05:08
8. You'll Never Be Alone 07:57
9. Fly Like an Eagle 03:48
10. Freedom to Be Free 08:11
11. Closer to Your Dreams 03:37
******************************
Total playing time: 59:18



[more=Technical info]
Input File: 08 . You\'ll Never Be Alone.mp3
Channels : 2
Sample Rate : 44100
Precision : 16-bit
Duration : 00:07:57.60 = 21062160 samples = 35820 CDDA sectors
File Size : 19.2M
Bit Rate : 322k
Sample Encoding: MPEG audio (layer I, II or III)
Comments :
Title=You'll Never Be Alone
Artist=Uriah Heep
Album=Chaos & Colour
Tracknumber=8
Year=2023
Genre=Hard Rock
Discnumber=1

[/more]

Register
(13) AndreFrancis, Aresson, asog, Bzth, canadaspaceman, cesar, Emhyr var Emreis, Femto, markblasi, oldvarg, recber, VALERY, Wail,
Jan 26 2023, 22:32:20 Steve Vai - Vai/Gash (2023)


*Artist: Steve Vai
*Album: Vai/Gash
*Year: 2023
*Genre: Instrumental Hard Rock/Guitar Virtuoso
*Country: United States
*Format: mp3@CBR320kbps
*Size: 74MB

Tracklist:
1. In The Wind 03:49
2. Busted 03:05
3. Let's Jam 04:19
4. Woman Fever 02:27
5. She Saved My Life Tonight 03:39
6. Danger Zone 03:53
7. New Generation 03:33
8. Flowers Of Fire 04:44
******************************
Total playing time: 29:29



[more=Technical info]
Input File: 01. In The Wind.mp3
Channels : 2
Sample Rate : 48000
Precision : 16-bit
Duration : 00:03:49.68 = 11024640 samples ~ 17226 CDDA sectors
File Size : 10.2M
Bit Rate : 354k
Sample Encoding: MPEG audio (layer I, II or III)
Comments :
Title=In The Wind
Artist=Steve Vai
Album=Vai/Gash
Tracknumber=1/8
Year=2023
Genre=Rock

[/more]

Register
(5) canadaspaceman, Cartman223, cesar, METALHUNTER, Terrorizer,
Jan 26 2023, 22:01:02 ...And Oceans - As In Gardens, So In Tombs (2023)
Все такие серьёзные, я прям не могу 15.gif
(1) BleedingSun,
Jan 26 2023, 20:51:27 Новости Black-направления
ЦИТАТА
Видео недоступно. Его нельзя смотреть из-за нарушения авторских прав от пользователя Goatmoon


15.gif 21 век, эпоха стримингов и превью как нечто само-собой разумеещееся, а этот чел до сих пор живет в пещерных допотопных временах, утютю, кто-то послушает альбом, не надо 1488.gif
(1) Occultas,
Jan 26 2023, 15:07:01 ...And Oceans - As In Gardens, So In Tombs (2023)
ЦИТАТА(Morthirim @ Jan 26 2023, 16:59:13) *
...and Oceans - As in Gardens, So in Tombs (Deluxe Editon) (2023) [FLAC 24-48]

https://turbobit.net/x4cjacng57e7.html?short_domain=turbo.to


Шротчанский обмен, с него хрен чо скачиваеца)
(1) Occultas,
Jan 25 2023, 20:26:44 Капкан - Ловчая Яма (2022)
ЦИТАТА(Fryz @ Jan 25 2023, 22:18:40) *
Всратый обменник в единственном числе прям очень не в кассу.


Бэндкамп шарный, хватай любой формат)
(1) Fryz,
Jan 25 2023, 17:44:00 Щугор - II [demo] (2023)
ЦИТАТА(6666666 @ Jan 25 2023, 19:33:28) *
свиньёй


О, а вот и новое название для очередной роупанкбм группёшки подкатило.

Звучно, с прононсом - Свинья 1488.gif

Альбом можно назвать допустим Жёлудь.

И - успех обеспечен 25.gif
(3) BleedingSun, ent404, Qliphoth,
Jan 25 2023, 17:23:47 Щугор - II [demo] (2023)
ЦИТАТА(BleedingSun @ Jan 25 2023, 19:22:25) *
sethurius,
Хах, норм ты завернул.
Не, дело не в том, что не получится - уж как за 25 лет перевалило - стало тупо лень подобным заниматься, даже ради "лулза")
Раньше тоже подобным страдал, причем намеренно. Щас уже все... Старею...


Да не, простыней ты не наворчивал, зато предельно эмоциональные и где то даже чрезмерно восторженные отзывы от тя всегда приятно почитать) bye.gif
(1) BleedingSun,
Jan 25 2023, 17:04:36 Капкан - Ловчая Яма (2022)
По дороге встретив Лешего, не забыв напоследок опорожниться не очень Туга 1488.gif 25.gif
(1) Qliphoth,
Jan 25 2023, 15:21:35 Щугор - II [demo] (2023)
Душнее Макса юзеров нет.

ЦИТАТА(BleedingSun @ Jan 25 2023, 14:27:47) *
Дебильные названия


От Туги ржал в свое время знатно. Сразу ассоциация с запором, идёт туго 1488.gif
(1) Qliphoth,
Jan 25 2023, 15:00:20 Щугор - II [demo] (2023)
ЦИТАТА(Daale @ Jan 25 2023, 14:19:27) *
BleedingSun, Так, теперь объясни, как связаны проекты Черноплодь, Туга и резиденты лейбла Horrible Room стилистически?


Тем что они вдруг бомбанули ни с того ни с сего при всей ординарности. Ладно хрен с ними с тугами, плодями у них и есть МЕСТАМИ хотя бы атмосферность но вся эта "роублэкопунк КомнатуЩка" тусовка просто эксплуатирует наследие ИльдЪярна и ничего более. В чем причина тотального фапа среди небольшой прослойки блэкеркоф непонятна.

Ща вдруг допустим резко наши блэкерки решат косплеить того же американского Левиафана и условный лейбл Темная КолотуЩка соберет 100500 энтузиастов которые возмонят ся мегатрууберовонгардными и будет клепать каждый месяц что-то в духе Тентаклс оф хоррор и саблевелс оф суисайд. И ведь вехой станут 100%, кассеты будут толкать по 1000-2000 рублей. Неужели настолько народу МАЛО бм, что он вторичку и третичку готов жрать? Комнатушка показала что да.

Помню был такой Стербенд немецкий 2006 года - полная копия Бурзум - и был вполне себе хайп вокруг сабжа и ему подобного. А ведь ничего нового то и не создал. И где здесь автор ? Это копикат. И Комнатушка делает то же самое только в формате целого лейбла клепая копии ильдярна месяц за месяцем.

КомнатуЩка - это имхо признак слабости нашей сцены, неспобности сочинять оригинальный, самобытный бм. Проще понятно рипоффать Ильдярна и щитать что дескать мы возрождаем пункбм))) Свое придумайте, самобытное.
(1) Qliphoth,
Jan 25 2023, 13:56:31 Гнёт - Передай Нерождённым Мои Крики [ep] (2023)
ЦИТАТА(Daale @ Jan 25 2023, 13:02:19) *
[НКРЯ]


Вспомнил незабвенное РРРРРРЯЯЯЯЯЯ 1488.gif
(1) Qliphoth,
Jan 25 2023, 11:16:48 Щугор - II [demo] (2023)
ЦИТАТА(BleedingSun @ Jan 25 2023, 13:04:55) *
насколько здесь все на "предельно серьезных щщах" преподносится 1488.gif


Так это ваще особенность черныша как жанра но вот в последнее время в нашем блэкце особенно, со стремительным взлетом в частности всех этих Тугофф, Черноплодей и всяких прочих резидентофф той же СтраЩной КомнатуЩки это приобрело еще больший, доселе невиданный обйоум)

Названия одно другого хтонишней, а по факту - весь этот блэкопунк под разными вывесками всего лишь дёр ИлдЪярна, а шуму-шуму то. 1488.gif

Очень в тему цытатка автора одного из пабиков вканташе


ЦИТАТА
Другой момент, который заставляет меня в недоумении разводить руками - это всеобщая трясучка восхищения перед сырым, лоу-файным блэком. Похоже, группе достаточно поставить тэг «raw» и андеграунд захлебнётся в собственной слюне обожания, поднимет на руки и в истошной, фанатичной истерике потащит проект к званию культа к радости Фенриза, топящего за подобный саунд. 1488.gif Достаточно было выйти альбому Огильт, как он взлетает на первые позиции рейтингов. Волк, Кабан, Капкан, Крюкокрест, Яма, Коса… . crazy.gif У направления уже сформировалась хардкорная фан-база, которая поддерживает исполнителей и сметает мерч - такого же низкого качества как и звук (да-да, уже, например, родился локальный мем: «Кабан распродан»). Больше хтони! pray.gif
(1) BleedingSun,
Jan 25 2023, 08:30:20 Гнёт - Передай Нерождённым Мои Крики [ep] (2023)
ЦИТАТА(Qliphoth @ Jan 25 2023, 01:21:03) *
Да что, бл### за названия такие?


Да это еще ниче.

Вне конкуренции были и остаюца - Яблоня и Икотка 1488.gif 25.gif

После этого всякие Волки, Кабаны и Туги даже и не особо так напряхают)
(1) Qliphoth,
Jan 24 2023, 19:42:46 Anthrax
Работают над новым студийником.
(1) Emm Human,
Jan 23 2023, 18:42:23 Khlad - Khlad (2022)


*Artist: Khlad
*Album: Khlad
*Year: 2022
*Genre: Black Metal
*Country: Russian Federation
*Format: mp3@CBR320kbps
*Size: 53MB

Tracklist:
1. Ablaze 05:39
2. Rapture Of Misguided 04:34
3. Perpetual Cycle 05:32
4. Stillness 06:25
******************************
Total playing time: 22:10



[more=Technical info]
Input File: Khlad - Khlad - 01 Ablaze.mp3
Channels : 2
Sample Rate : 44100
Precision : 16-bit
Duration : 00:05:39.64 = 14977948 samples = 25472.7 CDDA sectors
File Size : 13.7M
Bit Rate : 322k
Sample Encoding: MPEG audio (layer I, II or III)
Comments :
Title=Ablaze
Artist=Khlad
Album=Khlad
Tracknumber=1
Year=2022

[/more]

Register
(12) alikkon, Altkiller, artscald, dermarsoran, Grev, kim666, metaljosue, murian, SilentNidhogg, supremo, VALERY, wreak,

528 Pages V   1 2 3 > » 
- Lo-Fi Version Support form
Copyrights and abuse reports form
Time is now: 31st January 2023 - 18:22:46