Welcome Guest ( Log In | Register )

История благодарностей участнику vosmidesijatye ::: Спасибо сказали: 28157 раз(а)
Дата поста: В теме: За сообщение: Спасибо сказали:
Today, 15:25:36 Ария - Генератор Зла (1998)
Ловите, мои хорошие, хотя этот альбом и не лучший

@320

Register
(1) Rodin,
Today, 15:12:11 Rotting Christ
Еще одна новая песня с грядущего релиза:

The Raven

@320


Register
(2) kostja, thenecromancer,
Today, 13:26:30 Hecate Enthroned - Temples That Breathe [single] (2018)
Ищо один новый трэкан

Revelations in Autumn Flame

@320

Register
(1) thenecromancer,
Today, 13:02:00 Ewigheim - Irrlichter (2019)
@320

Register
(2) Buregon, postal67,
Today, 12:51:41 Malevolent Creation - The 13Th Beast (2019)
Обложка на отлично.

Вроде бы тематика заежжена, но смотрится свежо и круто, этакая вариация Хищника.
(1) older68,
Today, 12:14:42 Flotsam And Jetsam - The End Of Chaos (2019)
@320

Register
(3) metala, muskatnuss, recber,
Today, 11:54:04 Malevolent Creation - The 13Th Beast (2019)
@320

Register
(2) metala, muskatnuss,
Today, 11:46:49 Arch Enemy - Covered In Blood [compilation] (2019)
VBR 290

Register


@320

Register


FLAC

Register
(4) AHBAnep, akym, metalboll, Ostinato,
Today, 10:12:23 Hermóðr - Forest Sky (2019)
@320

Register
(3) Sjelekval, Vidder242, WolfFenrir,
Yesterday, 21:32:54 Daughters - You Won't Get What You Want (2018)
Register
(1) Tino,
Yesterday, 20:30:22 Infernal Darkness - Into Infernal Darkness... (2018)
Утрорбное сипение под нойзовую драммашинную подложку.

Попытались нагнать первобытной жути.
(1) Krosis,
Yesterday, 20:17:33 Grave Upheaval - Rehearsal [demo] (2018)
Register
(4) HelenVaughan, michelver, Ostinato, Vidder242,
Yesterday, 19:16:16 Slipknot - Iowa (2001)
Вот какой альбом должен быть номинироваться в сувалке 2001 года а не Sрамштойн banana.gif
(1) Anger,
Yesterday, 18:43:49 Wintaar - Forgotten Hymns Of The Urals [compilation] (2017)
@320

Register
(1) vasiljev_sergej,
Yesterday, 18:42:31 Zurdeimvar Gragz & Wintaar - The Breath Of Eternity​/The Revenant [split] (2017)
@320

Register
(1) vasiljev_sergej,
Yesterday, 15:09:14 Slipknot - All Out Life [single] (2018)
Где жесть и ухар, черти? dwarf-1.gif

[youtube]YZaLEKO2V3o[/youtube]
(1) Anger,
Yesterday, 13:57:05 Watain - Trident Wolf Eclipse (2018)
ЦИТАТА(Deze @ Jan 16 2019, 16:53:01) *
Of course, not. If 2003-2007-2010 (especially last one) are "just one of" You, probably, didn't hear these albums at all.


He meant BANDS in general, not Watain`s albums 1488.gif
(1) wolverine,
Yesterday, 12:41:27 Wintaar - Forgotten Hymns Of The Urals [compilation] (2017)


*Artist: Wintaar
*Album: Forgotten Hymns Of The Urals [compilation]
*Year: 2017
*Genre: Atmospheric Black Metal
*Country: Russian Federation
*Format: mp3@CBR320kbps
*Size: 165MB

Tracklist:
1. Across The Desolation 11:41
2. The Last Light Of The Moon 09:28
3. Morrigan 15:10
4. Forgotten Hymn Of The Urals 08:56
5. Night Wintersky 07:48
6. Winter Worship 16:10
******************************
Total playing time: 1:09:13



[more=Technical info]
Input File: Wintaar - Forgotten Hymns Of The Urals - 01 Across The Desolation.mp3
Channels : 2
Sample Rate : 44100
Precision : 16-bit
Duration : 00:11:41.45 = 30934033 samples = 52608.9 CDDA sectors
File Size : 28.2M
Bit Rate : 322k
Sample Encoding: MPEG audio (layer I, II or III)
Comments :
Title=Across The Desolation
Artist=Wintaar
Album=Forgotten Hymns Of The Urals
Tracknumber=1

[/more]

Register
(5) 1968_janeart, kim666, Ostinato, Razorbladeswaltz, zotyo1975,
Yesterday, 12:09:39 Wintaar - The Burialmoon Mist (2018)


*Artist: Wintaar
*Album: The Burialmoon Mist
*Year: 2018
*Genre: Atmospheric Black Metal
*Country: Russian Federation
*Format: mp3@CBR320kbps
*Size: 90MB

Tracklist:
1. Эхо 03:18
2. Moonlust 03:13
3. Shadows 03:11
4. Witchery In The Burial Woods 04:19
5. Fullmoon Misery 06:43
6. Туман 04:18
7. Заклание 03:38
8. ... In The White Shine Of The Night 04:18
9. From South To North 06:01
******************************
Total playing time: 38:59



[more=Technical info]
Input File: 01 Эхо.mp3
Channels : 2
Sample Rate : 44100
Precision : 16-bit
Duration : 00:03:18.43 = 8750851 samples = 14882.4 CDDA sectors
File Size : 7.94M
Bit Rate : 320k
Sample Encoding: MPEG audio (layer I, II or III)
Comments :
Title=Ýõî
Artist=Wintaar
Album=The Burialmoon Mist
Tracknumber=1
Year=2018
Genre=Black Metal

[/more]

Register
(9) 1968_janeart, Andr, fallen, kim666, Olethros, Ostinato, toly1917, vasiljev_sergej, zotyo1975,
Yesterday, 11:56:17 Zurdeimvar Gragz & Wintaar - The Breath Of Eternity​/The Revenant [split] (2017)


*Artist: Zurdeimvar Gragz & Wintaar
*Album: The Breath Of Eternity​/The Revenant [split]
*Year: 2017
*Genre: Black Metal | Atmospheric Black Metal
*Country: Russian Federation | Russian Federation
*Format: mp3@CBR320kbps
*Size: 36MB

Tracklist:
Zurdeimvar Gragz:
1. The Breath Of Eternity 08:40
Wintaar:
2. The Revenant 07:08
******************************
Total playing time: 15:48



[more=Technical info]
Input File: 01 The Breath Of Eternity.mp3
Channels : 2
Sample Rate : 44100
Precision : 16-bit
Duration : 00:08:40.27 = 22943731 samples = 39020 CDDA sectors
File Size : 20.8M
Bit Rate : 320k
Sample Encoding: MPEG audio (layer I, II or III)
Comments :
Title=The Breath Of Eternity
Artist=Zurdeimvar Gragz
Album=The Breath Of EternityThe Revenant
Tracknumber=1
Year=2017
Genre=Atmospheric Black Metal

[/more]

Register
(7) 1968_janeart, Andr, kim666, Razorbladeswaltz, satanist666, zotyo1975, Герб,
Jan 15 2019, 22:25:03 Humanity Delete - Werewolves In The Iron Sky (2018)
Это Олег сам все придумал 5.gif

Аж даже лейбл за ним не поспевает smile1.gif
(1) defamer666,
Jan 15 2019, 21:49:17 Humanity Delete - Werewolves In The Iron Sky (2018)
Олеж, на бэндкампе нет ничего о составе. mad_ani.gif
(1) defamer666,
Jan 15 2019, 19:52:34 Aristeia - Aristeia (2019)
Да, дэткор и атмосферик - это такое же невозможное сочетание как орангутанг и апельсин.

(1) krotovich,
Jan 15 2019, 14:24:05 Humanity Delete - Werewolves In The Iron Sky (2018)
ЦИТАТА(aesteticvice @ Jan 15 2019, 17:17:16) *
Rogga Johansson - Guitar, Vocals, Bass
Bruniar - Drums
Kietil - Lead Guitar


Олег, ты уже за 10+ лет беспрерывного сидения на портале должен был бы попривыкнуть шо доп.инфо здесь читают единицы (если вообще читают) 25.gif Так шо...

ЦИТАТА(swed @ Jan 15 2019, 17:22:22) *
Посмотрим... Судя по продуктивности в прошедшем (2018) году, запросто...


Ну это его обычная норма выработки. bye.gif
(1) aesteticvice,
Jan 15 2019, 14:13:38 Humanity Delete - Werewolves In The Iron Sky (2018)
ЦИТАТА(isvili @ Jan 15 2019, 17:06:07) *
Rogga welcome to the new year 2019!!! 19.gif


Expect no more no less than dozen of different releases 25.gif
(1) swed,

336 Pages V   1 2 3 > » 
- Lo-Fi Version Support form
Copyrights and abuse reports form
Time is now: 17th January 2019 - 16:33:37