Welcome Guest ( Log In | Register )

История благодарностей участнику vosmidesijatye ::: Спасибо сказали: 35788 раз(а)
Дата поста: В теме: За сообщение: Спасибо сказали:
Yesterday, 20:04:02 Nedxxx - Nedxxx (2019)
@320

Register


Register
(2) NOMIDIMON, Trelledorn,
Yesterday, 19:56:19 Unreal - Демиурги Сновидений (2012)
@320

Register


Register
(1) Fess,
Yesterday, 19:05:10 Iguana - Translational Symmetry (2019)


*Artist: Iguana
*Album: Translational Symmetry
*Year: 2019
*Genre: Psychedelic Rock
*Country: Germany
*Format: mp3@CBR320kbps
*Size: 116MB

Tracklist:
1. Time Translation Symmetry 04:32
2. Below The Hinderlands 04:29
3. Leaving Crete 03:44
4.nThe Fish Code 03:15
5. Vessel Meerkatze 04:38
6. Rites Of Passages 08:42
7. Hear The Kid Out 03:37
8. Repeating Odd Dream 05:01
9. Spinning Top 06:05
******************************
Total playing time: 44:03



[more=Technical info]
Input File: 01 Time Translation Symmetry.mp3
Channels : 2
Sample Rate : 44100
Precision : 16-bit
Duration : 00:04:32.13 = 12001021 samples = 20409.9 CDDA sectors
File Size : 12.7M
Bit Rate : 373k
Sample Encoding: MPEG audio (layer I, II or III)
Comments :
Title=Time Translation Symmetry
Artist=Iguana
Album=Translational Symmetry
Tracknumber=01
Year=2019
Genre=Psychedelic Rock

[/more]

Register
(1) paganheart,
Dec 3 2019, 14:55:14 Avatarium - Hurricanes And Halos (2017)
Рус, держи прямую конташу

@320

Register
(1) hammer,
Dec 3 2019, 08:54:55 Ayahuasca - Naad (2019)


*Artist: Ayahuasca
*Album: Naad
*Year: 2019
*Genre: Psychedelic/Stoner Rock/Heavy Psych
*Country: Italy
*Format: mp3@CBR320kbps
*Size: 83MB

Tracklist:
1. Intro 02:40
2. Vicious Mothers 05:00
3. Masses 04:56
4. Before Death 02:05
5. I Wanna Fall 04:14
6. Inner Space 05:10
7. Before Life 00:59
8. The Black One 03:27
9. Underwater 01:52
10. The Seer & The Queen 06:01
******************************
Total playing time: 36:24



[more=Technical info]
Input File: 02 Vicious Mothers.mp3
Channels : 2
Sample Rate : 44100
Precision : 16-bit
Duration : 00:05:00.81 = 13265633 samples = 22560.6 CDDA sectors
File Size : 12.0M
Bit Rate : 320k
Sample Encoding: MPEG audio (layer I, II or III)
Comments :
Title=Vicious Mothers
Artist=AyahuascA
Album=Naad
Tracknumber=02/10
Year=2019
Genre=Psychedelic/Stoner Rock

[/more]

Register
(4) marilin, metaljosue, Olethros, stub888,
Dec 3 2019, 08:50:54 Snakes Don't Belong In Alaska & Suzuki Junzo - The Ascended Master Teachings Of Junzo Suzuki & Snakes Don't Belong In Alaska (2019)


*Artist: Snakes Don't Belong In Alaska & Suzuki Junzo
*Album: The Ascended Master Teachings Of Junzo Suzuki & Snakes Don't Belong In Alaska
*Year: 2019
*Genre: Psychedelic/Space Rock/Krautrock
*Country: United Kingdom
*Format: mp3@CBR320kbps
*Size: 169MB

Tracklist:
1. Outer Heaven's Gate Pt. I: Higher Source 22:54
2. Outer Heaven's Gate Pt. II: Away Team 18:40
3. The Order Of The Ash Ra Solar Tempel 18:29
4. SurRaëlism 13:44
******************************
Total playing time: 1:13:47



[more=Technical info]
Input File: 01-Outer Heavens Gate Pt I - Higher Source.mp3
Channels : 2
Sample Rate : 44100
Precision : 16-bit
Duration : 00:22:54.85 = 60630797 samples = 103114 CDDA sectors
File Size : 55.2M
Bit Rate : 321k
Sample Encoding: MPEG audio (layer I, II or III)
Comments :
Title=Outer Heavens Gate Pt I: Higher Source
Artist=Junzo Suzuki And Snakes Dont Belong In Alaska
Album=The Ascended Master Teachings Of
Tracknumber=1
Year=2019
Genre=psychedelic rock

[/more]

Register
(6) Angry_Chair, Diflock, gena, marilin, Olethros, stub888,
Dec 2 2019, 18:15:18 Esoteric - A Pyrrhic Existence (2019)
ЦИТАТА(Faust_Vulkan_16 @ Dec 2 2019, 20:04:15) *
например СССР в 1945, учитывая как сейчас живет Россия и Германия. bye.gif


Мы даже зимбабве проиграли по всем основным показателям.

Альбом лучше прошлого, более выверенный.
(1) Faust_Vulkan_16,
Dec 2 2019, 15:54:10 Bestial Invasion - Monomania (2019)
ЦИТАТА(avkruchinin @ Dec 2 2019, 17:53:17) *
Ну не знаю даже, как по мне, так всё в рамках приличия)


Так ты даже когда выпьешь, становишься еще более культурным, не забывай 1488.gif
(1) avkruchinin,
Dec 2 2019, 11:55:27 Slayer - South Of Heaven (1988)
ЦИТАТА(Tarelka @ Dec 2 2019, 13:50:08) *
А вы эстет батенька.) Тады вам срочняком прослушать все творения Poppy pray.gif


Ты уже свою Poppu не знаешь, куда воткнуть)

(1) plfan93,
Dec 2 2019, 11:45:41 Slayer - The Repentless Killogy - Live At The Forum In Inglewood, Ca [live] (2019)
ЦИТАТА(avkruchinin @ Dec 2 2019, 13:44:10) *
Так это как бы и есть The End от группы перед её обозначенным распадом или они что-то ещё готовят на ход ноги ???


Пока - ниче, вроде как оф. объявлено последним релизом.

Но это пока скушно не станет дома сидеть )
(1) avkruchinin,
Dec 2 2019, 08:43:42 Kamchatka - Hoodoo Lightning (2019)


*Artist: Kamchatka
*Album: Hoodoo Lightning
*Year: 2019
*Genre: Blues/Stoner Rock
*Country: Sweden
*Format: mp3@CBR320kbps
*Size: 92MB

Tracklist:
1. Blues Science, Pt. 1 Thunder Rise 02:06
2. Blues Science, Pt. 2 Hoodoo Lightning 03:20
3. Fool 03:40
4. Rainbow Ridge 03:35
5. Supersonic Universe 04:03
6. Monster 04:04
7. Let It Roll 05:25
8. Stay In The Wind 04:30
9. El Hombre Dorado 04:29
10. A Drifter's Tale 05:05
******************************
Total playing time: 40:17



[more=Technical info]
Input File: 01 Blues Science Pt. 1 Thunder Rise.mp3
Channels : 2
Sample Rate : 44100
Precision : 16-bit
Duration : 00:02:06.10 = 5561010 samples = 9457.5 CDDA sectors
File Size : 5.05M
Bit Rate : 320k
Sample Encoding: MPEG audio (layer I, II or III)
Comments :
Title=Blues Science, Pt. 1 Thunder Rise
Artist=Kamchatka
Album=Hoodoo Lightning
Tracknumber=01/10
Year=2019-19-20
Discnumber=1/1

[/more]

Register
(6) avkruchinin, Diflock, hammer, marilin, Olethros, stub888,
Dec 1 2019, 09:38:14 Shepherds Crook - Dauseiler (2019)
А вот за это - огромнейшее спасибо pray.gif сильнейшая группа с идеальной дискографией.

Дружище, буду дико признателен за флак metaler.gif 9.gif true_black.gif
(1) SaintVitus,
Nov 30 2019, 18:47:52 Nick Cave & The Bad Seeds - Ghosteen (2019)
ЦИТАТА(Bruce @ Nov 30 2019, 20:45:37) *
да альбом на ура зашел, не смотря на его избыточную лиричность, благодаря электронике звучит куда свежей и интересней чем Boatmens call или No more shall we part


23.gif no more shall we part одна из его топовых работ!
(2) Ghostb, paganheart,
Nov 30 2019, 08:29:19 Nick Cave & The Bad Seeds - Ghosteen (2019)
Кейв это pray.gif
(1) Ghostb,
Nov 29 2019, 08:59:37 Talsur - Eversleep (2019)
@320

Register


Register
(1) Razorbladeswaltz,
Nov 29 2019, 08:33:02 Circle Of Sighs - Desolate [ep] (2019)


*Artist: Circle Of Sighs
*Album: Desolate [ep]
*Year: 2019
*Genre: Doom Metal/Synthwave
*Country: United States
*Format: mp3@CBR320kbps
*Size: 65MB

Tracklist:
1. Burden of the Flesh 05:37
2. Hold Me, Lucifer 06:08
3. Kukeri 09:08
4. Desolate 06:17
******************************
Total playing time: 27:10



[more=Technical info]
Input File: Circle of Sighs - Desolate (EP) - 01 Burden of the Flesh.mp3
Channels : 2
Sample Rate : 44100
Precision : 16-bit
Duration : 00:05:37.36 = 14877708 samples = 25302.2 CDDA sectors
File Size : 13.6M
Bit Rate : 323k
Sample Encoding: MPEG audio (layer I, II or III)
Comments :
Title=Burden of the Flesh
Artist=Circle of Sighs
Album=Desolate (EP)
Tracknumber=1
Year=2019

[/more]

Register
(8) chipsgott, gwar, krotovich, marilin, metala, Olethros, Rosen, VALERY,
Nov 28 2019, 22:37:54 Revel In Flesh - The Hour Of The Avenger (2019)
@320

Register
(1) defamer666,
Nov 28 2019, 20:33:05 Fleshcrawl - Into The Catacombs Of Flesh (2019)
Ветераны)
(1) defamer666,
Nov 28 2019, 18:25:31 Avslut - Tyranni (2019)
@320

Register


Register
(3) alikkon, Ostinato, smes,
Nov 28 2019, 18:20:46 Revel In Flesh - The Hour Of The Avenger (2019)
@320

Register


Register
(2) DowntownGsus, Ostinato,
Nov 28 2019, 14:29:02 Cattle Decapitation - Death Atlas (2019)
ЦИТАТА(babanguida @ Nov 28 2019, 16:27:40) *
Kids will love it.


And those who try to catch a hype wave.
(1) babanguida,
Nov 28 2019, 08:33:18 Cattle Decapitation - Death Atlas (2019)
ЦИТАТА(popen13 @ Nov 28 2019, 09:47:33) *
15. In the Kingdom of the Blind, The One-Eyed Are Kings (Dead Can Dance cover)
Господа, когда появится бонус, поделитесь пожалуйста!!! 9.gif


Проникновенная и нежная композиция.

Не дай Бог они изгадят ее своим металическим грохотом и лязгом. 22.gif
(1) Ghostb,
Nov 28 2019, 08:27:07 Weed Wizard - Troll [single] (2019)


*Artist: Weed Wizard
*Album: Troll [single]
*Year: 2019
*Genre: Sludge/Stoner Doom Metal
*Country: Russian Federation
*Format: mp3@CBR320kbps
*Size: 18MB

Tracklist:
1. Troll 07:56
******************************
Total playing time: 7:56



[more=Technical info]
Input File: Weed Wizard - Troll - 01 Troll.mp3
Channels : 2
Sample Rate : 44100
Precision : 16-bit
Duration : 00:07:56.08 = 20995172 samples = 35706.1 CDDA sectors
File Size : 19.1M
Bit Rate : 321k
Sample Encoding: MPEG audio (layer I, II or III)
Comments :
Title=Troll
Artist=Weed Wizard
Album=Troll
Tracknumber=1
Year=2019

[/more]

Register
(3) marilin, Olethros, Rosen,
Nov 28 2019, 08:22:44 Hazemaze - Hymns Of The Damned (2019)


*Artist: Hazemaze
*Album: Hymns Of The Damned
*Year: 2019
*Genre: Psychedelic/Stoner Doom Metal
*Country: Sweden
*Format: mp3@CBR320kbps
*Size: 105MB

Tracklist:
1. Shadow In The Night 06:36
2. Morbid Lust 05:19
3. Thrill Seeker 05:24
4. Lobotomy 05:56
5. Solicitor Of Evil 06:56
6. Green River 03:33
7. Reverend Death 03:47
8. Forever Trapped In Hell 04:11
******************************
Total playing time: 41:42



[more=Technical info]
Input File: 01. Shadow In The Night.mp3
Channels : 2
Sample Rate : 44100
Precision : 16-bit
Duration : 00:06:36.25 = 17474625 samples = 29718.8 CDDA sectors
File Size : 17.0M
Bit Rate : 343k
Sample Encoding: MPEG audio (layer I, II or III)
Comments :
Title=Shadow In The Night
Artist=Hazemaze
Album=Hymns Of The Damned
Tracknumber=1/8
Year=2019
Genre=Rock
Discnumber=1/1

[/more]

Register
(8) avkruchinin, Leshiy666, marilin, Olethros, robertho777, Rosen, squall8fr, stub888,
Nov 27 2019, 15:19:33 Mobula - Mobula (2019)


*Artist: Mobula
*Album: Mobula
*Year: 2019
*Genre: Instrumental/Psychedelic/Stoner Doom Metal
*Country: United States
*Format: mp3@CBR320kbps
*Size: 59MB

Tracklist:
1. Emerging Seas 05:26
2. Sirens and Widows 04:41
3. Off With His Head 07:53
4. Abomination 03:17
5. Let the Dream Die 04:37
******************************
Total playing time: 25:54



[more=Technical info]
Input File: Mobula - Mobula - 01 Emerging Seas.mp3
Channels : 2
Sample Rate : 44100
Precision : 16-bit
Duration : 00:05:26.97 = 14419201 samples = 24522.5 CDDA sectors
File Size : 13.2M
Bit Rate : 322k
Sample Encoding: MPEG audio (layer I, II or III)
Comments :
Title=Emerging Seas
Artist=Mobula
Album=Mobula
Tracknumber=1
Year=2019

[/more]

Register
(7) avkruchinin, Darkness, marilin, Olethros, Ostinato, Rosen, TAKATAEL,

425 Pages V   1 2 3 > » 
- Lo-Fi Version Support form
Copyrights and abuse reports form
Time is now: 6th December 2019 - 04:28:48