Welcome Guest ( Log In | Register )

История благодарностей участнику vosmidesijatye ::: Спасибо сказали: 40377 раз(а)
Дата поста: В теме: За сообщение: Спасибо сказали:
Yesterday, 21:21:01 Morta Skuld - Suffer For Nothing (2020)
ЦИТАТА(asog @ Sep 25 2020, 22:40:54) *
Простите меня великодушно, но всё же какой, из альбомов в death metal, строго рамках жанра, тронул вашу душу за этот, ну и предыдущий год, а то вам и SKELETAL REMAINS не то, и INCANTATION не то, и LIK не зашёл и сабж "безыдейный, бесчувственный, мутный музон, бездушно и вымученно звучит"(прекрасные альбомы на мой взгляд).


Заелись металисты, все им не так, все им не эдак ... 1488.gif
(2) asog, infiltrator,
Yesterday, 21:08:01 Excavator - Roots Of Democracy [ep] (2020)
Экскаватор, эвакуатор, анихялятор...

Ох, грехи наши тяжкия...
(2) infiltrator, kranger,
Yesterday, 14:52:40 Uada - Djinn (2020)
ЦИТАТА(wolverine @ Sep 25 2020, 17:37:20) *


Clowns at their best 1488.gif Hype out of nothin`. Modern entertainment, black metal warriors fighting over facepalm. 15.gif
(3) babanguida, infiltrator, wolverine,
Yesterday, 12:25:14 Ace Frehley - Origins Vol.2 (2020)
Of course this album is not among his best but the choice of songs/bands to cover is good. I wouldn`t call it weak and it deserves at least a couple of spins.
(2) canadaspaceman, infiltrator,
Yesterday, 10:28:38 Burzum & Varg Vikernes 2010 - ...
What a funny thing to believe in his isolationism. He still receives money from the govenment.

ЦИТАТА(Samhain @ Sep 25 2020, 02:04:32) *
Да, уехать из города в лес, завести кучу белых детей и при этом постоянно критиковать марксистскую мораль - это сейчас и есть самый что ни на есть социальный протест.


Уехать в лес (при этом получать пособие от государства) это никакой не протест. Такой якобы "изоляционизм" (хотя электроэнергию ту же он ведь не сам добывает, да и тачка ему зачем, если он такой дикарь? 1488.gif) это лишь способ показать - смотрите, какой я не трендовый, при этом сам хайпуя на этом.

А уж про детей - эт совсем странно. Не он один из блэкерков с детьми - эт раз, во-вторых, что в этом протестного? Тем более он их не обеспечивает, а получает пособия.

А критиковать чего-то там, легко. Сам то он в разные периоды говорит противоречивые вещи.

В 90-х он Граф Гришнак, потом Варг, потом Вара Квислик, терь Луи Кашпо 1488.gif Сидя в обустроенной хате, Маркс ему не угодил smile1.gif

При всем при этом его творчество (90-х) это конечно гениальная штука. Да и Белус очень неплох.
(2) Froze, infiltrator,
Sep 24 2020, 19:22:18 Morta Skuld - Suffer For Nothing (2020)
Держи зерцало

@320

Register
(6) Haunting, infiltrator, kauyumari, nadin85, StrixPT, Zahrim,
Sep 24 2020, 17:20:11 Kataklysm - Unconquered (2020)
Ну Макс, давай вещай про пластик и прочее 15.gif

@320

Register


Register
(15) boby9052, Emm Human, fateefffddd, Golfzilla, infiltrator, lary_veel, mardak666, Morgoth, rabindranad, realexxx75, Shadechaser, smes, Typhoid, Дерсу Узала, некрософ,
Sep 24 2020, 12:09:27 Solemn Eternal - Godless (2020)
Кустарно. Местами слишком быстро, местами скучно, изредка попадаются неплохие куски. Атмосферы толком и нет. Чересчур лоскутный, несобранный релиз.
(1) Samaritianin,
Sep 24 2020, 12:04:26 Lamp Of Murmuur - Heir Of Ecliptical Romanticism (2020)
@320

Register
(4) Alexis The Best, dasreichss, robertho777, supremo,
Sep 22 2020, 15:56:10 Napalm Death - Throes Of Joy In The Jaws Of Defeatism (2020)
ЦИТАТА(6666666 @ Sep 22 2020, 18:39:48) *
Удалено уже.


Ток что чекнул, все работает, обнови обмен. Огонь иногда подглючивает.
(1) Occultas,
Sep 21 2020, 20:17:49 Skelethal - Unveiling The Threshold (2020)
ЦИТАТА(kranger @ Sep 21 2020, 23:08:22) *
мне уже 73 в этом году .


15.gif На отлично поднял настроение вечерком, недаром я сходил за тубусом cырных Pringles 25.gif
(2) infiltrator, kranger,
Sep 21 2020, 18:55:22 Malsrud - The Disclosure (2020)
О, титечками решили молодеж привлечь 25.gif

Ибо понимают, что играют хренотень...
(1) kranger,
Sep 21 2020, 14:34:02 Lucifer - Lucifer Iii (2020)
@320 Limited Japanese Edition

Register
(2) infiltrator, thenecromancer,
Sep 21 2020, 13:46:35 Acid Moon And The Pregnant Sun - Speakin' Of The Devil (2020)


*Artist: Acid Moon And The Pregnant Sun
*Album: Speakin' Of The Devil
*Year: 2020
*Genre: 60´s Acid/Psychedelic Rock
*Country: Israel
*Format: mp3@CBR320kbps
*Size: 89MB

Tracklist:
1. I Love You 03:56
2. Speakin' Of The Devil 08:53
3. Creatures Of The Abyss 07:11
4. Wide 05:59
5. Bright Sky At Night 03:12
6. Save Me 05:47
7. Sparrow 07:28
******************************
Total playing time: 42:26



[more=Technical info]
Input File: 1. Acid Moon and the Pregnant Sun - I Love You.mp3
Channels : 2
Sample Rate : 44100
Precision : 16-bit
Duration : 00:03:56.68 = 10437676 samples = 17751.1 CDDA sectors
File Size : 9.52M
Bit Rate : 322k
Sample Encoding: MPEG audio (layer I, II or III)
Comments :
Title=I Love You
Artist=Acid Moon and the Pregnant Sun
Album=Speakin' of the Devil
Tracknumber=1/7
Year=2020
Genre=Рок
Discnumber=1/1

[/more]

Register
(6) gena, grimoir, infiltrator, KVRT, marilin, Olethros,
Sep 20 2020, 22:28:20 Lik - Misanthropic Breed (2020)
Аплодисментов гулом разрезая ночную тишь
Громкоголосо заявляю - Оратор выше - Молодец, малыш!

А что собственно по сабжу, скажешь, а?
Достойная ли в этот раз выдалась шведа?
(1) kranger,
Sep 20 2020, 20:59:31 Electric Moon - Live At Freak Valley Festival 2019 [live] (2020)


*Artist: Electric Moon
*Album: Live At Freak Valley Festival 2019 [live]
*Year: 2020
*Genre: Psychedelic/Space Rock
*Country: Germany
*Format: mp3@CBR320kbps
*Size: 210MB

Tracklist:
1. Increase 19:26
2. 777 20:31
3. The Picture 18:27
4. D-Tune 07:37
5. Der Mondsenator Auf Dem Weg Zur Erde 03:05
******************************
Total playing time: 1:09:06



[more=Technical info]
Input File: 01 Increase.mp3
Channels : 2
Sample Rate : 44100
Precision : 16-bit
Duration : 00:19:26.33 = 51435021 samples = 87474.5 CDDA sectors
File Size : 56.0M
Bit Rate : 384k
Sample Encoding: MPEG audio (layer I, II or III)
Comments :
Title=Increase
Artist=Electric Moon
Album=Live at Freak Valley Festival 2019
Tracknumber=1
Year=2020-09-04
Genre=Psychedelic Rock / Heavy Psych
Discnumber=1

[/more]

Register
(5) gena, infiltrator, marilin, Olethros, Vidyadharov,
Sep 20 2020, 20:17:47 Lik - Misanthropic Breed (2020)
ЦИТАТА(6666666 @ Sep 20 2020, 22:59:10) *
Лойсы 80-го как форма зашквара. Поздравляю.


Ворчать и ныть по поводу тегов, которые можно исправить в 5 минут - вот это зашквар.

Тебе на халяву принесли релиз, а ты еще и возникаешь по мелочам.

(1) Samaritianin,
Sep 19 2020, 21:07:43 Лучший советчик МА - Часть 10 (Умнодэт) - Тур 2, Рейтингование
ЦИТАТА(FunZombie @ Sep 19 2020, 23:49:55) *
то лучше King Crimson включу, причём после "VROOOM" (включительно).


А чем период 70-х не канает? Там же волшебство волшебное 20.gif

(3) Exorcist, infiltrator, kranger,
Sep 19 2020, 17:43:03 Haryon & Thangorodrim - Under The Reign Of A New Power (Split) [split] (2018)
Thangorodrim - один из топовейших современных данж синт проектов. pray.gif
(2) Dreamtale, infiltrator,
Sep 19 2020, 12:26:14 Mørkt Tre - Земля Забута Богом І Людьми (2020)
ЦИТАТА(Moonshtook @ Sep 19 2020, 14:03:02) *
За себя говори!


А он за кого говорил?
(1) Maximvs,
Sep 17 2020, 22:57:51 Mistress Of The Dead - The River Of The Quiterest Death [demo] (2005)
@320

Register
(3) infiltrator, thenecromancer, Wail,
Sep 17 2020, 22:16:59 Ace Frehley - Origins Vol.2 (2020)


*Artist: Ace Frehley
*Album: Origins Vol.2
*Year: 2020
*Genre: Hard Rock
*Country: United States
*Format: mp3@CBR320kbps
*Size: 107MB

Tracklist:
1. Good Times Bad Times (Led Zeppelin cover)
2. Never in My Life (Mountain cover)
3. Space Truckin' (Deep Purple cover)
4. I'm Down (The Beatles cover)
5. Jumpin' Jack Flash (The Rolling Stones cover)
6. Politician (Cream cover)
7. Lola (The Kinks cover)
8. 30 Days in the Hole (Humble Pie cover)
9. Manic Depression (The Jimi Hendrix Experience cover)
10. Kicks (Paul Revere & the Raiders cover)
11. We Gotta Get out of This Place (The Animals cover)
12. She (KISS cover)
******************************
Total playing time: 46:40



[more=Technical info]
Input File: 09. Manic Depression.mp3
Channels : 2
Sample Rate : 44100
Precision : 16-bit
Duration : 00:04:01.31 = 10641727 samples = 18098.2 CDDA sectors
File Size : 9.75M
Bit Rate : 323k
Sample Encoding: MPEG audio (layer I, II or III)
Comments :
Title=Manic Depression
Artist=Ace Frehley
Album=Origins Vol.2
Tracknumber=9
Year=2020
Genre=Hard Rock
Discnumber=1

[/more]

Register
(6) canadaspaceman, infiltrator, multizwilling, Olethros, Wail, ZA670,
Sep 17 2020, 21:19:13 Steel Prophet - The God Machine (2019)
@320

Register
(1) smes,
Sep 17 2020, 21:17:57 Devil's Gun - Sing For The Chaos (2019)
@320

Register
(1) smes,
Sep 17 2020, 20:48:24 Christmass - Vigil (2019)
ЦИТАТА(GRAF @ Sep 15 2020, 23:42:14) *
примеси Sludge


которых нет в релизе 1488.gif
(3) Bloodn Lord, infiltrator, kranger,

461 Pages V   1 2 3 > » 
- Lo-Fi Version Support form
Copyrights and abuse reports form
Time is now: 26th September 2020 - 22:40:45