Welcome Guest ( Log In | Register )

История благодарностей участнику vosmidesijatye ::: Спасибо сказали: 42022 раз(а)
Дата поста: В теме: За сообщение: Спасибо сказали:
Yesterday, 19:50:32 Impaled Nazarene - Ugra-Karma (1993)
ЦИТАТА(kostja @ Feb 16 2021, 19:38:48) *
Мой рейтинг альбомов:

1. Suomi Finland Perkele pray.gif
2. Ugra-Karma
3. Latex Cult, включая Motörpenis EP
4. Pro Patria Finlandia

Остальные все на одном уровне.


Добавлю свой топ:

1. All That You Fear
2. Ugra Karma

Первый альбом в списке - отличный рок угар, второй - отличный ад угар 25.gif
(1) WOLAND,
Yesterday, 13:59:22 Abominable Putridity - Parasitic Metamorphosis Manifestation (2021)
ЦИТАТА(KoreanGringo @ Mar 1 2021, 16:57:31) *
Не Putridity мне мозги - релиз о[мат->бан]ен! true_black.gif 20.gif


Один из самых долгожданных среди русских любителей брутала, походу.

Многие уж и не чаяли, что полноформат от них вообще выйдет...
(1) WOLAND,
Yesterday, 12:49:20 Eyehategod - Fake What´s Yours [single] (2021)


*Artist: Eyehategod
*Album: Fake What´s Yours [single]
*Year: 2021
*Genre: Sludge/Doom Metal
*Country: United States
*Format: mp3@CBR320kbps
*Size: 8MB

Tracklist:
1. Fake What´s Yours 03:37
******************************
Total playing time: 3:37



[more=Technical info]
Input File: 01 Fake What\'s Yours.mp3
Channels : 2
Sample Rate : 44100
Precision : 16-bit
Duration : 00:03:37.79 = 9604715 samples = 16334.5 CDDA sectors
File Size : 8.71M
Bit Rate : 320k
Sample Encoding: MPEG audio (layer I, II or III)
Comments :
Title=Fake What's Yours
Artist=EyeHateGod
Album=Fake What's Yours
Tracknumber=01/01
Year=2021-21-20
Discnumber=1/1

[/more]

Register
(7) Aresson, Leolomb, maochen, Mencae77, Olethros, runawaycyborg, Tyrone,
Yesterday, 12:47:34 Eyehategod - Built Beneath The Lies [single] (2021)


*Artist: Eyehategod
*Album: Built Beneath The Lies [single]
*Year: 2021
*Genre: Sludge/Doom Metal
*Country: United States
*Format: mp3@CBR320kbps
*Size: 8MB

Tracklist:
1. Built Beneath The Lies 03:32
******************************
Total playing time: 3:32



[more=Technical info]
Input File: 01 Built Beneath the Lies.mp3
Channels : 2
Sample Rate : 44100
Precision : 16-bit
Duration : 00:03:32.91 = 9389287 samples = 15968.2 CDDA sectors
File Size : 8.52M
Bit Rate : 320k
Sample Encoding: MPEG audio (layer I, II or III)
Comments :
Title=Built Beneath the Lies
Artist=EyeHateGod
Album=Built Beneath the Lies
Tracknumber=01/01
Year=2021-21-20
Discnumber=1/1

[/more]

Register
(8) Aresson, Leolomb, maochen, Mencae77, Olethros, runawaycyborg, Tyrone, WOLAND,
Yesterday, 12:34:55 Robert Plant - Pictures At Eleven (1982)
Альбом просто шикарнейший! 20.gif

@320

Register


Register


Register
(1) WOLAND,
Feb 28 2021, 14:34:47 Pyraweed - 420 (2020)
Завтра все будет.
(1) Tarelka,
Feb 28 2021, 13:41:02 King Gizzard & The Lizard Wizard - L.W. (2021)
No metal at all. Pure unformat.
(2) babanguida, infiltrator,
Feb 27 2021, 17:15:21 Пращур - Трощити (2021)
На их бэндкампе можно бесплатно утянуть в любых форматах.
(1) KKK1488,
Feb 27 2021, 15:29:45 Земфира - Бордерлайн (2021)


*Artist: Земфира
*Album: Бордерлайн
*Year: 2021
*Genre: Rock
*Country: Russian Federation
*Format: mp3@CBR320kbps
*Size: 107MB

Tracklist:
1. Таблетки 04:03
2. Ок 04:04
3. Этим Летом 03:08
4. Пальто 04:28
5. Камон 03:27
6. Том 03:46
7. Жди Меня 03:15
8. Абъюз 05:29
9. Остин 04:29
10. Мама 03:06
11. Крым 03:39
12. Снег Идёт 04:49
******************************
Total playing time: 47:43



[more=Technical info]
Input File: 12 - Снег идёт.mp3
Channels : 2
Sample Rate : 44100
Precision : 16-bit
Duration : 00:04:49.14 = 12751030 samples = 21685.4 CDDA sectors
File Size : 11.6M
Bit Rate : 320k
Sample Encoding: MPEG audio (layer I, II or III)
Comments :
Title=Снег идёт
Artist=Земфира
Album=Бордерлайн
Tracknumber=12
Year=2021
Genre=Rock

[/more]

Register
(12) Aresson, Bloodn Lord, infiltrator, judaz, KKK1488, Lanceatum, Maestrovs, nadin85, nikolay81, Olethros, VALERY, скептик,
Feb 27 2021, 12:44:07 Гнёт - Избавление (2021)
Плодовитый какой проект то, 4 релиза за 2020 и уже 5 за 2021 - темпы Захара берёт 15.gif
(1) nsk2008,
Feb 26 2021, 13:18:42 Spelljammer - Abyssal Trip (2021)


*Artist: Spelljammer
*Album: Abyssal Trip
*Year: 2021
*Genre: Stoner/Doom Metal
*Country: Sweden
*Format: mp3@CBR320kbps
*Size: 102MB

Tracklist:
1. Bellwether 06:38
2. Lake 07:03
3. Among The Holy 06:18
4. Abyssal Trip 10:38
5. Peregrine 02:22
6. Silent Rift 10:09
******************************
Total playing time: 43:08



[more=Technical info]
Input File: 01. Bellwether.mp3
Channels : 2
Sample Rate : 44100
Precision : 16-bit
Duration : 00:06:38.26 = 17563310 samples = 29869.6 CDDA sectors
File Size : 16.5M
Bit Rate : 331k
Sample Encoding: MPEG audio (layer I, II or III)
Comments :
Title=Bellwether
Artist=Spelljammer
Album=Abyssal Trip
Tracknumber=1/6
Year=2021
Genre=Metal
Discnumber=1/1

[/more]

Register
(6) HMHamster, infiltrator, Korpse, Olethros, sludge666, VALERY,
Feb 26 2021, 11:34:07 Melvins - Working With God (2021)
Совершенно шикарнейший альбом, лично для меня это лучшая запись группы после Stoner Witch. Максимальное композиционное разнообразие, характерный юмор - всё на месте. И самое главное - наконец то качёвые, запоминающиеся трэки и не в размере одной-двух штук на релиз, как последние десятилетия. Альбом понравился весь, но особо отмечу Negative No No, Bouncing Rick, шикарнейшую мрачно-тягучую Caddy Daddy (побольше бы такого, а желательно цельный альбом), Hund.

Может, может ещё дядька Базз выдавать напалмом. Хвалю!
(3) gena, infiltrator, xax,
Feb 23 2021, 16:55:52 Sorcier Des Glaces - Ghastly Memories [ep] (2021)
@320

Register


Register
(4) infiltrator, milosdjor, multizwilling, vasiljev_sergej,
Feb 23 2021, 16:38:24 Rob Zombie - The Lunar Injection Kool Aid Eclipse Conspiracy (2021)
Андрей, спасибо. Благодаря увиденному анонсу в модерке, оперативно утянул с трэкера сей долгожданный релиз.

По сабжу - ждал больше хитов, больше запоминающихся трэков. Но Зомбятский в этот раз скромненько выдал. На полноценный хит здесь тянет лишь The Triumph of King Freak (A Crypt of Preservation and Superstition). Помимо этого трэка, неплохи Get Loose и балладо-образная Crow Killer Blues. В остальном - серовато.
(2) Andrew, infiltrator,
Feb 23 2021, 13:59:11 Immolation - Close To A World Below (2000)
@320

Register
(1) lafuma,
Feb 21 2021, 11:53:15 Гробовая Доска - Человек Не Предназначен Для Войны [single] (2021)
Человек не предназначен для войны.

А Manowar то и не знают... 1488.gif
(2) infiltrator, WOLAND,
Feb 19 2021, 19:42:42 Kabbalah - The Omen (2021)


*Artist: Kabbalah
*Album: The Omen
*Year: 2021
*Genre: Doom Metal/Psychedelic Rock
*Country: Spain
*Format: flac@320kbps
*Size: 203MB

Tracklist:
1. Stigmatized 03:56
2. Ceibas 03:16
3. Night Comes Near 03:47
4. The Ritual 03:19
5. Lamentations 03:24
6. Labyrinth 03:47
7. Duna 03:19
8. Liturgy 04:14
******************************
Total playing time: 29:02



Register
(7) ErikGoth, infiltrator, Kaotik, metala, multizwilling, Olethros, yuratroll,
Feb 19 2021, 14:28:05 Агата Кристи - Чудеса (1998)


*Artist: Агата Кристи
*Album: Чудеса
*Year: 1998
*Genre: Gothic Rock
*Country: Russian Federation
*Format: mp3@CBR320kbps
*Size: 121MB

Tracklist:
1. Сны 04:16
2. Дорога Паука 03:36
3. Ковёр-Вертолёт 03:19
4. Чудеса 03:11
5. Глюки 04:20
6. Серый Траур 03:12
7. Крошка 03:20
8. Полетаем 05:06
9. Навеселе 02:49
10. Верфольф 03:43
11. Огоньки 03:15
12. Споёмте О Сексе 03:51
13. Они Летят 04:11
14. Я Вернусь 04:40
******************************
Total playing time: 52:49



[more=Technical info]
Input File: 04 - Чудеса.mp3
Channels : 2
Sample Rate : 44100
Precision : 16-bit
Duration : 00:03:11.07 = 8426319 samples = 14330.5 CDDA sectors
File Size : 7.67M
Bit Rate : 321k
Sample Encoding: MPEG audio (layer I, II or III)
Comments :
Title=Чудеса
Artist=Агата Кристи
Album=Чудеса
Tracknumber=04/14
Year=1998
Genre=Dark Wave/Gothic Rock

[/more]

Register
(7) cancer1974, Cartman223, gwar, infiltrator, KKK1488, Olethros, VALERY,
Feb 18 2021, 15:05:36 Destroy My Brains - Lifeless (2020)


*Artist: Destroy My Brains
*Album: Lifeless
*Year: 2020
*Genre: Sludge/Doom Metal
*Country: Canada
*Format: mp3@CBR320kbps
*Size: 116MB

Tracklist:
1. Endless Void 03:29
2. Dreaming Of Dying 11:37
3. Lifeless 08:24
4. A Failure 09:22
5. Not Worth Living 02:11
6. Pure Filth 08:52
7. Intoxication By Suffocation 06:22
******************************
Total playing time: 50:17



[more=Technical info]
Input File: Destroy My Brains - Lifeless - 01 Endless Void.mp3
Channels : 2
Sample Rate : 44100
Precision : 16-bit
Duration : 00:03:29.28 = 9229160 samples = 15695.9 CDDA sectors
File Size : 8.55M
Bit Rate : 327k
Sample Encoding: MPEG audio (layer I, II or III)
Comments :
Title=Endless Void
Artist=Destroy My Brains
Album=Lifeless
Tracknumber=1
Year=2020

[/more]

Register
(7) HMHamster, infiltrator, marilin, Olethros, VALERY, vlad74, wreak,
Feb 18 2021, 14:43:57 Satanist Terrorist - The Black Pest Of Evil [ep] (2020)
@320

Register


Register
(6) infiltrator, Orkkh, rimfrost, SilentNidhogg, Styx, vasiljev_sergej,
Feb 17 2021, 18:33:23 Jute Gyte - The Rib [compilation] (2021)


*Artist: Jute Gyte
*Album: The Rib [compilation]
*Year: 2021
*Genre: Avant-Garde Black Metal
*Country: United States
*Format: mp3@CBR320kbps
*Size: 100MB

Tracklist:
1. For the Nightly Ascent of the Hunter Orion Over a Forest Clearing 09:17
2. The Rib 14:50
3. Addicere 20:00
******************************
Total playing time: 44:07



[more=Technical info]
Input File: Jute Gyte - The Rib - 01 For the Nightly Ascent of the Hunter Orion Over a Forest Clearing.mp3
Channels : 2
Sample Rate : 44100
Precision : 16-bit
Duration : 00:09:17.35 = 24579267 samples = 41801.5 CDDA sectors
File Size : 22.5M
Bit Rate : 322k
Sample Encoding: MPEG audio (layer I, II or III)
Comments :
Title=For the Nightly Ascent of the Hunter Orion Over a Forest Clearing
Artist=Jute Gyte
Album=The Rib
Tracknumber=1
Year=2021

[/more]

Register
(13) Boozer, infiltrator, kimkayoung, marilin, Olethros, Reverend, robertho777, VALERY, varlam4, vasiljev_sergej, Vitald, wreak, zhol,
Feb 17 2021, 17:48:54 Kalmankantaja - Surun Syntysija [single] (2021)


*Artist: Kalmankantaja
*Album: Surun Syntysija [single]
*Year: 2021
*Genre: Black Metal
*Country: Finland
*Format: mp3@CBR320kbps
*Size: 28MB

Tracklist:
1. Surun Syntysija 12:00
******************************
Total playing time: 12:00



[more=Technical info]
Input File: Kalmankantaja - Surun Syntysija.mp3
Channels : 2
Sample Rate : 44100
Precision : 16-bit
Duration : 00:12:00.11 = 31756631 samples = 54007.9 CDDA sectors
File Size : 29.0M
Bit Rate : 322k
Sample Encoding: MPEG audio (layer I, II or III)
Comments :
Title=Surun Syntysija
Artist=Kalmankantaja
Year=2021

[/more]

Register
(12) blacky66, Ildjarn, infiltrator, mondlicht, Olethros, Reverend, rimfrost, Shadechaser, VALERY, vasiljev_sergej, wreak, ZA670,
Feb 17 2021, 17:33:10 God Is An Astronaut - Ghost Tapes #10 (2021)


*Artist: God Is An Astronaut
*Album: Ghost Tapes #10
*Year: 2021
*Genre: Post Rock
*Country: Ireland
*Format: mp3@CBR320kbps
*Size: 85MB

Tracklist:
1. Adrift 06:57
2. Burial 06:04
3. In Flux 06:08
4. Spectres 04:29
5. Fade 05:37
6. Barren Trees 04:11
7. Luminous Waves 03:48
******************************
Total playing time: 37:14

Preview 1

[more=Technical info]
Input File: 01. Adrift.mp3
Channels : 2
Sample Rate : 44100
Precision : 16-bit
Duration : 00:06:57.57 = 18414705 samples = 31317.5 CDDA sectors
File Size : 16.7M
Bit Rate : 320k
Sample Encoding: MPEG audio (layer I, II or III)
Comments :
Title=Adrift
Artist=God Is an Astronaut
Album=Ghost Tapes #10
Tracknumber=01/07
Year=2021
Discnumber=1/1

[/more]

Register
(21) 6666666, BERZERK, Bloodn Lord, Buregon, Diflock, Infidel, infiltrator, Kwaad, multizwilling, Old Vyaine, oldvarg, Olethros, Orgasmik, Ostinato, ripper33, SAPOGi, Shadowman, Shub, tOmV, varnack, yuratroll,
Feb 17 2021, 17:17:36 Draugsjukan - Draugsjukan (2020)
All instruments and vocals by Wagner Ödegård
(1) ent404,
Feb 17 2021, 14:59:14 Lake Of Tears - Ominous (2021)
То есть Вы таки отказываете группе в творческих поисках и стремлении делать, что душе угодно в угоду следованию каноничности/потаканию вашим желаниям?
(7) Ash_1980, berserkr, Ghostb, infiltrator, Slam91, tOmV, Vladimir,

471 Pages V   1 2 3 > » 
- Lo-Fi Version Support form
Copyrights and abuse reports form
Time is now: 2nd March 2021 - 12:13:29