Welcome Guest ( Log In | Register )

История благодарностей участнику Orkkh ::: Спасибо сказали: 249 раз(а)
Дата поста: В теме: За сообщение: Спасибо сказали:
May 14 2018, 11:24:51 Kryptamok - Profaani [ep] (2018) (1) nsk2008,
May 11 2018, 09:43:04 Temple Of Oblivion - Via Falsa 1866 [ep] (2017) (1) krotovich,
May 4 2018, 15:06:02 Cabra - The Ravens Oracle (2018)
тизер альбома
вроде ничё так, бодренько, но коротко.
(1) vovenom,
Apr 12 2018, 12:09:53 Crematory - Oblivion (2018) (1) Fess,
Mar 31 2018, 16:36:31 Ludola - Cięższą Podajcie Mi Zbroję! (2016)


*Artist: Ludola
*Album: Cięższą Podajcie Mi Zbroję!
*Year: 2016
*Genre: Neofolk/Military
*Country: Poland
*Format: mp3@CBR320kbps
*Size: 90MB

Tracklist:
1. W krwawym polu srebrne ptaszę 01:18
2. Pieśń Konfederatów Barskich 03:28
3. Na stazigudzkam polu 02:47
4. O Wrześni 04:48
5. Ostatni mazur 03:51
6. Pieśń Żołnierza 03:12
7. Polonez Kościuszki 02:24
8. Na rozstajach 05:08
9. Ostatnia kula 03:39
10. Przy sadzeniu róż 03:24
11. Cięższą podajcie mi zbroję! 04:16
******************************
Total playing time: 38:15





[more=Technical info]
Input File: 1 - W krwawym polu srebrne ptaszę.mp3
Channels : 2
Sample Rate : 44100
Precision : 16-bit
Duration : 00:01:18.35 = 3455279 samples = 5876.32 CDDA sectors
File Size : 3.28M
Bit Rate : 335k
Sample Encoding: MPEG audio (layer I, II or III)
Comments :
Title=W krwawym polu srebrne ptaszД™
Artist=Ludola
Album=CiД™ЕјszД… podajcie mi zbrojД™!
Tracknumber=01
Year=2016

[/more]

Register
(4) Angry_Chair, Buregon, Moonshtook, Wolftribes,
Mar 31 2018, 08:04:43 Witchblood - Sorceress Of The Black Sun (2016) (1) DarkHorde,
Mar 30 2018, 09:29:13 Nebelhorn - Urgewalt (2018) (3) Fess, Olrak, singrad,
Mar 29 2018, 07:57:08 Pergalė - Antropologija (2016)
Register
(1) MortSathynr,
Mar 22 2018, 09:35:38 Semargl - Ordo Bellictum Satanas (2010)
Register
(2) Aresson, wendigo,
Feb 16 2018, 17:02:11 Sale Freux - Subterraneus (2011)
Register
(1) Moonshtook,
Feb 16 2018, 16:24:27 Sale Freux - Vindilis (2017)
Register
(2) Moonshtook, thenecromancer,
Feb 14 2018, 07:06:08 Grok - Sacred Fire Without Form [ep] (2017) (1) rickzammuto,
Feb 4 2018, 13:32:22 Rage Nucléaire - Black Storm Of Violence (2014)
Register
спасиба дарк-ворлду вобщемта
(1) varg-38ru,
Jan 29 2018, 12:16:38 Peste Noire - Folkfuck Folie (2007)
Register
(1) Aresson,
Jan 29 2018, 12:16:04 Peste Noire - Ballade Cuntre Lo Anemi Francor (2009)
Register
(1) Aresson,
Jan 25 2018, 11:27:17 Massgrav - Napalm Över Stureplan (2005)
Register
(1) Zhelezjaka,
Jan 25 2018, 11:26:51 Massgrav - Still The Kings (2012)
Register
(1) Zhelezjaka,
Jan 11 2018, 16:12:51 Percival Schuttenbach - Tutmesz-Tekal (2002)
ЦИТАТА(Well_To_Hell @ Jan 11 2018, 18:04:38) *
Pls re-up! pray.gif


здесь есть походу
(1) Well_To_Hell,
Jan 11 2018, 16:10:18 Venom - Black Metal (1982)
Register

спасибо дарк ворлду вобщемта.
(1) Aresson,
Jan 11 2018, 10:03:01 Šmiercieslaŭ - Biessmjarotny Czorny Mietal [demo] (2000) (1) smysl,
Jan 8 2018, 10:46:01 Doomhammer - The Day The Prey Becomes The Predator Rehearsals [demo] (2014)
[youtube]https://www.youtube.com/watch?v=sDx9Pg-dStM[/youtube]
(1) Sanc,
Dec 28 2017, 17:36:44 Bucovina - Aşteaptă-mă Dincolo (de Moarte) [single] (2016)


*Artist: Bucovina
*Album: Aşteaptă-mă Dincolo (de Moarte) [single]
*Year: 2016
*Genre: Black/Folk Metal
*Country: Romania
*Format: mp3@CBR128kbps
*Size: 6MB

Tracklist:
1. Aşteaptă-mă dincolo (de moarte) 06:20
******************************
Total playing time: 6:20




[more=Technical info]
Input File: 01 - Bucovina - Aşteaptă-mă dincolo (de moarte).mp3
Channels : 2
Sample Rate : 44100
Precision : 16-bit
Duration : 00:06:20.55 = 16782123 samples = 28541 CDDA sectors
File Size : 6.09M
Bit Rate : 128k
Sample Encoding: MPEG audio (layer I, II or III)
Comments :
Title=AЕџteaptДѓ-mДѓ dincolo (de moarte)
Artist=Bucovina
Album=AЕџteaptДѓ-mДѓ dincolo (de moarte)
Tracknumber=01
Year=2016
Genre=Metal

[/more]

Register
(9) 1968_janeart, Cartman223, fabriziomagno, infiltrator, Mihalik, Rosen, Styx, thenecromancer, vasiljev_sergej,
Dec 2 2017, 09:19:31 Yaşru - Ant Kadehi (2017) (1) Fess,
Nov 26 2017, 10:09:42 Întristare - The Gathering Of Like Believers (2017) (2) stub888, TREVAS,
Nov 25 2017, 10:10:58 Moraš - Gaze Of The Void [demo] (2017) (1) smysl,

5 Pages V   1 2 3 > » 
- Lo-Fi Version Support form
Copyrights and abuse reports form
Time is now: 27th May 2018 - 12:34:19