Welcome Guest ( Log In | Register )

История благодарностей участнику Orkkh ::: Спасибо сказали: 403 раз(а)
Дата поста: В теме: За сообщение: Спасибо сказали:
Jan 15 2019, 13:38:14 Skrawl - Brother Butchers Brother [demo] (2018)


*Artist: Skrawl
*Album: Brother Butchers Brother [demo]
*Year: 2018
*Genre: Black Metal/Punk
*Country: United States
*Format: mp3@CBR192kbps
*Size: 12MB

Tracklist:
1. That Which Kills 03:09
2. North / Black Sun Bloody Moon (Current 93 Cover) 01:38
3. Blind In Both Eyes 02:40
4. Invocation of the Killing Frost 01:32
******************************
Total playing time: 8:59



[more=Technical info]
Input File: 01. That Which Kills .mp3
Channels : 2
Sample Rate : 44100
Precision : 16-bit
Duration : 00:03:09.96 = 8377280 samples = 14247.1 CDDA sectors
File Size : 4.56M
Bit Rate : 192k
Sample Encoding: MPEG audio (layer I, II or III)
Comments :
Title=That Which Kills
Artist=Skrawl
Album=Brother Butchers Brother
Tracknumber=1
Year=2018
Genre=Black Metal, Punk

[/more]

Register
(5) artscald, satanist666, stub888, vasiljev_sergej, wgs73,
Dec 27 2018, 10:43:58 Fornost - Zimne Piękno [demo] (1997)
ЦИТАТА(wolverine @ Dec 27 2018, 11:42:12) *
From the web:


Чё-та у меня архив с ошибкой открывается - последняя песня вылетает. Вот она, если надо кому.
Register


и целиком на ядиске например:
Register
(3) kim666, varg-38ru, wolverine,
Dec 21 2018, 12:00:08 Morgal - Käärmesielu (2016)
128 kbps
а больше и не надо banana.gif true_black.gif
Register
(1) kim666,
Dec 7 2018, 09:41:17 Jt Ripper - Gathering Of The Insane (2018)
sample например
youtube
(2) Foneg, metalboll,
Nov 23 2018, 10:37:08 Brahdr'uhz - Land Of Darkness (2018)
Register
(2) Korpse, satanist666,
Nov 21 2018, 06:57:38 Saiva - Markerna Bortom (2017)
ЦИТАТА(Skeksis @ Nov 21 2018, 02:36:30) *
Anybody got a working link, please?


from dark-world
Register

(2) Skeksis, varg-38ru,
Nov 20 2018, 11:18:57 Варххорн - Ворон Вукху [demo] (2002)
Register
"]mega.nz[/url][/hide]
(2) thenecromancer, varg-38ru,
Nov 16 2018, 16:15:38 Wolven - Eight Billion Deathmarch (2016)


*Artist: Wolven
*Album: Eight Billion Deathmarch
*Year: 2016
*Genre: Grindcore/Crust Punk
*Country: Belgium
*Format: mp3@CBR320kbps
*Size: 69MB

Tracklist:
1. I Hedonist 01:17
2. Death Penalty Allowed 01:53
3. Torture = Drama 02:13
4. Regardez mes yeux 03:43
5. Storming Upon the Masses 00:58
6. Welcome to Hell City 01:33
7. Still Nothing 03:29
8. The Awakening (of the Emperor) 02:19
9. Irreversible Decay 02:21
10. Portal to Destruction 01:10
11. Steel Justice 02:44
12. Queen Bathsheba 04:23
******************************
Total playing time: 28:03




[more=Extended info]Lineup:
Filip Dupont - All instruments (2003-present), Vocals (2003-present)[/more]

[more=Technical info]
Input File: Wolven - Eight Billion Deathmarch - 01 I Hedonist.mp3
Channels : 2
Sample Rate : 44100
Precision : 16-bit
Duration : 00:01:17.77 = 3429657 samples = 5832.75 CDDA sectors
File Size : 3.24M
Bit Rate : 333k
Sample Encoding: MPEG audio (layer I, II or III)
Comments :
Title=I Hedonist
Artist=Wolven
Album=Eight Billion Deathmarch
Tracknumber=1
Year=2016

[/more]

Register
(6) artscald, METALHUNTER, Ostinato, Rosen, wgs73, Герб,
Nov 9 2018, 15:59:37 Haat - De Ware Plaag [Demo] (1999)
Register
(1) varg-38ru,
Nov 9 2018, 15:56:28 Haat - Factum Luctisonus [best of/compilation] (2001)
Register
(1) varg-38ru,
Oct 29 2018, 17:27:35 Gorgon - The Jackal Pact (1998)
ЦИТАТА(Borderline1991 @ Oct 6 2018, 19:43:10) *


thanx! pray.gif 9.gif

Register

(3) artscald, skogtroll, wgs73,
Oct 25 2018, 18:10:17 Lloth - Dancing In The Dark Lakes Of Evil [demo] (1997)
Register
(3) MortSathynr, thenecromancer, Wail,
Oct 12 2018, 08:06:55 Akitsa - Credo (2018)
ЦИТАТА(recber @ Oct 12 2018, 09:10:27) *
А можно ещё ссылку на mega.nz, спасибо!!!


Register
(6) 666days, artscald, Indamage, kedyk, recber, ripper33,
Oct 12 2018, 08:04:29 Sothoris - Raj Potępiony (2018) (1) MMMMM,
Oct 9 2018, 08:37:48 Brimstone - Carving A Crimson Career (1998)
Register
(1) Z28517,
Oct 9 2018, 08:09:52 Orkan - Crimson Canvas (2012)


*Artist: Orkan
*Album: Crimson Canvas
*Year: 2012
*Genre: Black/Thrash Metal
*Country: Norway
*Format: mp3@CBR320kbps
*Size: 93MB

Tracklist:
1. Wall of Sacrifice 05:57
2. Unspoken Words 04:44
3. Circus Fatale 05:19
4. What Darkness Brings 04:00
5. Interlude: Souls of the Dead 01:41
6. Deus Vicit 06:02
7. Crimson Canvas 04:48
8. Fall from Below 06:37
******************************
Total playing time: 39:08



Preview 3

[more=Extended info]Line-up:
Einar Fjelldal - vocals
Gjermund Fredheim - guitars
Rune Nesse - drums
Sindre Hillesdal - bass[/more]

[more=Technical info]
Input File: 01. Wall Of Sacrifice.mp3
Channels : 2
Sample Rate : 44100
Precision : 16-bit
Duration : 00:05:57.33 = 15758033 samples = 26799.4 CDDA sectors
File Size : 14.4M
Bit Rate : 323k
Sample Encoding: MPEG audio (layer I, II or III)
Comments :
Title=Wall Of Sacrifice
Artist=Orkan
Album=Crimson Canvas
Tracknumber=1
Year=2012
Genre=Black Metal
Discnumber=1

[/more]

Register
(16) artscald, cancer1974, Forest Silence, marilin, Moonshtook, nsk2008, Ostinato, pichileon, Rosen, RUSP73, satanist666, scorpionmk, varg-38ru, vasiljev_sergej, wgs73, wreak,
Sep 28 2018, 10:41:18 Fluisteraars & Turia - De Oord [split] (2018) (1) artscald,
Sep 25 2018, 14:52:39 Eriphion - Δοξολογία (2018)


*Artist: Eriphion
*Album: Δοξολογία
*Year: 2018
*Genre: Black Metal
*Country: Greece
*Format: mp3@CBR128kbps
*Size: 41MB

Tracklist:
1. The Worship 07:12
2. Ashes to Ashes 04:07
3. Corridor of Souls 04:45
4. Welcome to the Nightmare 06:07
5. Winter Fire 03:48
6. Sin Is Calling 04:47
7. The Immortal 06:38
8. Doxologia 07:11
******************************
Total playing time: 44:35




[more=Extended info]released August 15, 2018

M. - All instruments, Vocals.

Δοξολογία means "glorification" in greek[/more]

[more=Technical info]
Input File: 01. The Worship.mp3
Channels : 2
Sample Rate : 44100
Precision : 16-bit
Duration : 00:07:12.11 = 19056183 samples = 32408.5 CDDA sectors
File Size : 6.92M
Bit Rate : 128k
Sample Encoding: MPEG audio (layer I, II or III)
Comments :
Title=The Worship
Artist=Eriphion
Album=Δοξολογία
Tracknumber=1
Year=2018

[/more]

Register
(17) 0x13, 1968_janeart, artscald, Gylve, Indamage, judaz, kim666, nsk2008, Ostinato, rammmirez, Rosen, satanist666, suseka, varg-38ru, vasiljev_sergej, vov7609, Wolftribes,
Sep 18 2018, 14:40:38 Naglfar - Principium [compilation] (2018)
banana.gif
молодцы посоны, взяли старую добрую Виттру и захреначили из неё компиляху 1488.gif

и вот вам мега:
Register


p.s. а, нет, таки демки от Виттры отличаются, но всё равно молодцы.
(4) Occultas, recber, ripper33, THROWER666,
Sep 12 2018, 09:31:21 Void Ritual - A New Ritual (2018)
душевный музон, мелодичный такой, мощный например, спасибо! banana.gif 20.gif
(1) DarkHorde,
Aug 28 2018, 15:32:25 Secrets Of The Moon - Sun (2015)
Register
(2) thenecromancer, Winter Funeral,
Aug 1 2018, 10:11:44 Diversia - Demo (1999)
Register

душевно девки исполняют banana.gif
(3) lawronchik, thenecromancer, Witchlord,
Aug 1 2018, 09:58:43 Gorgon - The Jackal Pact (1998)
ааа, про*бал!
а ещё есть у кого?
(1) Witchlord,
Jul 19 2018, 17:08:55 1914 - Eschatology Of War (2015)
здесь предварительно заценить можно
(1) artscald,
Jul 19 2018, 15:51:32 Narbeleth - Indomitvs (2017)
Register
(3) GAS, stormhatt, templ,

7 Pages V   1 2 3 > » 
- Lo-Fi Version Support form
Copyrights and abuse reports form
Time is now: 21st January 2019 - 04:03:02