Welcome Guest ( Log In | Register )

История благодарностей участнику Orkkh ::: Спасибо сказали: 347 раз(а)
Дата поста: В теме: За сообщение: Спасибо сказали:
Oct 12 2018, 08:06:55 Akitsa - Credo (2018)
ЦИТАТА(recber @ Oct 12 2018, 09:10:27) *
А можно ещё ссылку на mega.nz, спасибо!!!


Register
(5) 666days, artscald, Indamage, recber, ripper33,
Oct 9 2018, 08:37:48 Brimstone - Carving A Crimson Career (1998)
Register
(1) Z28517,
Oct 9 2018, 08:09:52 Orkan - Crimson Canvas (2012)


*Artist: Orkan
*Album: Crimson Canvas
*Year: 2012
*Genre: Black/Thrash Metal
*Country: Norway
*Format: mp3@CBR320kbps
*Size: 93MB

Tracklist:
1. Wall of Sacrifice 05:57
2. Unspoken Words 04:44
3. Circus Fatale 05:19
4. What Darkness Brings 04:00
5. Interlude: Souls of the Dead 01:41
6. Deus Vicit 06:02
7. Crimson Canvas 04:48
8. Fall from Below 06:37
******************************
Total playing time: 39:08



Preview 3

[more=Extended info]Line-up:
Einar Fjelldal - vocals
Gjermund Fredheim - guitars
Rune Nesse - drums
Sindre Hillesdal - bass[/more]

[more=Technical info]
Input File: 01. Wall Of Sacrifice.mp3
Channels : 2
Sample Rate : 44100
Precision : 16-bit
Duration : 00:05:57.33 = 15758033 samples = 26799.4 CDDA sectors
File Size : 14.4M
Bit Rate : 323k
Sample Encoding: MPEG audio (layer I, II or III)
Comments :
Title=Wall Of Sacrifice
Artist=Orkan
Album=Crimson Canvas
Tracknumber=1
Year=2012
Genre=Black Metal
Discnumber=1

[/more]

Register
(12) cancer1974, Forest Silence, marilin, Moonshtook, nsk2008, Ostinato, pichileon, Rosen, RUSP73, satanist666, scorpionmk, vasiljev_sergej,
Sep 25 2018, 14:52:39 Eriphion - Δοξολογία (2018)


*Artist: Eriphion
*Album: Δοξολογία
*Year: 2018
*Genre: Black Metal
*Country: Greece
*Format: mp3@CBR128kbps
*Size: 41MB

Tracklist:
1. The Worship 07:12
2. Ashes to Ashes 04:07
3. Corridor of Souls 04:45
4. Welcome to the Nightmare 06:07
5. Winter Fire 03:48
6. Sin Is Calling 04:47
7. The Immortal 06:38
8. Doxologia 07:11
******************************
Total playing time: 44:35




[more=Extended info]released August 15, 2018

M. - All instruments, Vocals.

Δοξολογία means "glorification" in greek[/more]

[more=Technical info]
Input File: 01. The Worship.mp3
Channels : 2
Sample Rate : 44100
Precision : 16-bit
Duration : 00:07:12.11 = 19056183 samples = 32408.5 CDDA sectors
File Size : 6.92M
Bit Rate : 128k
Sample Encoding: MPEG audio (layer I, II or III)
Comments :
Title=The Worship
Artist=Eriphion
Album=Δοξολογία
Tracknumber=1
Year=2018

[/more]

Register
(15) 0x13, 1968_janeart, Gylve, Indamage, judaz, kim666, nsk2008, Ostinato, rammmirez, Rosen, satanist666, suseka, vasiljev_sergej, vov7609, Wolftribes,
Sep 18 2018, 14:40:38 Naglfar - Principium [compilation] (2018)
banana.gif
молодцы посоны, взяли старую добрую Виттру и захреначили из неё компиляху 1488.gif

и вот вам мега:
Register


p.s. а, нет, таки демки от Виттры отличаются, но всё равно молодцы.
(3) recber, ripper33, THROWER666,
Sep 12 2018, 09:31:21 Void Ritual - A New Ritual (2018)
душевный музон, мелодичный такой, мощный например, спасибо! banana.gif 20.gif
(1) DarkHorde,
Aug 1 2018, 10:11:44 Diversia - Demo (1999)
Register

душевно девки исполняют banana.gif
(2) thenecromancer, Witchlord,
Aug 1 2018, 09:58:43 Gorgon - The Jackal Pact (1998)
ааа, про*бал!
а ещё есть у кого?
(1) Witchlord,
Jul 19 2018, 17:08:55 1914 - Eschatology Of War (2015)
здесь предварительно заценить можно
(1) artscald,
Jul 19 2018, 15:51:32 Narbeleth - Indomitvs (2017)
Register
(2) GAS, templ,
Jul 17 2018, 14:58:28 Parusía - Y Su Noche No Tendrá Fin (2014)


*Artist: Parusía
*Album: Y Su Noche No Tendrá Fin
*Year: 2014
*Genre: Doom/Black Metal/Crust Punk
*Country: Spain
*Format: mp3@CBR320kbps
*Size: 90MB

Tracklist:
1. Cajas destemplás (Introducción) 01:52
2. Brumas de desesperanza 09:47
3. Víctimas de una sinrazón 07:18
4. Secretos en la oscuridad 05:32
5. La misma muerte que hoy nos separa, nos reunirá algún día 09:20
6. Vuestro silencio os hace complices 06:27
7. ...y su noche no tendrá fin 02:22
******************************
Total playing time: 42:38





[more=Extended info]Band hails from Jerez de la Frontera, Cádiz, Andalusia.
Album was released October 12, 2014.[/more]

[more=Technical info]
Input File: 03 - Víctimas Se Una Sinrazón.mp3
Channels : 2
Sample Rate : 44100
Precision : 16-bit
Duration : 00:07:18.48 = 19336968 samples = 32886 CDDA sectors
File Size : 17.5M
Bit Rate : 320k
Sample Encoding: MPEG audio (layer I, II or III)
Comments :
Title=Víctimas Se Una Sinrazón
Artist=Parusía
Album=Y Su Noche No Tendrá Fin
Tracknumber=3
Year=2014
Genre=Neo Crust

[/more]

Register
(9) infiltrator, metala, Ostinato, pichileon, Rosen, Sabbathian, VALERY, vasiljev_sergej, Герб,
Jul 17 2018, 10:50:48 Spite Extreme Wing - Non Dvcor, Dvco (2004)
QUOTE(Narasimha @ Jul 17 2018, 11:22:59) *
reupload please


Register
(3) Narasimha, varg-38ru, Witchlord,
Jul 12 2018, 10:16:50 Septicflesh - Εntering Astral Realms [best of/compilation] (2017)


*Artist: Septicflesh
*Album: Εntering Astral Realms [best of/compilation]
*Year: 2017
*Genre: Atmospheric/Symphonic Death Metal
*Country: Greece
*Format: mp3@CBR320kbps
*Size: 118MB

Tracklist:
1. Dark Art 05:24
2. Order of Dracul 03:33
3. Pyramid God 05:13
4. Anubis 04:18
5. Virtues of the Beast 05:19
6. Chaostar 05:11
7. The Eldest Cosmonaut 04:24
8. Heaven Below 05:44
9. Burning Phoenix 04:39
10. Return to Carthage 03:40
11. Setting of the Two Suns 04:07
******************************
Total playing time: 51:32



[more=Extended info]Release date: September 3rd, 2017

Вобщемта дядьки взяли по песенке с большей части релизов и хренак - компиляха![/more]

[more=Technical info]
Input File: 10. Return To Carthage.mp3
Channels : 2
Sample Rate : 44100
Precision : 16-bit
Duration : 00:03:39.37 = 9673997 samples = 16452.4 CDDA sectors
File Size : 8.78M
Bit Rate : 320k
Sample Encoding: MPEG audio (layer I, II or III)
Comments :
Title=Return To Carthage
Artist=Septicflesh
Album=Entering Astral Realms
Tracknumber=10
Year=2017
Genre=Death Metal/Symphonic Metal

[/more]

Register
(12) csgmnk, Dr.Meandor, Hell_Is_Here, infozahist, Jurmagund, LEGION69, recber, Rosen, Storky, Tino, VALERY, Wolftribes,
Jul 9 2018, 06:57:10 Nécropole - Sisyphe Couronné [demo] (2018)
Register
(2) garmonbozia, rimfrost,
Jul 5 2018, 15:42:11 Angrrsth - Znikąd [ep] (2018) (2) rickzammuto, vovenom,
Jun 25 2018, 06:34:22 Myrkvid - Satanic Inquisition [ep] (2010)
ЦИТАТА(flowers @ Jun 25 2018, 01:45:37) *
Re-up pls


here


(2) kim666, varg-38ru,
Jun 22 2018, 10:20:54 Slægt - Domus Mysterium (2017)
ЦИТАТА(JantoHadez @ Jun 22 2018, 11:30:39) *
Could anybody re-upload a working link for this album please? Thanx smile1.gif


Register
(2) Strangler, THROWER666,
Jun 21 2018, 15:12:19 Kárpátia - Isten Kegyelméből (2018)
если нужно кому:
RGhost
Mega.nz
(1) artscald,
May 30 2018, 17:05:52 Diagon - Satan Mit Uns (2009)
ЦИТАТА(Dead666 @ May 30 2018, 18:51:59) *
Hello guy, this link don't work, do you have another link please ?


here it lies
via dark-world

and preview
(1) Dead666,
May 21 2018, 09:19:09 Arch Of Thorns - When The Moon Turns Blood Red (2010) (1) xChristianoO,
May 14 2018, 11:24:51 Kryptamok - Profaani [ep] (2018) (1) nsk2008,
May 11 2018, 09:43:04 Temple Of Oblivion - Via Falsa 1866 [ep] (2017) (1) krotovich,
May 7 2018, 09:40:35 Kuilu - Demo 2014 [demo] (2014)
для предварительного ознакомления:
I
II
(1) Storky,
May 4 2018, 15:06:02 Cabra - The Ravens Oracle (2018)
тизер альбома
вроде ничё так, бодренько, но коротко.
(1) vovenom,
Apr 12 2018, 12:09:53 Crematory - Oblivion (2018) (1) Fess,

6 Pages V   1 2 3 > » 
- Lo-Fi Version Support form
Copyrights and abuse reports form
Time is now: 17th October 2018 - 05:51:34