Welcome Guest ( Log In | Register )

История благодарностей участнику Orkkh ::: Спасибо сказали: 702 раз(а)
Дата поста: В теме: За сообщение: Спасибо сказали:
Jul 24 2020, 08:20:52 Blackcrowned - My Will Is My Hammer (2008)
Register

Register
(1) Wail,
Apr 24 2020, 13:16:08 Atra Hora - Via Combusta (2012)
Register
(1) kimkayoung,
Apr 23 2020, 19:57:40 Bezwering - Aan De Wormen Overgeleverd (2020) (4) infiltrator, maxapero, Occultas, Old Vyaine,
Apr 17 2020, 10:16:03 Blood Cult - We Who Walk Behind The Rows (2005)
Register
(2) infiltrator, varlam4,
Apr 17 2020, 10:04:23 Blood Cult - Metal From Hell [demo] (2002)
Register
(3) infiltrator, thenecromancer, varlam4,
Apr 17 2020, 09:39:26 Blood Cult - We Are The Cult Of The Plains (2010)
Register
(1) varlam4,
Apr 15 2020, 15:29:22 Me And That Man - New Man, New Songs, Same Shit, Vol.1 (2020)
нельзя отцов в неформат nono.gif genius.gif
душевный сатанизм 20.gif
(1) BleedingSun,
Mar 19 2020, 15:54:04 Hati - 10 [compilation] (2016) (1) Styx,
Dec 23 2019, 09:29:50 Navjarmaahr - Navje (2019)
ЦИТАТА(recber @ Dec 23 2019, 11:12:49) *
Кто может залить на мегу, залейте плиз.


Register
(7) Eisbar, eternald, infiltrator, Korpse, recber, SilentNidhogg, Surt,
Dec 12 2019, 19:50:47 Amorphis - Elegy (1996)
а чё вы при мёртвых ссылках обсуждаете здесь? poke_g.gif gop_spb.gif

Register
(1) plfan93,
Oct 21 2019, 16:25:29 Förgjord - Syntiinlankeemus [ep] (2019)
(5) Brann, infiltrator, Old Vyaine, Sanctus, trueandevil,
Oct 16 2019, 12:22:34 Bonehammer & Goathorned - Eastern Graves [split] (2019)


*Artist: Bonehammer & Goathorned
*Album: Eastern Graves [split]
*Year: 2019
*Genre: Black/Death Metal | Black/Death Metal
*Country: Belarus | Belarus
*Format: mp3@CBR320kbps
*Size: 61MB

Tracklist:
Bonehammer:
1. Wandering Lights of the Marshes 05:26
2. Fiery Mirror 05:55
Goathorned:
3. Manaški, Pochvy, Ciemra (Archgoat) 03:59
4. Pakuty Ilžeprarokaŭ 06:35
******************************
Total playing time: 21:55



[more=Technical info]
Input File: 2. Bonehammer - Fiery Mirror.mp3
Channels : 2
Sample Rate : 44100
Precision : 16-bit
Duration : 00:05:55.76 = 15688796 samples = 26681.6 CDDA sectors
File Size : 14.3M
Bit Rate : 322k
Sample Encoding: MPEG audio (layer I, II or III)
Comments :
Title=Fiery Mirror
Artist=Bonehammer
Album=Eastern Graves
Tracknumber=2
Year=2019

[/more]

Register
(19) ahp, artscald, Boozer, desekrator, Hell_Is_Here, infiltrator, kim666, lopuh21, LVXXVL, Moonshtook, Occultas, Pinhead666, Razorbladeswaltz, Rosen, SilentNidhogg, VALERY, varlam4, vasiljev_sergej, Wail,
Oct 3 2019, 14:28:42 Venomwolf - Stormriding Power (2018)


*Artist: Venomwolf
*Album: Stormriding Power
*Year: 2018
*Genre: Black/Speed Metal/Punk
*Country: United Kingdom
*Format: mp3@VBR128kbps
*Size: 35MB

Tracklist:
1. The Summoning 01:33
2. Stormriding Power 03:26
3. Tyrant's Curse 02:14
4. Black Wine 04:13
5. Graveyard Violence 02:53
6. Dogs of Darkness 02:57
7. Impaler 02:41
8. Addicted Sadistic 02:48
9. One with the Fire 02:34
10. Blood Ritual 03:16
11. Bone Reaper 03:41
******************************
Total playing time: 32:16



[more=Extended info]Recorded and mixed at the Venomwolf rehearsal crypt, 2017[/more]

[more=Technical info]
Input File: Venomwolf - 1 The Summoning.mp3
Channels : 2
Sample Rate : 44100
Precision : 16-bit
Duration : 00:01:33.55 = 4125687 samples = 7016.47 CDDA sectors
File Size : 1.50M
Bit Rate : 128k
Sample Encoding: MPEG audio (layer I, II or III)

[/more]

Register
(9) Asketto, marilin, metala, metalwoman, multizwilling, Olethros, Rosen, vasiljev_sergej, Волос,
Oct 3 2019, 12:56:44 Black Pestilence - Urban Hell Rhythmics (2018)
да ладно вам, бодряком посоны 9.gif banana.gif

Register


Register
(3) atavist, Boozer, varlam4,
Oct 3 2019, 10:40:33 Pineblood - The Lodge [ep] (2019)


*Artist: Pineblood
*Album: The Lodge [ep]
*Year: 2019
*Genre: Black Metal/Punk
*Country: Belarus
*Format: mp3@CBR320kbps
*Size: 30MB

Tracklist:
1. Goatskull and Fire 06:01
2. Valley of the Emerald Seas 04:58
3. The Eternal Lodge 02:23
******************************
Total playing time: 13:22



[more=Extended info]Recorded and mixed at Sound Studio 9 by V01D.[/more]

[more=Technical info]
Input File: 1. Goatskull and Fire.mp3
Channels : 2
Sample Rate : 44100
Precision : 16-bit
Duration : 00:06:01.58 = 15945854 samples = 27118.8 CDDA sectors
File Size : 14.5M
Bit Rate : 320k
Sample Encoding: MPEG audio (layer I, II or III)

[/more]

Register
(14) artscald, Asketto, Boozer, cist, Cruor, infiltrator, metalwoman, Olethros, Ostinato, robertho777, Rosen, RUDACHUR, Sanctus, vasiljev_sergej,
Oct 3 2019, 10:35:16 Pineblood - Within The Wooden Flesh [ep] (2018)


*Artist: Pineblood
*Album: Within The Wooden Flesh [ep]
*Year: 2018
*Genre: Black Metal/Punk
*Country: Belarus
*Format: mp3@VBR192kbps
*Size: 18MB

Tracklist:
1. Voices in the Wind 03:22
2. Huora 03:46
3. Within the Wooden Flesh 05:23
******************************
Total playing time: 12:31



[more=Extended info]Bagnik Zine рецу как-то выкатывал на этот релиз. Вот она:

Рецензия: PINEBLOOD – Within the Wooden Flesh

Год выхода: 2018
Издатель: Decadence Within Records
Оценка: 7 / 10

Очередное прибавление на тутэйшай сцене было обеспечено, если не ошибаюсь, музыкантами BONEHAMMER и VOX MORTUIS. Дебютный EP от минской команды позиционируется издателем как “металпанк”, но панка я здесь не нашёл – не считать же за него вполне обычные для метала простые ритмические рисунки и припев с хоровыми выкриками в одной из песен.

Послание PINEBLOOD так же незамысловато, как само название группы и релиза. Это канонический “природный” метал в духе старой скандинавской некромантики, обладающий заодно небольшим немецким привкусом. Не Крывия. Слегка неуклюжие, но очень поэтичные англоязычные тексты (в них даже есть рифма!) преисполнены тёмной образности и мечтательности, не стесняясь напрямую упоминать Одина. Гитарные партии предлагают очень красивую и старомодную одухотворённую мелодику, которая на протяжении 13 минут ни разу не опускается в сахарный сироп. Вкупе с отличными акустическими фрагментами и несколькими сэмплами со звуками живой природы, всё это явственно отсылает к первым работам ULVER. Вокал, впрочем, работает совсем в другом диапазоне: никакого визга, только умеренно агрессивное рычание.

Немного особняком стоит вторая песня, рассказывающая увлекательную историю о неверной жене, которую, когда она пыталась убежать от разозлённого мужа, задрал дикий кабан (несмотря на очевидную отсылку к популярному у северян сюжету, уверен, нетлёнка посвящена бывшей подруге жизни одного из музыкантов). Музыка на ней действительно обладает озлобленным панковским задором, хоть и не таким, чтобы назвать это “металпанком”.

Остаётся добавить, что, несмотря на скромный тираж – 50 копий на кассетах – и абсолютно андеграундный статус релиза, EP записан в минской Студии 9, поэтому имеет качественный современный звук, где слышен каждый инструмент. Учитывая тип музыки, я предпочёл бы менее моднейшую студию… но зато насколько классно здесь прописан бас! У группы уже вышел новый EP, весьма схожий по содержанию, поэтому, думаю, в будущем вполне вероятен выход сборника на CD. А пока берите кассету – сделана она очень качественно, и звучит, надо отметить, восхитительно.

Отсюдаhttp://bagnik-zine.org/review/2928/[/more]

[more=Technical info]
Input File: 1. Voices in the Wind.mp3
Channels : 2
Sample Rate : 44100
Precision : 16-bit
Duration : 00:03:22.63 = 8935939 samples = 15197.2 CDDA sectors
File Size : 5.06M
Bit Rate : 200k
Sample Encoding: MPEG audio (layer I, II or III)
Comments :
Title=Voices in the Wind
Artist=Pineblood
Album=Within the Wooden Flesh
Tracknumber=1
Year=2018
Genre=Crust Punk

[/more]

Register
(9) artscald, Asketto, Boozer, cist, infiltrator, metalwoman, Olethros, Rosen, vasiljev_sergej,
Oct 3 2019, 08:18:12 Vendul - The Coven Rises [ep] (2015)
Register
(1) Wail,
Oct 3 2019, 08:14:40 Vendul - Witchtanic Metalpunks [ep] (2018)


*Artist: Vendul
*Album: Witchtanic Metalpunks [ep]
*Year: 2018
*Genre: Punk/Black Metal
*Country: Germany
*Format: mp3@VBR128kbps
*Size: 20MB

Tracklist:
1. Return of the Alcomonger 05:37
2. Primitive Drunkards 02:27
3. Demon Bitch 05:56
4. Mausoleum Fields 05:00
5. Trial by Fire (Hellripper cover) 02:36
******************************
Total playing time: 21:36




[more=Extended info]All Songs have been recorded between Winter 2017 & Spring 2018 at PROWO Oeventrop.[/more]

[more=Technical info]
Input File: 2. Primitive Drunkards.mp3
Channels : 2
Sample Rate : 44100
Precision : 16-bit
Duration : 00:02:27.08 = 6486360 samples = 11031.2 CDDA sectors
File Size : 2.35M
Bit Rate : 128k
Sample Encoding: MPEG audio (layer I, II or III)

[/more]

Register
(9) Asketto, infiltrator, Olethros, Rosen, trueandevil, vasiljev_sergej, Wail, wgs73, Волос,
Oct 3 2019, 08:10:15 Vendul - Black Magic Black Night (2017)
Register
(1) Wail,
Oct 2 2019, 14:38:45 Sump - VII: Ways To Pass Into Death [demo] (2012)
Register
(2) dvlz, trueandevil,
Oct 2 2019, 13:07:06 Leather Chalice - Sweet Perfume Of Coffin Air (2014)
Register
(2) trueandevil, wendigo,
Oct 2 2019, 12:49:45 Leather Chalice & Gidim - Leather Chalice/Gidim [split] (2015)
Register
(1) wendigo,
Oct 2 2019, 12:49:13 Caught & Leather Chalice - Caught/Leather Chalice [split] (2014)
please, reup! pray.gif
по другим релизам чувак ваще молодец 20.gif

p.s. нашёл!
Register
(1) wendigo,
Oct 2 2019, 12:41:28 Leather Chalice - Battalions Of Filth [demo] (2013)
Register
(3) morbidangelo, wendigo, wgs73,
Oct 2 2019, 08:56:00 Drugoth - Legion Of The Great Eye [demo] (2018)
Register
(1) varlam4,

10 Pages V   1 2 3 > » 
- Lo-Fi Version Support form
Copyrights and abuse reports form
Time is now: 9th August 2020 - 17:39:09