Welcome Guest ( Log In | Register )

История благодарностей участнику Orkkh ::: Спасибо сказали: 287 раз(а)
Дата поста: В теме: За сообщение: Спасибо сказали:
Aug 1 2018, 10:11:44 Diversia - Demo (1999)
Register

душевно девки исполняют banana.gif
(2) thenecromancer, Witchlord,
Aug 1 2018, 09:58:43 Gorgon - The Jackal Pact (1998)
ааа, про*бал!
а ещё есть у кого?
(1) Witchlord,
Jul 19 2018, 15:51:32 Narbeleth - Indomitvs (2017)
Register
(1) templ,
Jul 17 2018, 14:58:28 Parusía - Y Su Noche No Tendrá Fin (2014)


*Artist: Parusía
*Album: Y Su Noche No Tendrá Fin
*Year: 2014
*Genre: Doom/Black Metal/Crust Punk
*Country: Spain
*Format: mp3@CBR320kbps
*Size: 90MB

Tracklist:
1. Cajas destemplás (Introducción) 01:52
2. Brumas de desesperanza 09:47
3. Víctimas de una sinrazón 07:18
4. Secretos en la oscuridad 05:32
5. La misma muerte que hoy nos separa, nos reunirá algún día 09:20
6. Vuestro silencio os hace complices 06:27
7. ...y su noche no tendrá fin 02:22
******************************
Total playing time: 42:38





[more=Extended info]Band hails from Jerez de la Frontera, Cádiz, Andalusia.
Album was released October 12, 2014.[/more]

[more=Technical info]
Input File: 03 - Víctimas Se Una Sinrazón.mp3
Channels : 2
Sample Rate : 44100
Precision : 16-bit
Duration : 00:07:18.48 = 19336968 samples = 32886 CDDA sectors
File Size : 17.5M
Bit Rate : 320k
Sample Encoding: MPEG audio (layer I, II or III)
Comments :
Title=Víctimas Se Una Sinrazón
Artist=Parusía
Album=Y Su Noche No Tendrá Fin
Tracknumber=3
Year=2014
Genre=Neo Crust

[/more]

Register
(9) gerb, infiltrator, metala, Ostinato, pichileon, Rosen, Sabbathian, VALERY, vasiljev_sergej,
Jul 17 2018, 10:50:48 Spite Extreme Wing - Non Dvcor, Dvco (2004)
QUOTE(Narasimha @ Jul 17 2018, 11:22:59) *
reupload please


Register
(3) Narasimha, varg-38ru, Witchlord,
Jul 12 2018, 10:16:50 Septicflesh - Εntering Astral Realms [best of/compilation] (2017)


*Artist: Septicflesh
*Album: Εntering Astral Realms [best of/compilation]
*Year: 2017
*Genre: Atmospheric/Symphonic Death Metal
*Country: Greece
*Format: mp3@CBR320kbps
*Size: 118MB

Tracklist:
1. Dark Art 05:24
2. Order of Dracul 03:33
3. Pyramid God 05:13
4. Anubis 04:18
5. Virtues of the Beast 05:19
6. Chaostar 05:11
7. The Eldest Cosmonaut 04:24
8. Heaven Below 05:44
9. Burning Phoenix 04:39
10. Return to Carthage 03:40
11. Setting of the Two Suns 04:07
******************************
Total playing time: 51:32



[more=Extended info]Release date: September 3rd, 2017

Вобщемта дядьки взяли по песенке с большей части релизов и хренак - компиляха![/more]

[more=Technical info]
Input File: 10. Return To Carthage.mp3
Channels : 2
Sample Rate : 44100
Precision : 16-bit
Duration : 00:03:39.37 = 9673997 samples = 16452.4 CDDA sectors
File Size : 8.78M
Bit Rate : 320k
Sample Encoding: MPEG audio (layer I, II or III)
Comments :
Title=Return To Carthage
Artist=Septicflesh
Album=Entering Astral Realms
Tracknumber=10
Year=2017
Genre=Death Metal/Symphonic Metal

[/more]

Register
(10) csgmnk, Dr.Meandor, Hell_Is_Here, infozahist, LEGION69, recber, Rosen, Tino, VALERY, Wolftribes,
Jul 9 2018, 06:57:10 Nécropole - Sisyphe Couronné [demo] (2018)
Register
(1) garmonbozia,
Jul 5 2018, 15:42:11 Angrrsth - Znikąd [ep] (2018) (2) rickzammuto, vovenom,
Jun 25 2018, 06:34:22 Myrkvid - Satanic Inquisition [ep] (2010)
ЦИТАТА(flowers @ Jun 25 2018, 01:45:37) *
Re-up pls


here


(2) kim666, varg-38ru,
May 30 2018, 17:05:52 Diagon - Satan Mit Uns (2009)
ЦИТАТА(Dead666 @ May 30 2018, 18:51:59) *
Hello guy, this link don't work, do you have another link please ?


here it lies
via dark-world

and preview
(1) Dead666,
May 21 2018, 09:19:09 Arch Of Thorns - When The Moon Turns Blood Red (2010) (1) xChristianoO,
May 14 2018, 11:24:51 Kryptamok - Profaani [ep] (2018) (1) nsk2008,
May 11 2018, 09:43:04 Temple Of Oblivion - Via Falsa 1866 [ep] (2017) (1) krotovich,
May 4 2018, 15:06:02 Cabra - The Ravens Oracle (2018)
тизер альбома
вроде ничё так, бодренько, но коротко.
(1) vovenom,
Apr 12 2018, 12:09:53 Crematory - Oblivion (2018) (1) Fess,
Mar 31 2018, 16:36:31 Ludola - Cięższą Podajcie Mi Zbroję! (2016)


*Artist: Ludola
*Album: Cięższą Podajcie Mi Zbroję!
*Year: 2016
*Genre: Neofolk/Military
*Country: Poland
*Format: mp3@CBR320kbps
*Size: 90MB

Tracklist:
1. W krwawym polu srebrne ptaszę 01:18
2. Pieśń Konfederatów Barskich 03:28
3. Na stazigudzkam polu 02:47
4. O Wrześni 04:48
5. Ostatni mazur 03:51
6. Pieśń Żołnierza 03:12
7. Polonez Kościuszki 02:24
8. Na rozstajach 05:08
9. Ostatnia kula 03:39
10. Przy sadzeniu róż 03:24
11. Cięższą podajcie mi zbroję! 04:16
******************************
Total playing time: 38:15





[more=Technical info]
Input File: 1 - W krwawym polu srebrne ptaszę.mp3
Channels : 2
Sample Rate : 44100
Precision : 16-bit
Duration : 00:01:18.35 = 3455279 samples = 5876.32 CDDA sectors
File Size : 3.28M
Bit Rate : 335k
Sample Encoding: MPEG audio (layer I, II or III)
Comments :
Title=W krwawym polu srebrne ptaszД™
Artist=Ludola
Album=CiД™ЕјszД… podajcie mi zbrojД™!
Tracknumber=01
Year=2016

[/more]

Register
(4) Angry_Chair, Buregon, Moonshtook, Wolftribes,
Mar 31 2018, 08:04:43 Witchblood - Sorceress Of The Black Sun (2016) (1) DarkHorde,
Mar 30 2018, 09:29:13 Nebelhorn - Urgewalt (2018) (3) Fess, Olrak, singrad,
Mar 29 2018, 07:57:08 Pergalė - Antropologija (2016)
Register
(1) MortSathynr,
Mar 22 2018, 09:35:38 Semargl - Ordo Bellictum Satanas (2010)
Register
(2) Aresson, wendigo,
Feb 16 2018, 17:02:11 Sale Freux - Subterraneus (2011)
Register
(1) Moonshtook,
Feb 16 2018, 16:24:27 Sale Freux - Vindilis (2017)
Register
(3) Filosofem91, Moonshtook, thenecromancer,
Feb 14 2018, 07:06:08 Grok - Sacred Fire Without Form [ep] (2017) (1) rickzammuto,
Feb 4 2018, 13:32:22 Rage Nucléaire - Black Storm Of Violence (2014)
Register
спасиба дарк-ворлду вобщемта
(1) varg-38ru,
Jan 29 2018, 12:16:38 Peste Noire - Folkfuck Folie (2007)
Register
(2) ambre, Aresson,

5 Pages V   1 2 3 > » 
- Lo-Fi Version Support form
Copyrights and abuse reports form
Time is now: 19th August 2018 - 06:54:54