Welcome Guest ( Log In | Register )

История благодарностей участнику ElfinQueen ::: Спасибо сказали: 2281 раз(а)
Дата поста: В теме: За сообщение: Спасибо сказали:
May 3 2016, 10:44:21 Mausoleum Gate - Mausoleum Gate (2014)
Register
(1) varlam4,
Apr 7 2016, 16:05:40 Excalion - Primal Exhale (2005)
Register
(1) Aedroth,
Apr 1 2016, 03:15:40 Svartsyn - Black Testament (2013)
Register
(2) varg-38ru, zlvd,
Apr 1 2016, 03:13:58 Svartsyn - Bloodline (2005)
Register
(3) infiltrator, varg-38ru, zlvd,
Apr 1 2016, 03:12:59 Svartsyn - Destruction Of Man (2003)
Register
(3) BM Werewolf, kolar666, zlvd,
Apr 1 2016, 03:11:10 Svartsyn - ...his Majesty (2000)
Register
(4) kauyumari, kolar666, varg-38ru, zlvd,
Mar 26 2016, 16:16:43 Dokken - Broken Bones (2012)
Register
(2) ddarkthrone, varlam4,
Mar 26 2016, 16:14:46 Dokken - Lightning Strikes Again (2008)
Register
(2) ddarkthrone, varlam4,
Mar 26 2016, 16:13:36 Dokken - Hell To Pay (2004)
Register
(2) ddarkthrone, varlam4,
Mar 26 2016, 16:12:40 Dokken - Long Way Home (2002)
Register
(3) ddarkthrone, DMIYUR, varlam4,
Mar 26 2016, 16:11:48 Dokken - Erase The Slate (1999)
Register
(2) ddarkthrone, varlam4,
Mar 26 2016, 16:10:35 Dokken - Shadowlife (1997)


*Artist: Dokken
*Album: Shadowlife
*Year: 1997
*Genre: Heavy Metal/Hard Rock
*Country: United States
*Format: mp3@CBR320kbps
*Size: 151MB

Tracklist:
1. Puppet on a String 04:21
2. Cracks in the Ground 05:01
3. Sky Beneath My Feet 04:35
4. Until I Know 02:17
5. Hello 03:01
6. Convenience Store Messiah 04:28
7. I Feel 04:23
8. Here I Stand 04:43
9. Hard to Believe 04:49
10. Sweet Life 04:23
11. Bitter Regret 03:59
12. I Don't Mind 03:18
13. Until I Know (Slight Return) 02:42
14. How Many Lives 04:48
15. Deep Waters 06:06
******************************
Total playing time: 1:02:54

[more=Technical info]
Input File: 02 Cracks In The Ground.mp3
Channels : 2
Sample Rate : 44100
Precision : 16-bit
Duration : 00:05:01.69 = 13304661 samples = 22627 CDDA sectors
File Size : 12.1M
Bit Rate : 320k
Sample Encoding: MPEG audio (layer I, II or III)
Comments :
Title=Cracks In The Ground
Artist=Dokken
Album=Shadowlife
Tracknumber=02
Year=1997
Genre=Heavy Metal / Hard Rock

[/more]

Register
(6) fabriziomagno, Mannard, morbidangelo, Rosen, spiritualdecay666, varlam4,
Mar 26 2016, 16:01:58 Dokken - Dysfunctional (1995)


*Artist: Dokken
*Album: Dysfunctional
*Year: 1995
*Genre: Heavy Metal/Hard Rock
*Country: United States
*Format: mp3@CBR320kbps
*Size: 129MB

Tracklist:
1. Inside Looking Out 04:08
2. Hole in My Head 04:33
3. The Maze 04:50
4. Too High to Fly 07:10
5. Nothing Left to Say 04:30
6. Shadows of Life 04:32
7. Long Way Home 05:12
8. Sweet Chains 05:46
9. Lesser of Two Evils 04:03
10. What Price 05:45
11. From the Beginning 04:12
******************************
Total playing time: 54:41

[more=Technical info]
Input File: 02 Hole In My Head.mp3
Channels : 2
Sample Rate : 44100
Precision : 16-bit
Duration : 00:04:35.41 = 12145625 samples = 20655.8 CDDA sectors
File Size : 11.0M
Bit Rate : 320k
Sample Encoding: MPEG audio (layer I, II or III)
Comments :
Title=Hole In My Head
Artist=Dokken
Album=Dysfunctional
Tracknumber=02
Year=1995
Genre=Heavy Metal / Hard Rock

[/more]

Register
(6) ddarkthrone, fabriziomagno, morbidangelo, Rosen, spiritualdecay666, varlam4,
Mar 26 2016, 15:50:53 Dokken - Dokken (1994)
Register
(2) ddarkthrone, varlam4,
Mar 26 2016, 15:49:15 Dokken - Back For The Attack (1987)


*Artist: Dokken
*Album: Back For The Attack
*Year: 1987
*Genre: Heavy Metal/Hard Rock
*Country: United States
*Format: mp3@CBR320kbps
*Size: 163MB

Tracklist:
1. Kiss of Death 05:48
2. The Prisoner 04:19
3. Night by Night 05:20
4. Standing in the Shadows 05:05
5. Heaven Sent 04:50
6. Mr. Scary 04:37
7. So Many Tears 04:54
8. Burning like a Flame 04:44
9. Lost Behind the Wall 04:18
10. Stop Fighting Love 04:57
11. Cry of the Gypsy 04:46
12. Sleepless Night 04:30
13. Dream Warriors 04:46
14. Back For The Attack 03:50
******************************
Total playing time: 1:06:44

[more=Technical info]
Input File: 02 Prisoner.mp3
Channels : 2
Sample Rate : 44100
Precision : 16-bit
Duration : 00:04:21.10 = 11514290 samples = 19582.1 CDDA sectors
File Size : 10.4M
Bit Rate : 320k
Sample Encoding: MPEG audio (layer I, II or III)
Comments :
Title=Prisoner
Artist=Dokken
Album=Back For The Attack
Tracknumber=02
Year=1987
Genre=Heavy Metal / Hard Rock

[/more]

Register
(5) fabriziomagno, morbidangelo, Rosen, spiritualdecay666, varlam4,
Mar 26 2016, 15:42:29 Dokken - Under Lock And Key (1985)


*Artist: Dokken
*Album: Under Lock And Key
*Year: 1985
*Genre: Heavy Metal/Hard Rock
*Country: United States
*Format: mp3@CBR320kbps
*Size: 106MB

Tracklist:
1. Unchain the Night 05:17
2. The Hunter 04:06
3. In My Dreams 04:18
4. Slippin' Away 03:46
5. Lightnin' Strikes Again 03:47
6. It's Not Love 05:01
7. Jaded Heart 04:13
8. Don't Lie to Me 03:38
9. Will the Sun Rise 04:09
10. Til the Livin' End 03:56
******************************
Total playing time: 42:11

[more=Technical info]
Input File: 02 The Hunter.mp3
Channels : 2
Sample Rate : 44100
Precision : 16-bit
Duration : 00:04:07.82 = 10928994 samples = 18586.7 CDDA sectors
File Size : 9.92M
Bit Rate : 320k
Sample Encoding: MPEG audio (layer I, II or III)
Comments :
Title=The Hunter
Artist=Dokken
Album=Under Lock And Key
Tracknumber=02
Year=1985
Genre=Heavy Metal / Hard Rock

[/more]

Register
(4) morbidangelo, Rosen, spiritualdecay666, varlam4,
Mar 26 2016, 15:35:21 Dokken - Tooth And Nail (1984)
Register
(3) ddarkthrone, Exxie, varlam4,
Mar 23 2016, 03:40:42 Dokken - Breaking The Chains (1983)


*Artist: Dokken
*Album: Breaking The Chains
*Year: 1983
*Genre: Heavy Metal/Hard Rock
*Country: United States
*Format: mp3@CBR320kbps
*Size: 87MB

Tracklist:
1. Breaking the Chains 03:50
2. In the Middle 03:44
3. Felony 03:07
4. I Can't See You 03:12
5. Live to Rock (Rock to Live) 03:38
6. Nightrider 03:13
7. Seven Thunders 03:56
8. Young Girls 03:14
9. Stick to Your Guns 03:24
10. Paris Is Burning (Live) 05:08
******************************
Total playing time: 36:26

[more=Technical info]
Input File: 02 In The Middle.mp3
Channels : 2
Sample Rate : 44100
Precision : 16-bit
Duration : 00:03:43.76 = 9867904 samples = 16782.1 CDDA sectors
File Size : 8.95M
Bit Rate : 320k
Sample Encoding: MPEG audio (layer I, II or III)
Comments :
Title=In The Middle
Artist=Dokken
Album=Breaking The Chains
Tracknumber=02
Year=1983
Genre=Heavy Metal / Hard Rock

[/more]

Register
(5) Mannard, morbidangelo, Rosen, varlam4, wreak,
Mar 21 2016, 03:02:20 Kraanium - Chronicles Of Perversion (2015)
Register
(2) Dr.Grind Oim, Луч,
Mar 21 2016, 03:01:25 Kraanium - Post Mortal Coital Fixation (2012)
Register
(1) Vincent,
Mar 21 2016, 02:59:59 Kraanium - Ten Acts Of Sickening Perversity (2008)
Register
(1) Vincent,
Mar 13 2016, 14:47:06 A Forest Of Stars - A Shadowplay For Yesterdays (2012)
Register
(6) demonosz, lucifix, muskatnuss, thenecromancer, unas.slayer.of.gods, varg-38ru,
Mar 13 2016, 14:45:05 A Forest Of Stars - Opportunistic Thieves Of Spring (2010)
Register
(5) demonosz, infiltrator, Spunkynut, unas.slayer.of.gods, varg-38ru,
Mar 2 2016, 14:21:00 Warrior - The Code Of Life (2001)
Register
(1) Spunkynut,
Mar 2 2016, 03:03:54 Warrior - Ancient Future (1998)
Register
(1) Spunkynut,

34 Pages V   1 2 3 > » 
- Lo-Fi Version Support form
Copyrights and abuse reports form
Time is now: 9th December 2019 - 20:21:50