Welcome Guest ( Log In | Register )

История благодарностей участнику ElfinQueen ::: Спасибо сказали: 2304 раз(а)
Дата поста: В теме: За сообщение: Спасибо сказали:
Mar 2 2016, 03:02:21 Warrior - Fighting For The Earth (1985)
Register
(1) Spunkynut,
Feb 29 2016, 17:22:00 Mystic Circle - Open The Gates Of Hell (2003)
Register
(1) Unleashed,
Feb 29 2016, 17:20:50 Mystic Circle - Damien (2002)
Register
(1) Unleashed,
Feb 29 2016, 17:19:57 Mystic Circle - Infernal Satanic Verses (1999)
Register
(1) Unleashed,
Feb 29 2016, 17:17:57 Mystic Circle - Morgenrote - Der Shrei Nach Finsternis (1997)
Register
(3) Beazth, juanguillermo13, Unleashed,
Feb 28 2016, 18:41:45 Demiurg - Slakthus Gamleby (2010)
Register
(2) Madball, varlam4,
Feb 28 2016, 18:40:13 Demiurg - Breath Of The Demiurg (2007)
Register
(3) cuimit1349, Darkthronefoad, varlam4,
Feb 28 2016, 14:38:44 Abattoir - The Only Safe Place (1986)
Register
(2) ddarkthrone, varlam4,
Feb 28 2016, 14:36:35 Abattoir - Vicious Attack (1985)
Register
(5) avather, ddarkthrone, marilin, vader69, varlam4,
Feb 28 2016, 13:26:03 Wilds Forlorn - We, The Damned (2012)
Register
(5) artscald, kim666, satanist666, ShmiT, wendigo,
Feb 28 2016, 13:24:19 Wilds Forlorn - The Great Loss (2010)
Register
(1) navia,
Feb 26 2016, 03:02:56 Falloch - Where Distant Spirits Remain (2011)
Register
(1) SatanicPanzer,
Feb 25 2016, 16:40:29 Vinterland - Welcome My Last Chapter (1997)
Register
(3) varg-38ru, WarriorSoul, zlvd,
Feb 23 2016, 13:00:05 Demoniac - Touch The Wind (1992)


*Artist: Demoniac
*Album: Touch The Wind
*Year: 1992
*Genre: Power/Speed Metal
*Country: Serbia
*Format: mp3@CBR320kbps
*Size: 94MB

Tracklist:
1. Intro / Coming Again 06:21
2. No More Lies 04:46
3. And After All 04:30
4. Livin' in Another World 05:39
5. Touch the Wind 04:41
6. Young & Proud 04:06
7. Winds of War 06:168.
8. Total Thrash 03:17
******************************
Total playing time: 39:36

[more=Technical info]
Input File: 02 - No More Lies.mp3
Channels : 2
Sample Rate : 48000
Precision : 16-bit
Duration : 00:04:49.85 = 13912848 samples ~ 21738.8 CDDA sectors
File Size : 11.6M
Bit Rate : 320k
Sample Encoding: MPEG audio (layer I, II or III)
Comments :
Title=No More Lies
Artist=Demoniac
Album=Touch the Wind
Tracknumber=2
Year=1992
Genre=Power / Speed Metal

[/more]

Register
(13) avkruchinin, Barricade, Corpuscul, Dark Sage, Darkness, ExeThrash, Mogozoz, morbidangelo, oldvarg, Rosen, varlam4, wreak, ZambuL,
Feb 19 2016, 17:11:30 Beyond The Embrace - Insect Song (2004)
Register
(1) samokot,
Feb 19 2016, 17:10:50 Beyond The Embrace - Against The Elements (2002)
Register
(1) samokot,
Feb 18 2016, 17:46:51 Bane Of Winterstorm - The Last Sons Of Perylin (2013)
Register
(1) ilovemosh,
Feb 7 2016, 18:40:01 Pretty Maids - Spooked (1997)
Register
(1) avkruchinin,
Feb 7 2016, 18:39:09 Pretty Maids - Scream (1995)
Register
(1) varlam4,
Feb 3 2016, 03:06:10 Circle II Circle - Reign Of Darkness (2015)
Register
(1) Ulfhethnaar,
Jan 31 2016, 16:00:18 The Amenta - Flesh Is Heir (2013)
Register
(2) DMIYUR, varlam4,
Jan 31 2016, 15:59:28 The Amenta - NOn (2008)
Register
(2) DMIYUR, varlam4,
Jan 31 2016, 15:58:34 The Amenta - Occasus (2004)
Register
(2) DMIYUR, varlam4,
Jan 28 2016, 07:31:43 Keldian - Outbound (2013)
Register
(1) varlam4,
Jan 28 2016, 07:30:48 Keldian - Journey Of Souls (2008)
Register
(1) varlam4,

34 Pages V  < 1 2 3 4 > » 
- Lo-Fi Version Support form
Copyrights and abuse reports form
Time is now: 4th June 2020 - 18:53:32