Welcome Guest ( Log In | Register )

История благодарностей участнику ElfinQueen ::: Спасибо сказали: 2304 раз(а)
Дата поста: В теме: За сообщение: Спасибо сказали:
Jan 28 2016, 07:29:25 Keldian - Heaven'S Gate (2006)
Register
(1) varlam4,
Jan 24 2016, 17:36:06 Ironware - Break Out (2003)
Register
(1) varlam4,
Jan 21 2016, 12:30:40 Agent Steel - Alienigma (2007)
Register
(1) varlam4,
Jan 21 2016, 12:29:45 Agent Steel - Order Of The Illuminati (2003)
Register
(1) varlam4,
Jan 21 2016, 12:27:51 Agent Steel - Omega Conspiracy (1999)
Register
(1) varlam4,
Jan 16 2016, 09:51:38 Farmer Boys - The Other Side (2003)
Register
(1) mort,
Jan 16 2016, 09:50:51 Farmer Boys - The World Is Ours (2000)
Register
(1) mort,
Jan 16 2016, 09:49:52 Farmer Boys - Till The Cows Come Home (1997)
Register
(1) mort,
Jan 16 2016, 09:49:03 Farmer Boys - Countrified (1995)
Register
(1) mort,
Jan 16 2016, 09:12:34 Fifth Angel - Time Will Tell (1989)
Register
(1) dimitris p.,
Jan 16 2016, 09:11:49 Fifth Angel - Fifth Angel (1986)
Register
(1) dimitris p.,
Jan 13 2016, 17:50:19 Spiritual Beggars - Earth Blues (2013)
Register
(1) varlam4,
Jan 13 2016, 17:48:54 Spiritual Beggars - Demons (2004)
Register
(1) varlam4,
Jan 13 2016, 17:47:37 Spiritual Beggars - Ad Astra (2000)
Register
(1) varlam4,
Jan 3 2016, 18:51:17 Sister Sin - Black Lotus (2014)
Register
(2) avkruchinin, varlam4,
Jan 3 2016, 18:50:20 Sister Sin - True Sound Of The Underground (2010)
Register
(2) Spunkynut, varlam4,
Jan 3 2016, 18:48:39 Sister Sin - Switchblade Serenades (2008)
Register
(2) Spunkynut, varlam4,
Jan 3 2016, 18:26:11 Sister Sin - Dance Of The Wicked (2003)


*Artist: Sister Sin
*Album: Dance Of The Wicked
*Year: 2003
*Genre: Heavy Metal
*Country: Sweden
*Format: mp3@CBR320kbps
*Size: 96MB

Tracklist:
1. Kiss the Sky 04:12
2. Dance of the Wicked 03:10
3. Fall into My Dreams 04:19
4. End of the Beginning 01:30
5. Love Lies 04:19
6. Dirty Damn 03:19
7. Paint It Black (The Rolling Stones cover) 03:18
8. Tragedy Loves Company 04:41
9. Minor You (Major Me) (Demo) 3:41
10. Writings on the Wall (Demo) 3:33
11. Head over Heels for Love (Demo) 3:30
12. Rock 'n Roll (Motörhead Cover feat. Doro) 3:34
******************************
Total playing time: 43:06

[more=Technical info]
Input File: 03 - Fall Into My Dreams.mp3
Channels : 2
Sample Rate : 44100
Precision : 16-bit
Duration : 00:04:20.00 = 11465912 samples = 19499.9 CDDA sectors
File Size : 10.4M
Bit Rate : 320k
Sample Encoding: MPEG audio (layer I, II or III)
Comments :
Title=Fall Into My Dreams
Artist=Sister Sin
Album=Dance Of The Wicked
Tracknumber=03
Year=2003
Genre=Heavy Metal

[/more]

Register
(14) AHBAnep, avkruchinin, DTGB, gwynnbleid, metala, METALHUNTER, Mogozoz, morbidangelo, oldvarg, Rosen, spiritualdecay666, varlam4, wgs73, wreak,
Dec 26 2015, 11:25:55 Waltari - You Are Waltari (2015)
Register
(1) DMIYUR,
Dec 26 2015, 11:24:57 Waltari - Covers All - The 25th Anniversary Album (2011)
Register
(1) DMIYUR,
Dec 26 2015, 11:22:52 Waltari - Below Zero (2009)
Register
(1) DMIYUR,
Dec 26 2015, 11:22:01 Waltari - Release Date (2007)
Register
(1) DMIYUR,
Dec 26 2015, 04:20:51 Waltari - Yeah! Yeah! Die! Die! A Death Metal Symphony In Deep C (1996)
Register
(1) Grind3r666,
Dec 26 2015, 04:19:58 Waltari - Big Bang (1995)
Register
(1) Grind3r666,
Dec 26 2015, 04:17:34 Waltari - Torcha! (1992)
Register
(1) Grind3r666,

34 Pages V  < 1 2 3 4 5 > » 
- Lo-Fi Version Support form
Copyrights and abuse reports form
Time is now: 30th May 2020 - 23:24:32