Welcome Guest ( Log In | Register )

История благодарностей участнику vasilisk ::: Спасибо сказали: 8373 раз(а)
Дата поста: В теме: За сообщение: Спасибо сказали:
Mar 30 2020, 09:27:49 Verlies - Les Oubliés De La Chute (2020)


*Artist: Verlies
*Album: Les Oubliés De La Chute
*Year: 2020
*Genre: Atmospheric Black Metal
*Country: France
*Format: mp3@CBR320kbps
*Size: 136MB

Tracklist:
01. L'Arrivée
02. Marchandise Des Pouilleux Part. I
03. Marchandise Des Pouilleux Part. II
04. Une Âme A La Mer
05. Brouillard
06. L'Anachorète
07. Victoria
******************************
Total playing time: 58:04

[more=Technical info]
Input File: Verlies - Les Oubliés De La Chute - 04 Une Âme A La Mer.mp3
Channels : 2
Sample Rate : 44100
Precision : 16-bit
Duration : 00:07:18.65 = 19344289 samples = 32898.5 CDDA sectors
File Size : 17.6M
Bit Rate : 321k
Sample Encoding: MPEG audio (layer I, II or III)
Comments :
Title=Une Âme A La Mer
Artist=Verlies
Album=Les Oubliés De La Chute
Tracknumber=4
Year=2020

[/more]

Register
(19) 1968_janeart, AlexSmith, alikkon, atavist, Glioma, infiltrator, kim666, morbidangelo, murian, nemx, randumbum, robertho777, senecazm, sergsazan, Shadechaser, SilentNidhogg, stub888, VALERY, vasiljev_sergej,
Mar 27 2020, 02:14:56 Denial Of God - The Horrors Of Satan (2020)


*Artist: Denial Of God
*Album: The Horrors Of Satan
*Year: 2020
*Genre: Black Metal
*Country: Denmark
*Format: mp3@CBR320kbps
*Size: 129MB

Tracklist:
01. The Coming
02. The Curse of the Witch
03. The Witch - Now a Restless Spirit
04. The Book of Oiufael
05. Cycle of the Wolf
06. The Iron Gibbet
07. A Night in Transylvania
08. To the Devil
09. The Horrors of Satan
******************************
Total playing time: 56:12

[more=Technical info]
Input File: 4 - The Book of Oiufael.mp3
Channels : 2
Sample Rate : 44100
Precision : 16-bit
Duration : 00:06:20.03 = 16759191 samples = 28502 CDDA sectors
File Size : 15.3M
Bit Rate : 322k
Sample Encoding: MPEG audio (layer I, II or III)
Comments :
Title=The Book of Oiufael
Artist=Denial of God
Album=The Horrors of Satan
Tracknumber=4
Year=2020
Genre=Rock
Discnumber=1

[/more]

Register
(21) atavist, cist, ForzaMinardi1977, infiltrator, LEGION69, marilin, multizwilling, peppuzzo, randumbum, robertho777, satanist666, SilentNidhogg, Sjelekval, stub888, thenecromancer, THROWER666, tim47, toly1917, VALERY, varlam4, vasiljev_sergej,
Mar 22 2020, 10:37:19 Koschcoroth - Ozvěny Melancholie (2020)


*Artist: Koschcoroth
*Album: Ozvěny Melancholie
*Year: 2020
*Genre: Atmospheric Black Metal
*Country: Czech Republic
*Format: mp3@CBR320kbps
*Size: 167MB

Tracklist:
01. Yavanna
02. Minstrel smrti
03. Podzimní melancholie 2
04. Hlas naděje
05. Černý kov
06. Král noci
07. Slzavé moře ztracených snů
08. Poutník
09. Běsnění živlů
10. Cesta ke hvězdám (ft. Diskošek 3000)
******************************
Total playing time: 1:11:43

[more=Technical info]
Input File: Koschcoroth - Ozvěny melancholie - 01 Yavanna.mp3
Channels : 2
Sample Rate : 44100
Precision : 16-bit
Duration : 00:07:14.60 = 19165728 samples = 32594.8 CDDA sectors
File Size : 17.5M
Bit Rate : 323k
Sample Encoding: MPEG audio (layer I, II or III)
Comments :
Title=Yavanna
Artist=Koschcoroth
Album=Ozvěny melancholie
Tracknumber=1
Year=2020

[/more]

Register
(15) aleon, infiltrator, kim666, multizwilling, Olethros, ondrazevsi, peppuzzo, randumbum, robertho777, satanist666, senecazm, Shadechaser, SilentNidhogg, VALERY, vasiljev_sergej,
Mar 21 2020, 00:15:30 Tenside - Glamour & Gloom (2020)


*Artist: Tenside
*Album: Glamour & Gloom
*Year: 2020
*Genre: Thrash/Groove Metal
*Country: Germany
*Format: mp3@CBR320kbps
*Size: 106MB

Tracklist:
01. Glamour & Gloom 05:11
02. As Above so Below 04:13
03. Along with the Gods 03:33
04. Cannibals 03:42
05. The Devil Within 04:18
06. The Last Anthem 04:10
07. Only the Brave 04:04
08. Voyage of the Damned 03:46
09. Written in Blood 03:59
10. Overcome 03:49
11. All Black Everything 05:04
******************************
Total playing time: 45:55

[more=Technical info]
Input File: 1 - Glamour & Gloom.mp3
Channels : 2
Sample Rate : 44100
Precision : 16-bit
Duration : 00:05:11.69 = 13745397 samples = 23376.5 CDDA sectors
File Size : 12.5M
Bit Rate : 321k
Sample Encoding: MPEG audio (layer I, II or III)
Comments :
Title=Glamour & Gloom
Artist=Tenside
Album=Glamour & Gloom
Tracknumber=1
Year=2020
Genre=Rock / Hard Rock / Metal
Discnumber=1

[/more]

Register
(9) boby9052, chipsgott, gwar, infiltrator, infozahist, metala, morbidangelo, Olethros, sadmannn,
Mar 14 2020, 09:56:36 Redwood Hill - Ender (2020)


*Artist: Redwood Hill
*Album: Ender
*Year: 2020
*Genre: Post-Black Metal/Sludge
*Country: Denmark
*Format: mp3@CBR320kbps
*Size: 157MB

Tracklist:
01. Singularity (10:08)
02. No Horizon (7:28)
03. Descender (2:44)
04. Nihil (5:38)
05. Leben (7:10)
06. Black Heart (5:55)
07. Absence (7:02)
08. Collider (3:28)
09. Polar (7:23)
10. The Passage (7:51)
11. Ender (3:21)
******************************
Total playing time: 1:08:10

[more=Technical info]
Input File: 7 - Absence.mp3
Channels : 2
Sample Rate : 44100
Precision : 16-bit
Duration : 00:07:02.19 = 18618623 samples = 31664.3 CDDA sectors
File Size : 17.0M
Bit Rate : 321k
Sample Encoding: MPEG audio (layer I, II or III)
Comments :
Title=Absence
Artist=Redwood Hill
Album=Ender
Tracknumber=7
Year=2020
Genre=Metal
Discnumber=1

[/more]

Register
(1) MeatWolf,
Mar 7 2020, 11:53:07 Crystal Coffin - The Transformation Room (2020)


*Artist: Crystal Coffin
*Album: The Transformation Room
*Year: 2020
*Genre: Melodic Black Metal
*Country: Canada
*Format: mp3@CBR320kbps
*Size: 97MB

Tracklist:
1.Prelude: My Friendly Epistle
2.Ride Through The Night
3.Famine (The Waking Of The Beast)
4.As Certain As The Grave
5.The Inverted Burial Of Taras
6.I Emerge
7.As We Pass
8.The Transformation Room
******************************
Total playing time: 39:00

[more=Technical info]
Input File: 04 - As Certain As the Grave.mp3
Channels : 2
Sample Rate : 44100
Precision : 16-bit
Duration : 00:07:35.42 = 20084066 samples = 34156.6 CDDA sectors
File Size : 18.7M
Bit Rate : 328k
Sample Encoding: MPEG audio (layer I, II or III)
Comments :
Title=As Certain As the Grave
Artist=Crystal Coffin
Album=The Transformation Room
Tracknumber=4
Year=2020
Genre=Black Metal
Discnumber=1

[/more]

Register
(30) 1968_janeart, alikkon, ASkyThatBurns, atavist, BugEyes, djsema4, eternald, infiltrator, kim666, kimkayoung, Korpse, metala, Metropolis, Mogozoz, multizwilling, Niknne, Olethros, robertho777, Sanctus, satanist666, senecazm, sergsazan, SilentNidhogg, suseka, VALERY, vasiljev_sergej, wanderer73, wn129aa, wreak, zhol,
Mar 5 2020, 22:13:11 Pure Wrath - The Forlorn Soldier [ep] (2020)


*Artist: Pure Wrath
*Album: The Forlorn Soldier [ep]
*Year: 2020
*Genre: Atmospheric Black Metal
*Country: Indonesia
*Format: mp3@CBR320kbps
*Size: 63MB

Tracklist:
01. When a Great Man Dies
02. Children of the Homeland
03. With Their Names Engraved
******************************
Total playing time: 27:26

[more=Technical info]
Input File: 2 - Children of the Homeland.mp3
Channels : 2
Sample Rate : 44100
Precision : 16-bit
Duration : 00:09:46.62 = 25869722 samples = 43996.1 CDDA sectors
File Size : 23.5M
Bit Rate : 321k
Sample Encoding: MPEG audio (layer I, II or III)
Comments :
Title=Children of the Homeland
Artist=Pure Wrath
Album=The Forlorn Soldier
Tracknumber=2
Year=2020
Genre=Rock
Discnumber=1

[/more]

Register
(32) 1968_janeart, aleon, ASkyThatBurns, Black Cat, Boozer, Daale, djsema4, Druidir, exorcist1969, Femto, Ildjarn, Indamage, infiltrator, kim666, Korpse, Maximvs, murian, Olethros, Ostinato, robertho777, sabr, satanist666, senecazm, Shadechaser, SilentNidhogg, SortVokter, TeamatSE, VALERY, vasiljev_sergej, vovenom, xarmendarizx, Авел,
Mar 5 2020, 10:43:29 Artach - Chronicles Of A Black Winter (2020)


*Artist: Artach
*Album: Chronicles Of A Black Winter
*Year: 2020
*Genre: Epic Black Metal
*Country: Canada
*Format: mp3@CBR320kbps
*Size: 103MB

Tracklist:
1. Eternal Black Winter
2. Permafrost
3. Leviathan... Rise
4. Ice Raven
5. Frozen In Time
6. The Fallen Ones
7. When The Forest Ends
8. Fire & Ice
9. Jewel Throne (Celtic Frost Cover) [Bonus]
******************************
Total playing time: 45:15

[more=Technical info]
Input File: 03 - Leviathan... Rise.mp3
Channels : 2
Sample Rate : 44100
Precision : 16-bit
Duration : 00:06:38.63 = 17579451 samples = 29897 CDDA sectors
File Size : 15.9M
Bit Rate : 320k
Sample Encoding: MPEG audio (layer I, II or III)
Comments :
Title=Leviathan... Rise
Artist=Artach
Album=Chronicles of a Black Winter
Tracknumber=3
Year=2020
Genre=Black Metal

[/more]

Register
(33) alikkon, ASkyThatBurns, atavist, boby9052, Bzth, caro, infiltrator, kim666, metala, Mogozoz, multizwilling, Niknne, nsk2008, oldvarg, Olethros, Ostinato, randumbum, satanist666, sergsazan, Shadechaser, SilentNidhogg, stub888, Surt, talismanFS, toly1917, tOmV, VALERY, varlam4, vasiljev_sergej, Wail, wreak, zhol, Сварог Барг,
Mar 4 2020, 10:14:12 Galactic Tyrannosaur - Voyager (2020)


*Artist: Galactic Tyrannosaur
*Album: Voyager
*Year: 2020
*Genre: Stoner/Doom Metal/Instrumental
*Country: United States
*Format: mp3@CBR320kbps
*Size: 90MB

Tracklist:
1. Through The Atlas (03:26)
2. Voyager (04:58)
3. The Fabric Of Space And Time (03:54)
4. Land Of The Lost (03:01)
5. Carnotaurus (05:04)
6. Emerald River (04:54)
7. Apollo's Curse (05:59)
8. Ascending (07:11)
******************************
Total playing time: 38:27

[more=Technical info]
Input File: 07 Apollo\'s Curse.mp3
Channels : 2
Sample Rate : 44100
Precision : 16-bit
Duration : 00:05:58.92 = 15828328 samples = 26918.9 CDDA sectors
File Size : 14.7M
Bit Rate : 327k
Sample Encoding: MPEG audio (layer I, II or III)
Comments :
Title=Apollo's Curse
Artist=Galactic Tyrannosaur
Album=Voyager
Tracknumber=7
Year=2020
Genre=Metal

[/more]

Register
(1) infiltrator,
Mar 3 2020, 09:50:25 Nobody Exists On Purpose - Nobody Exists On Purpose (2020)


*Artist: Nobody Exists On Purpose
*Album: Nobody Exists On Purpose
*Year: 2020
*Genre: Death Metal/Metalcore
*Country: Germany
*Format: mp3@CBR320kbps
*Size: 104MB

Tracklist:
01. Arrival
02. Arsonist
03. Farewell
04. Gone
05. Follow Your Leader
06. Hate
07. The Voiceless
08. Ikarus
09. Once Upon a Time in Stockholm
10. The Reckoning
******************************
Total playing time: 44:04

[more=Technical info]
Input File: 02. Arsonist.mp3
Channels : 2
Sample Rate : 44100
Precision : 16-bit
Duration : 00:05:58.66 = 15816818 samples = 26899.4 CDDA sectors
File Size : 14.7M
Bit Rate : 327k
Sample Encoding: MPEG audio (layer I, II or III)
Comments :
Title=Arsonist
Artist=Nobody Exists on Purpose
Album=Nobody Exists on Purpose
Tracknumber=2/10
Year=2020

[/more]

Register
(9) ASkyThatBurns, caro, infiltrator, Olethros, Sanctus, satanist666, soulflesh, terron, zhol,
Mar 2 2020, 10:10:31 Tristitia - Burial Of The Sad (2020)


*Artist: Tristitia
*Album: Burial Of The Sad
*Year: 2020
*Genre: Doom Metal
*Country: Sweden
*Format: mp3@CBR320kbps
*Size: 89MB

Tracklist:
1. Introitus
2. River Of The Cross
3. Doomdaze
4. Autumn Leaves
5. Dragged To The Cross
6. Twice The Bleeding
7. Dream Crystal Castle
8. Fallen Winter Skies
9. Winter Dead
10. Burial Of The Sad
******************************
Total playing time: 37:22

[more=Technical info]
Input File: 06 - Twice the Bleeding.mp3
Channels : 2
Sample Rate : 44100
Precision : 16-bit
Duration : 00:06:21.15 = 16808715 samples = 28586.2 CDDA sectors
File Size : 15.4M
Bit Rate : 324k
Sample Encoding: MPEG audio (layer I, II or III)
Comments :
Title=Twice the Bleeding
Artist=Tristitia
Album=Burial of the Sad
Tracknumber=6
Year=2020
Genre=Metal

[/more]

Register
(41) ASkyThatBurns, BlackTroll, cesar, Der_Hexer, doomTemplar, dulak, fylopaloma, grimmstone, HMHamster, infiltrator, kostja, lucifix, metala, metaleiro, nadin85, Narasimha, nsk2008, oldvarg, Olethros, Orgasmik, paganheart, quicksand, SaintVitus, sandr666, satanist666, Satyr, sergsazan, Strygaldwir, stub888, stumpheavyrock, supremo, TeamatSE, terron, thenecromancer, troll_swamp, VALERY, Veggr, vov7609, Vrhunski Mag, Wail, Герб,
Feb 24 2020, 10:52:38 Новости направления MDM

Трек-лист:

"Hail Of Steel"
"Horizon On Fire"
"Reaper"
"The Hammer"
"Eye Of The Storm"
"Born From Fire"
"Arrows Of Chaos"
"Ashes"
https://www.youtube.com/watch?time_continue...eature=emb_logo
(3) infiltrator, Old Vyaine, suseka,
Feb 7 2020, 20:31:42 Новости направления MBM| Symphonic Black Metal| Post-BM
...and Oceans
Треклист:
01. The Dissolution Of Mind And Matter
02. Vigilance And Atrophy
03. Five Of Swords
04. As The After Becomes The Before
05. Cosmic World Mother
06. Helminthiasis
07. Oscillator Epitaph
08. In Abhorrence Upon Meadows
09. Apokatastasis
10. One Of Light, One Of Soil
11. The Flickering Lights
(4) avather, DarkHorde, infiltrator, mirotvorets,
Feb 2 2020, 11:41:41 Новости Black-направления
[youtube]pdAbZXMO8Bg[/youtube]
(4) Black Cat, Cosmic_Sorcerer, Dmitry1977, infiltrator,
Jan 2 2020, 09:10:15 Beezlefeast - Fear Engine, Vol 2: Stone Ocean (2019)


*Artist: Beezlefeast
*Album: Fear Engine, Vol 2: Stone Ocean
*Year: 2019
*Genre: Progressive Death Metal
*Country: United States
*Format: mp3@CBR320kbps
*Size: 108MB

Tracklist:
1.Creepy Intro
2.Uncle Knuckles
3.Logic Of A Nightmare
4.Geppetto's Mistakes
5.Scáthán
6.A Treachery Of Owls
7.The Silents
8.Bear Semen
9.Wolf Moon (feat. Nichole Hobbs)
******************************
Total playing time: 47:03

[more=Technical info]
Input File: 06 - A Treachery of Owls.mp3
Channels : 2
Sample Rate : 44100
Precision : 16-bit
Duration : 00:05:39.43 = 14968863 samples = 25457.2 CDDA sectors
File Size : 13.6M
Bit Rate : 320k
Sample Encoding: MPEG audio (layer I, II or III)
Comments :
Title=A Treachery of Owls
Artist=Beezlefeast
Album=Fear Engine, Vol 2: Stone Ocean
Tracknumber=6
Year=2019
Genre=Metal
Discnumber=1

[/more]

Register
(9) ASkyThatBurns, Hell_Is_Here, kimkayoung, metala, multizwilling, Olethros, Rosen, VALERY, varlam4,
Dec 29 2019, 15:05:30 An Isolated Mind - Self Titled (2020)


*Artist: An Isolated Mind
*Album: Self Titled
*Year: 2020
*Genre: Avant-Garde Black Metal
*Country: United States
*Format: mp3@CBR320kbps
*Size: 75MB

Tracklist:
1. Fear
2. Euphoria
3. 5150
4. Mia
5. Sempervirens
6. Moving Forward
******************************
Total playing time: 32:35




[more=Technical info]
Input File: 05. An Isolated Mind - Sempervirens.mp3
Channels : 2
Sample Rate : 44100
Precision : 16-bit
Duration : 00:06:29.79 = 17189915 samples = 29234.5 CDDA sectors
File Size : 15.7M
Bit Rate : 322k
Sample Encoding: MPEG audio (layer I, II or III)
Comments :
Title=Sempervirens
Artist=An Isolated Mind
Album=Self Titled
Tracknumber=5
Year=2020

[/more]

Register
(6) boby9052, infiltrator, kimkayoung, kolar666, stub888, varlam4,
Dec 28 2019, 13:20:11 Grave With A View - Godless And Wild (2019)


*Artist: Grave With A View
*Album: Godless And Wild
*Year: 2019
*Genre: Death Metal/Death N Roll
*Country: Finland
*Format: mp3@CBR320kbps
*Size: 84MB

Tracklist:
01. Scorch
02. The Halo and the Noose
03. Lightless Void
04. Weight of the Gods
05. In the Arms of Decay
06. Never
07. Ignored Forever
08. Demon Days
09. Rivers of Light
******************************
Total playing time: 34:48

[more=Technical info]
Input File: 09. Rivers of Light.mp3
Channels : 2
Sample Rate : 44100
Precision : 16-bit
Duration : 00:06:17.47 = 16646295 samples = 28310 CDDA sectors
File Size : 15.5M
Bit Rate : 330k
Sample Encoding: MPEG audio (layer I, II or III)
Comments :
Title=Rivers of Light
Artist=Grave With a View
Album=Godless and Wild
Tracknumber=9/9
Year=2019

[/more]

Register
(10) ASkyThatBurns, atavist, chipsgott, infiltrator, jollo, Olethros, Ostinato, Rosen, soulflesh, stumpheavyrock,
Dec 26 2019, 00:18:07 Новости Black-направления
YGG
[youtube]4-beWa012Z4[/youtube]
(5) Black Cat, CultMetalSerge, infiltrator, technoboy69, tormoz,
Dec 21 2019, 10:17:25 Demonshire - Prologue Dawn Of The War (2019)


*Artist: Demonshire
*Album: Prologue Dawn Of The War
*Year: 2019
*Genre: Melodic Death Metal
*Country: Sweden
*Format: mp3@CBR320kbps
*Size: 91MB

Tracklist:
01. Satharion
02. Dawn of the War
03. Trail of Blood
04. No One Dies Alone
05. Satharion (Instrumental)
06. Dawn of the War (Instrumental)
07. Trail of Blood (Instrumental)
08. No One Dies Alone (Instrumental)
******************************
Total playing time: 37:56

[more=Technical info]
Input File: 04. No One Dies Alone.mp3
Channels : 2
Sample Rate : 44100
Precision : 16-bit
Duration : 00:04:40.52 = 12370976 samples = 21039.1 CDDA sectors
File Size : 11.8M
Bit Rate : 337k
Sample Encoding: MPEG audio (layer I, II or III)
Comments :
Title=No One Dies Alone
Artist=Demonshire
Album=Prologue: Dawn of the War
Tracknumber=4/8
Year=2019

[/more]

Register
(30) akym, Andrew, ASkyThatBurns, Ice Gnoll, infiltrator, infozahist, lldma, Ludwig Hagen, Mogozoz, morbidangelo, oldvarg, Olethros, Olrak, Ostinato, Rosen, SaintVitus, satanist666, sergsazan, slonin, soulflesh, talismanFS, TeamatSE, terron, VALERY, wanderer73, wn129aa, wreak, zhol, Сварог Барг, скептик,
Dec 20 2019, 12:11:19 Spiteborn - Bone Trails (2019)


*Artist: Spiteborn
*Album: Bone Trails
*Year: 2019
*Genre: Death Metal/Hardcore
*Country: Finland
*Format: mp3@CBR320kbps
*Size: 97MB

Tracklist:
01. Gospel of Blood
02. Gallows
03. Accursed
04. Worlds to Burn
05. The Faithful Departed
06. To Breed and Worship
07. Lifeblood
08. Limbs
09. Blades of Initiation
10. Shadows in the Abattoir
******************************
Total playing time: 38:22

[more=Technical info]
Input File: 03. Accursed.mp3
Channels : 2
Sample Rate : 44100
Precision : 16-bit
Duration : 00:03:41.48 = 9767312 samples = 16611.1 CDDA sectors
File Size : 9.70M
Bit Rate : 350k
Sample Encoding: MPEG audio (layer I, II or III)
Comments :
Title=Accursed
Artist=SPITEBORN
Album=Bone Trails
Tracknumber=3/10
Year=2019

[/more]

Register
(13) ASkyThatBurns, atavist, infiltrator, jollo, Morgoth, multizwilling, Olethros, Rosen, soulflesh, terron, VALERY, wreak, Герб,
Dec 18 2019, 10:51:16 Kathartik - Mind.Abyss.Terror (2019)


*Artist: Kathartik
*Album: Mind.Abyss.Terror
*Year: 2019
*Genre: Black/Death Metal
*Country: Germany
*Format: mp3@CBR320kbps
*Size: 117MB

Tracklist:
1. Cult 2.9
2. Mind.Abyss.Terror
3. Glasseater
4. Instinkt
5. Restless Eyes
6. Abrasive Storm
7. Black Horizon
8. All You Cunts Mean Shit To Me
9. Immanent Destruction
10. Of Fire & Floods Pt. I
11. Of Fire & Floods Pt. II
******************************
Total playing time: 51:07

[more=Technical info]
Input File: 05. Restless Eyes.mp3
Channels : 2
Sample Rate : 44100
Precision : 16-bit
Duration : 00:05:33.92 = 14725784 samples = 25043.9 CDDA sectors
File Size : 13.4M
Bit Rate : 320k
Sample Encoding: MPEG audio (layer I, II or III)
Comments :
Title=Restless Eyes
Artist=Kathartik
Album=Mind.Abyss.Terror
Tracknumber=05
Year=2019
Genre=Death Metal

[/more]

Register
(23) ASkyThatBurns, atavist, czeski21, eternald, kim666, lldma, morbidangelo, multizwilling, older68, Olethros, Ostin Devil, Rosen, Sanctus, satanist666, SilentNidhogg, stumpheavyrock, suseka, tim47, VALERY, varlam4, vasiljev_sergej, vov7609, yuratroll,
Dec 16 2019, 10:14:12 Lost To The Void - Necrotic Ideology [ep] (2019)


*Artist: Lost To The Void
*Album: Necrotic Ideology [ep]
*Year: 2019
*Genre: Death Metal/Deathcore
*Country: United States
*Format: mp3@CBR320kbps
*Size: 67MB

Tracklist:
01. An Exit to..
02. Existence
03. Doomblade Orc Cyclops
04. ?
05. Necrotic Ideology
06. Enlightenment
07. Celestial Host, Pt. 1
08. Celestial Host, Pt. 2
******************************
Total playing time: 28:56

[more=Technical info]
Input File: Lost to the Void - Necrotic Ideology - 02 Existence.mp3
Channels : 2
Sample Rate : 44100
Precision : 16-bit
Duration : 00:04:59.07 = 13188811 samples = 22430 CDDA sectors
File Size : 12.1M
Bit Rate : 323k
Sample Encoding: MPEG audio (layer I, II or III)
Comments :
Title=Existence
Artist=Lost to the Void
Album=Necrotic Ideology
Tracknumber=2
Year=2019

[/more]

Register
(6) ASkyThatBurns, infiltrator, Olethros, Rosen, wreak, zhol,
Dec 14 2019, 10:18:46 Xenopredator - Research & Development (2019)


*Artist: Xenopredator
*Album: Research & Development
*Year: 2019
*Genre: Thrash/Death Metal
*Country: United States
*Format: mp3@CBR320kbps
*Size: 142MB

Tracklist:
01. Xenopredatory Regicide
02. Beneath the Earth
03. Colonial Eradication
04. Atomic Deconstruction
05. Research
06. Development
07. Intergalactic Expeditionary Strike Force
08. Close Quarter Battle
09. Mechanically Separated Humans
10. Upon the Blooded Sands
******************************
Total playing time: 59:08

[more=Technical info]
Input File: 06. Development.mp3
Channels : 2
Sample Rate : 44100
Precision : 16-bit
Duration : 00:05:54.01 = 15611753 samples = 26550.6 CDDA sectors
File Size : 14.8M
Bit Rate : 335k
Sample Encoding: MPEG audio (layer I, II or III)
Comments :
Title=Development
Artist=Xenopredator
Album=Research & Development
Tracknumber=6/10
Year=2019

[/more]

Register
(24) atavist, boby9052, Boozer, craP_cillA, fuoco, infiltrator, jollo, Leshiy666, lldma, metala, METALHUNTER, MMMMM, multizwilling, older68, Olethros, Penetralia, Rosen, sergsazan, Shadechaser, stumpheavyrock, varlam4, wanderer73, wreak, Сварог Барг,
Dec 13 2019, 09:49:30 In Human Form - Iii (2019)


*Artist: In Human Form
*Album: Iii
*Year: 2019
*Genre: Progressive Black Metal
*Country: United States
*Format: mp3@CBR320kbps
*Size: 108MB

Tracklist:
1. Apocrypha Carrion
2. Weeping Stones
3. Canonical Detritus
******************************
Total playing time: 47:09

[more=Technical info]
Input File: 02 Weeping Stones.mp3
Channels : 2
Sample Rate : 44100
Precision : 16-bit
Duration : 00:07:45.87 = 20544867 samples = 34940.2 CDDA sectors
File Size : 18.6M
Bit Rate : 320k
Sample Encoding: MPEG audio (layer I, II or III)
Comments :
Title=Weeping Stones
Artist=In Human Form
Album=III
Tracknumber=02
Year=2019
Genre=Metal

[/more]

Register
(20) ASkyThatBurns, atavist, BandR75, Dmitry1977, Femto, Hell_Is_Here, infiltrator, LEGION69, Metalass, MMMMM, morbidangelo, Olethros, Ostinato, robertho777, Rosen, Sergei78, VALERY, varlam4, yuratroll, Например,
Dec 12 2019, 11:00:20 Новости Black-направления
SVARTTJERN

Трек-лист:

“Prince Of Disgust”
“Ment til å Tjene”
“Melodies Of Lust”
“Ta dets Drakt”
“Frost Embalmed Abyss”
“Ravish Me”
“Bonded By Blood”
“Shame Is Just A Word”
https://www.youtube.com/watch?time_continue...eature=emb_logo
(2) infiltrator, Leshiy666,

53 Pages V   1 2 3 > » 
- Lo-Fi Version Support form
Copyrights and abuse reports form
Time is now: 7th April 2020 - 05:09:34