Welcome Guest ( Log In | Register )

История благодарностей участнику vasilisk ::: Спасибо сказали: 8888 раз(а)
Дата поста: В теме: За сообщение: Спасибо сказали:
Jun 21 2020, 23:21:08 Новости Black-направления
garmonbozia,
Так это и есть проект Саенко
(2) Daale, infiltrator,
Jun 16 2020, 23:26:36 Synthvvitch - Destroyer (2020)


*Artist: Synthvvitch
*Album: Destroyer
*Year: 2020
*Genre: Post-Black Metal
*Country: United States
*Format: mp3@CBR320kbps
*Size: 79MB

Tracklist:
01. Destroyer 04:37
02. Disheartening Microcosmic Nostalgia 06:08
03. Life Burner 03:03
04. In the End Hope Will Devour You Too 05:46
05. 43.0125n, 83.6875w 04:12
06. Once She Was a River 05:49
07. Even During the Best Moments 04:53
******************************
Total playing time: 34:28

[more=Technical info]
Input File: 06. Once She Was a River.mp3
Channels : 2
Sample Rate : 44100
Precision : 16-bit
Duration : 00:05:49.38 = 15407834 samples = 26203.8 CDDA sectors
File Size : 14.0M
Bit Rate : 321k
Sample Encoding: MPEG audio (layer I, II or III)
Comments :
Title=Once She Was a River
Artist=Synthvvitch
Album=Destroyer
Tracknumber=6/7
Year=2020
Genre=9
Discnumber=1/1

[/more]

Register
(13) 1968_janeart, AlexSmith, alikkon, grimoir, infiltrator, kim666, Ludwig Hagen, Olethros, randumbum, robertho777, SilentNidhogg, VALERY, vasiljev_sergej,
Jun 16 2020, 22:18:08 Новости Black-направления
Precambrian
(8) acerbus, Daale, Frozenkult, infiltrator, Occultas, postED, suseka, technoboy69,
Jun 15 2020, 15:45:28 Firelink - Firelink (2020)


*Artist: Firelink
*Album: Firelink
*Year: 2020
*Genre: Melodic Black Metal
*Country: United States
*Format: mp3@CBR320kbps
*Size: 98MB

Tracklist:
1. Cerulean Athenaeum 07:24
2. Where Demons Bore 08:21
3. Cloak Of Marrow 07:25
4. Kingseeker 09:48
5. End Of Piety 09:55
******************************
Total playing time: 42:55

[more=Technical info]
Input File: 3 - Cloak of Marrow.mp3
Channels : 2
Sample Rate : 44100
Precision : 16-bit
Duration : 00:07:25.10 = 19628998 samples = 33382.6 CDDA sectors
File Size : 17.8M
Bit Rate : 321k
Sample Encoding: MPEG audio (layer I, II or III)
Comments :
Title=Cloak of Marrow
Artist=Firelink
Album=Firelink
Tracknumber=3
Year=2020
Genre=Metal
Discnumber=1

[/more]

Register
(24) 1968_janeart, alikkon, atavist, DenisKov, goxther, grimoir, infiltrator, legion01, Lukittaz, metala, multizwilling, Olethros, Ostinato, randumbum, robertho777, senecazm, sergsazan, Shadechaser, SilentNidhogg, talismanFS, VALERY, vasiljev_sergej, yuratroll, Сварог Барг,
Jun 1 2020, 10:11:17 Necrotum - Condemned To Burn (2020)


*Artist: Necrotum
*Album: Condemned To Burn
*Year: 2020
*Genre: Death Metal
*Country: Romania
*Format: mp3@CBR320kbps
*Size: 80MB

Tracklist:
01. Doomsday
02. Condemned to Burn
03. Abomination Unleashed
04. Afterlife Torment
05. Reconquered Domain
06. Reborn In Flames
07. Kingdom of the Dead
08. My Resurrection
******************************
Total playing time: 33:30

[more=Technical info]
Input File: 02. Condemned to Burn.mp3
Channels : 2
Sample Rate : 44100
Precision : 16-bit
Duration : 00:04:53.53 = 12944717 samples = 22014.8 CDDA sectors
File Size : 11.7M
Bit Rate : 320k
Sample Encoding: MPEG audio (layer I, II or III)
Comments :
Artist=Necrotum
Album=Condemned to Burn
Year=2020

[/more]

Register
(13) alikkon, andreikun, atavist, cesar, infiltrator, jollo, metala, multizwilling, Olethros, Rosen, Tino, VALERY, vyacheslav,
May 29 2020, 08:52:22 Winters Howl - Instinctive (2020)


*Artist: Winters Howl
*Album: Instinctive
*Year: 2020
*Genre: Melodic Death Metal
*Country: Germany
*Format: mp3@CBR320kbps
*Size: 142MB

Tracklist:
01. Lighthouse 06:08
02. Alchemists 04:45
03. Instinctive (feat. Lenn Blackness) 05:52
04. With My Wolf 04:46
05. Disappearance 04:53
06. Eclipse 04:26
07. Life in London 05:50
08. Ceres 05:40
09. The Luna Protocol 05:58
10. Alpha Omega 04:54
11. Clockwork (feat. Xulxer Bawlsick) 08:17
******************************
Total playing time: 1:01:31

[more=Technical info]
Input File: 3 - Instinctive (feat. Lenn Blackness).mp3
Channels : 2
Sample Rate : 44100
Precision : 16-bit
Duration : 00:05:52.10 = 15527654 samples = 26407.6 CDDA sectors
File Size : 14.2M
Bit Rate : 322k
Sample Encoding: MPEG audio (layer I, II or III)
Comments :
Title=Instinctive (feat. Lenn Blackness)
Artist=Winters Howl/Lenn Blackness
Album=Instinctive
Tracknumber=3
Year=2020
Genre=Metal
Discnumber=1

[/more]

Register
(22) andreylogan, BugEyes, cesar, DenisKov, infiltrator, lldma, Lukittaz, Mogozoz, multizwilling, Olethros, Orgasmik, Rosen, sadmannn, satanist666, sergsazan, soulflesh, talismanFS, VALERY, wanderer73, wn129aa, zhol, Сварог Барг,
May 27 2020, 21:29:24 Beleriand - Far Over Wood And Mountain Tall (2020)


*Artist: Beleriand
*Album: Far Over Wood And Mountain Tall
*Year: 2020
*Genre: Atmospheric Black Metal
*Country: Norway
*Format: mp3@CBR320kbps
*Size: 100MB

Tracklist:
1. The Sky Has Turned Its Heart Away 07:04
2. In The Black Wind The Stars Shall Die 05:50
3. A Morning Clear 01:14
4. Stronger Than Morgul-Spells 06:24
5. Light From The Shadows Shall Spring 06:10
6. ...Where The Shadows Lie 03:29
7. Far Over Wood And Mountain Tall 06:58
8. The Clouds Have Fallen All The Night 05:58
******************************
Total playing time: 43:10

[more=Technical info]
Input File: 04. Stronger Than Morgul-spells.mp3
Channels : 2
Sample Rate : 44100
Precision : 16-bit
Duration : 00:06:24.23 = 16944675 samples = 28817.5 CDDA sectors
File Size : 15.5M
Bit Rate : 322k
Sample Encoding: MPEG audio (layer I, II or III)
Comments :
Title=Stronger Than Morgul-spells
Artist=Beleriand
Album=Far Over Wood and Mountain Tall
Tracknumber=4/8
Genre=9
Discnumber=1/1

[/more]

Register
(52) 0x13, 1968_janeart, AlexSmith, alikkon, autumnwood, cancer1974, craP_cillA, dasreichss, dimpa, djsema4, Druidir, exorcist1969, Faust2016, gav-gafi, GuldenDraak, infiltrator, Jorn777, kim666, kryptor, lucifix, Ludwig Hagen, Lukittaz, Moonshtook, multizwilling, NappyRob, nsk2008, oldvarg, Olethros, Olrak, pfk505, ProstoPuh, rammmirez, randumbum, robertho777, Rosen, satanist666, senecazm, sergsazan, Shadechaser, SilentNidhogg, Sjelekval, Strygaldwir, stub888, supremo, talismanFS, terron, thenecromancer, Torop, VALERY, varlam4, vasiljev_sergej, zargonath,
May 26 2020, 00:09:43 Cosmovore - Into The Necrosphere [ep] (2020)


*Artist: Cosmovore
*Album: Into The Necrosphere [ep]
*Year: 2020
*Genre: Death Metal
*Country: Unknown
*Format: mp3@CBR320kbps
*Size: 64MB

Tracklist:
01. Into the Necrosphere
02. Vessel
03. The Watchers
04. All-Devourer
******************************
Total playing time: 26:56

[more=Technical info]
Input File: 02. Vessel.mp3
Channels : 2
Sample Rate : 44100
Precision : 16-bit
Duration : 00:06:53.34 = 18228074 samples = 31000.1 CDDA sectors
File Size : 17.1M
Bit Rate : 331k
Sample Encoding: MPEG audio (layer I, II or III)
Comments :
Title=Vessel
Artist=Cosmovore
Album=Into the Necrosphere
Tracknumber=2/4
Year=2020

[/more]

Register
(20) cesar, chipsgott, Hell_Is_Here, infiltrator, Lux, mirotvorets, multizwilling, Occultas, Olethros, Ostinato, Rosen, SadistikSlayer, samokot, soulflesh, tormoz, troll_swamp, VALERY, vyacheslav, wanderer73, yuratroll,
May 25 2020, 16:25:31 Effigy Of Hate - Vulture (2020)


*Artist: Effigy Of Hate
*Album: Vulture
*Year: 2020
*Genre: Melodic Black Metal/Ambient
*Country: Canada
*Format: mp3@CBR320kbps
*Size: 101MB

Tracklist:
01. Vulture
02. Consuming Death
03. Vapor
04. Scream a Silent Whisper
05. White Out the Sun
06. Empty Shell
07. Lambs to the Slaughter
08. Ressurection to Rebirth
09. Not Afraid to Speak
******************************
Total playing time: 41:50

[more=Technical info]
Input File: 04. Scream a Silent Whisper.mp3
Channels : 2
Sample Rate : 44100
Precision : 16-bit
Duration : 00:05:44.55 = 15194699 samples = 25841.3 CDDA sectors
File Size : 14.3M
Bit Rate : 333k
Sample Encoding: MPEG audio (layer I, II or III)
Comments :
Title=Scream a Silent Whisper
Artist=Effigy of Hate
Album=Vulture
Tracknumber=4/9
Year=2020

[/more]

Register
(19) 1968_janeart, AlexSmith, djsema4, infiltrator, kim666, multizwilling, Olethros, randumbum, Reverend, robertho777, Rosen, russ777, senecazm, SilentNidhogg, SnaP, suseka, VALERY, vasiljev_sergej, zhol,
May 24 2020, 13:39:47 Spidrax - Obituario [ep] (2020)


*Artist: Spidrax
*Album: Obituario [ep]
*Year: 2020
*Genre: Heavy/Thrash Metal
*Country: Brazil
*Format: mp3@CBR320kbps
*Size: 59MB

Tracklist:
1. Festa Infernal
2. Cemiterio Maldito
3. Psicose
4. Necromancia
5. Missa Negra
6. Corda de Piano
7. Cena Final
8. Enterrado Vivo
******************************
Total playing time: 24:58

[more=Technical info]
Input File: 04 - Necromancia.mp3
Channels : 2
Sample Rate : 44100
Precision : 16-bit
Duration : 00:03:43.47 = 9854851 samples = 16760 CDDA sectors
File Size : 9.10M
Bit Rate : 326k
Sample Encoding: MPEG audio (layer I, II or III)
Comments :
Title=Necromancia
Artist=Spidrax
Album=Obituário
Tracknumber=4
Year=2020

[/more]

Register
(10) boby9052, infiltrator, Lukittaz, minimums, Olethros, Rosen, Rover, stumpheavyrock, Wail, wgs73,
May 22 2020, 12:38:28 Новости Folk/Pagan/Viking
ENSLAVED
[youtube]92ptxt1FQiU[/youtube]
(1) Black Cat,
May 19 2020, 22:29:29 Apophis - Echoes In Eternity (2020)


*Artist: Apophis
*Album: Echoes In Eternity
*Year: 2020
*Genre: Instrumental Melodic Death Metal
*Country: Australia
*Format: mp3@CBR320kbps
*Size: 137MB

Tracklist:
01. Hearts Worn by Savagery
02. White Wolf of Ruin
03. The Three Hunters
04. Hollow Virtues Immemorial
05. Verdun-Sur-Meuse
06. Fall of Beleriand
07. Murakumo-No-Tsurugi
08. Lernaean Hydra
09. Echoes in Eternity
******************************
Total playing time: 59:40

[more=Technical info]
Input File: 08. Lernaean Hydra.mp3
Channels : 2
Sample Rate : 44100
Precision : 16-bit
Duration : 00:05:58.08 = 15791460 samples = 26856.2 CDDA sectors
File Size : 14.4M
Bit Rate : 322k
Sample Encoding: MPEG audio (layer I, II or III)
Comments :
Title=Lernaean Hydra
Artist=Apophis
Album=Echoes in Eternity
Tracknumber=8/9
Year=2020
Genre=9
Discnumber=1/1

[/more]

Register
(7) 0x13, chipsgott, infiltrator, Olethros, troll_swamp, zhol, Сварог Барг,
May 19 2020, 21:59:00 Natural Spirit - Під Серпом Часу (2020)
Не знаю кому как ,а я остался доволен альбомом 20.gif
(1) russ777,
May 18 2020, 20:52:49 Natural Spirit - Під Серпом Часу (2020)
Samaritianin, Благодарю
(2) infiltrator, Samaritianin,
May 11 2020, 22:23:47 Cosmic Burial - Impakt (2020)


*Artist: Cosmic Burial
*Album: Impakt
*Year: 2020
*Genre: Atmospheric Black Metal
*Country: Germany
*Format: mp3@CBR320kbps
*Size: 174MB

Tracklist:
1. EO40 16:18
2. VK184 20:55
3. 101995 19:21
4. 99942 19:10
******************************
Total playing time: 1:15:44

[more=Technical info]
Input File: 01 - EO40.mp3
Channels : 2
Sample Rate : 44100
Precision : 16-bit
Duration : 00:16:18.51 = 43152335 samples = 73388.3 CDDA sectors
File Size : 39.3M
Bit Rate : 321k
Sample Encoding: MPEG audio (layer I, II or III)
Comments :
Title=EO40
Artist=Cosmic Burial
Album=Impakt
Tracknumber=1
Year=2020

[/more]

Register
(24) 1968_janeart, AlexSmith, Buregon, fallen, Indamage, infiltrator, kim666, Lukittaz, multizwilling, murian, Occultas, Olethros, pahail, randumbum, robertho777, Rosen, senecazm, sergsazan, stub888, tim47, VALERY, vasiljev_sergej, V_H_H_V, Wolftribes,
May 9 2020, 23:34:11 Algeia - Patient 34 (2020)


*Artist: Algeia
*Album: Patient 34
*Year: 2020
*Genre: Atmospheric/Depressive Black Metal
*Country: Ukraine
*Format: mp3@CBR320kbps
*Size: 123MB

Tracklist:
01. Psych Ward
02. Stone Heart...
03. Dark Angel
04. Quiet!!!
05. Suicide
06. Long Way (Good Bye)
******************************
Total playing time: 53:42

[more=Technical info]
Input File: 2 - Stone Heart.mp3
Channels : 2
Sample Rate : 44100
Precision : 16-bit
Duration : 00:06:10.86 = 16354838 samples = 27814.4 CDDA sectors
File Size : 14.9M
Bit Rate : 321k
Sample Encoding: MPEG audio (layer I, II or III)
Comments :
Title=Stone Heart
Artist=Algeia
Album=Patient 34
Tracknumber=2
Year=2020
Genre=Metal
Discnumber=1

[/more]

Register
(13) 1968_janeart, Hroft, kim666, multizwilling, Olethros, randumbum, robertho777, senecazm, SilentNidhogg, TeamatSE, VALERY, varlam4, vasiljev_sergej,
May 5 2020, 09:10:51 Secundus - Atrophia (2020)


*Artist: Secundus
*Album: Atrophia
*Year: 2020
*Genre: Black Metal
*Country: United States
*Format: mp3@CBR320kbps
*Size: 87MB

Tracklist:
1. All That Begins... 04:05
2. Whom Gods Abandon 10:43
3. ...Though Immutable... 04:08
4. Of Sorrows Borne 13:33
5. ...Shall Also End 04:10
******************************
Total playing time: 36:42

[more=Technical info]
Input File: Secundus - Atrophia - 04 Of Sorrows Borne.mp3
Channels : 2
Sample Rate : 44100
Precision : 16-bit
Duration : 00:13:33.16 = 35860268 samples = 60986.9 CDDA sectors
File Size : 32.7M
Bit Rate : 321k
Sample Encoding: MPEG audio (layer I, II or III)
Comments :
Title=Of Sorrows Borne
Artist=Secundus
Album=Atrophia
Tracknumber=4
Year=2020

[/more]

Register
(22) atavist, cist, El_Chibo, infiltrator, kim666, Lukittaz, MMMMM, multizwilling, Occultas, Olethros, randumbum, robertho777, Rosen, satanist666, scorpionmk, SilentNidhogg, toly1917, VALERY, varlam4, vasiljev_sergej, yuratroll, некрософ,
May 2 2020, 14:59:11 Vilsen - Vilsen (2020)


*Artist: Vilsen
*Album: Vilsen
*Year: 2020
*Genre: Atmospheric Black Metal
*Country: France
*Format: mp3@CBR320kbps
*Size: 130MB

Tracklist:
1. Souffle (03:19)
2. Achève-moi (14:09)
3. Pluie d'automne (07:28)
4. Ton souvenir (09:41)
5. Lumière céleste (11:52)
6. La nuit (08:57)
******************************
Total playing time: 55:27

[more=Technical info]
Input File: Vilsen - Vilsen - 03 Pluie d\'automne.mp3
Channels : 2
Sample Rate : 44100
Precision : 16-bit
Duration : 00:07:27.84 = 19749788 samples = 33588.1 CDDA sectors
File Size : 18.0M
Bit Rate : 321k
Sample Encoding: MPEG audio (layer I, II or III)
Comments :
Title=Pluie d'automne
Artist=Vilsen
Album=Vilsen
Tracknumber=3
Year=2020

[/more]

Register
(3) AlexSmith, Gylve, stub888,
May 1 2020, 09:12:55 Hell Gate - Par-Delà L'existence (2020)


*Artist: Hell Gate
*Album: Par-Delà L'existence
*Year: 2020
*Genre: Post-Black Metal
*Country: France
*Format: mp3@CBR320kbps
*Size: 123MB

Tracklist:
1. Lumière 03:08
2. Ombre 04:05
3. Pluie de Cendres Pt.1 05:39
4. Esprit Vide 02:40
5. Larmes 09:33
6. Pluie de Cendres Pt.2 05:24
7. Danse Dans le Vent 09:36
8. D'Eau et de Sang 05:48
9. Crépuscule 07:50
******************************
Total playing time: 53:43

[more=Technical info]
Input File: 3 - Pluie de Cendres, Pt. I.mp3
Channels : 2
Sample Rate : 44100
Precision : 16-bit
Duration : 00:05:39.59 = 14975787 samples = 25469 CDDA sectors
File Size : 13.6M
Bit Rate : 321k
Sample Encoding: MPEG audio (layer I, II or III)
Comments :
Title=Pluie de Cendres, Pt. I
Artist=Hell Gate
Album=Par-Delà l'Existence
Tracknumber=3
Year=2020
Genre=Metal
Discnumber=1

[/more]

Register
(21) 0x13, aleon, ctulhudagon, fuoco, HMHamster, igorzz, infiltrator, kim666, multizwilling, Olethros, Ostinato, randumbum, robertho777, Rosen, satanist666, suseka, VALERY, varg-38ru, varlam4, vasiljev_sergej, vov7609,
Apr 26 2020, 09:53:50 Echushkya - The Lanterne (2020)


*Artist: Echushkya
*Album: The Lanterne
*Year: 2020
*Genre: Atmospheric Black Metal
*Country: United States
*Format: mp3@CBR320kbps
*Size: 84MB

Tracklist:
1. Ara III: The Lanterne of Opheleia 06:38
2. Daughters of The Flame 08:42
3. The Dimming Ruin 11:53
4. Gathering the Embers 08:58
******************************
Total playing time: 36:11

[more=Technical info]
Input File: 01 - Ara III The Lanterne of Opheleia.mp3
Channels : 2
Sample Rate : 44100
Precision : 16-bit
Duration : 00:06:37.90 = 17547214 samples = 29842.2 CDDA sectors
File Size : 16.2M
Bit Rate : 327k
Sample Encoding: MPEG audio (layer I, II or III)
Comments :
Title=Ara III: The Lanterne of Opheleia
Artist=Echushkya
Album=The Lanterne
Tracknumber=1
Year=2020

[/more]

Register
(28) AlexSmith, cesar, Corpuscul, infiltrator, kim666, krotovich, LEGION69, MAMARINA, metala, mirotvorets, multizwilling, nemx, Olethros, randumbum, robertho777, Rosen, russ777, satanist666, senecazm, Shadechaser, SilentNidhogg, stub888, suseka, tOmV, VALERY, varlam4, vasiljev_sergej, Wolftribes,
Apr 23 2020, 18:32:49 Azziard - Exegese (2020)


*Artist: Azziard
*Album: Exegese
*Year: 2020
*Genre: Black/Death Metal
*Country: France
*Format: mp3@CBR320kbps
*Size: 103MB

Tracklist:
01. Seven Sermons of the Dead
02. Retrouvailles avec l'Ame
03. The Three Prophecies
04. Incantation
05. The Scarlet Man
06. Images of the Wanderer
07. Le Chemin de Croix
08. The Desert
******************************
Total playing time: 45:03

[more=Technical info]
Input File: 02. Retrouvailles avec l\'Ame.mp3
Channels : 2
Sample Rate : 44100
Precision : 16-bit
Duration : 00:07:04.02 = 18699282 samples = 31801.5 CDDA sectors
File Size : 17.0M
Bit Rate : 321k
Sample Encoding: MPEG audio (layer I, II or III)
Comments :
Title=Retrouvailles avec l'Ame
Artist=Azziard
Album=Exegese
Tracknumber=2/8
Year=2020
Genre=17
Discnumber=1/1

[/more]

Register
(28) AHBAnep, atavist, babanguida, Doooomed, Gylve, Hell_Is_Here, infiltrator, maxapero, metala, Morgoth, multizwilling, obituarydark, Olethros, randumbum, Rosen, satanist666, Shadechaser, SilentNidhogg, SS2998, SyncestrA, Tino, VALERY, varg-38ru, varlam4, vasiljev_sergej, vov7609, wolverine, yuratroll,
Apr 22 2020, 10:25:28 Drought - Trimurti (2020)


*Artist: Drought
*Album: Trimurti
*Year: 2020
*Genre: Black Metal
*Country: Italy
*Format: mp3@CBR320kbps
*Size: 110MB

Tracklist:
01. The Awakening of the Sleeping Serpent
02. Chanting the Overture of the Gate to Para
03. Bharitakara
04. Mystical Solar Eruption
05. Om Tridevaya Namah
06. Trascending the Flesh
07. Sharpening the Weapons of Inner Revolution
08. Lotus Awareness
09. Tantric Supremacy
******************************
Total playing time: 46:54

[more=Technical info]
Input File: 07 - Sharpening the Weapons of Inner Revolution.mp3
Channels : 2
Sample Rate : 44100
Precision : 16-bit
Duration : 00:05:46.09 = 15262657 samples = 25956.9 CDDA sectors
File Size : 14.4M
Bit Rate : 333k
Sample Encoding: MPEG audio (layer I, II or III)
Comments :
Title=Sharpening the Weapons of Inner Revolution
Artist=Drought
Album=Trimurti
Tracknumber=7
Year=2020
Genre=Black Metal

[/more]

Register
(41) 1968_janeart, acerbus, AlexSmith, alikkon, atavist, Boozer, Daale, daemonarch, Evilded, Hell_Is_Here, infiltrator, kim666, LEGION69, Lunaris, MMMMM, Moonshtook, morbidangelo, multizwilling, nadin85, NOMIDIMON, older68, oldvarg, Olethros, peppuzzo, Radek, randumbum, ripper33, robertho777, Rosen, SaintVitus, satanist666, stub888, supremo, VALERY, varg-38ru, varlam4, vasiljev_sergej, vov7609, yuratroll, ZloY_GreY, Например,
Apr 20 2020, 09:58:06 Abhasa - १ (2020)


*Artist: Abhasa
*Album: १
*Year: 2020
*Genre: Black Metal/Ambient
*Country: United States
*Format: mp3@CBR320kbps
*Size: 115MB

Tracklist:
01. १
02. २
03. ३
04. ४
05. ५
06. ६
07. ७
******************************
Total playing time: 49:56

[more=Technical info]
Input File: 04. ४.mp3
Channels : 2
Sample Rate : 44100
Precision : 16-bit
Duration : 00:08:36.60 = 22782192 samples = 38745.2 CDDA sectors
File Size : 20.8M
Bit Rate : 323k
Sample Encoding: MPEG audio (layer I, II or III)
Comments :
Title=४
Artist=Abhasa
Album=१ (رمستر)
Tracknumber=4/7
Year=2020
Genre=9
Discnumber=1/1

[/more]

Register
(20) aedicksucker, Borya_Tvorogov, Corpuscul, fuoco, infiltrator, kim666, Lukittaz, Lunaris, morbidangelo, murian, nemx, Olethros, Ostinato, robertho777, Rosen, SilentNidhogg, stub888, varlam4, vasiljev_sergej, Например,
Apr 19 2020, 08:43:26 At The Altar Of The Horned God - Through Doors Of Moonlight (2020)


*Artist: At The Altar Of The Horned God
*Album: Through Doors Of Moonlight
*Year: 2020
*Genre: Ambient Black Metal
*Country: Spain
*Format: mp3@CBR320kbps
*Size: 84MB

Tracklist:
01. A Ka Dua
02. Before The Flames Of Undefiled Knowledge
03. Prayer I
04. Prayer II (Oh Glorious Pan)
05. Perdition In The Oneness
06. Malediction
07. A Circle Of Swaying Leaves
******************************
Total playing time: 36:06

[more=Technical info]
Input File: 03- Prayer I.mp3
Channels : 2
Sample Rate : 44100
Precision : 16-bit
Duration : 00:05:24.56 = 14313228 samples = 24342.2 CDDA sectors
File Size : 13.3M
Bit Rate : 329k
Sample Encoding: MPEG audio (layer I, II or III)
Comments :
Title=Prayer I
Artist=At the Altar of the Horned God
Album=Through Doors of Moonlight
Tracknumber=3/7/7
Year=2020
Genre=Black Metal

[/more]

Register
(25) Boozer, Corpuscul, dabiz, Evilded, Femto, infiltrator, judaz, kim666, kipelov999, Kuratsu, Lafii, multizwilling, nadin85, nemx, Nerevar, Occultas, Olethros, pahail, satanist666, Shadechaser, stub888, VALERY, varlam4, vasiljev_sergej, Wolftribes,
Apr 17 2020, 21:12:22 Fallakr - Mezv, Marv, Milliget (2020)


*Artist: Fallakr
*Album: Mezv, Marv, Milliget
*Year: 2020
*Genre: Atmospheric Black Metal
*Country: France
*Format: mp3@CBR320kbps
*Size: 93MB

Tracklist:
01. Mestr ar Bed Kuzh (0:30)
02. Thanatomorphose Prématurée (5:04)
03. Soñj ar Straedoù Lous (3:57)
04. Heklev an Islonk (5:01)
05. L'Aiguille et le Temple (4:35)
06. Une Envie de Déchéance (4:31)
07. Fallakr (3:45)
08. Tachenn Ludu (6:37)
09. Gwerz Kouerien Pontkalleg (6:13)
******************************
Total playing time: 40:13

[more=Technical info]
Input File: 02 - Thanatomorphose Prématurée.mp3
Channels : 2
Sample Rate : 44100
Precision : 16-bit
Duration : 00:05:03.80 = 13397448 samples = 22784.8 CDDA sectors
File Size : 12.3M
Bit Rate : 324k
Sample Encoding: MPEG audio (layer I, II or III)
Comments :
Title=Thanatomorphose Prématurée
Artist=Fallakr
Album=Mezv, Marv, Milliget
Tracknumber=2
Year=2020
Genre=Atmospheric Black Metal

[/more]

Register
(32) 1968_janeart, atavist, Barbiturat, Boozer, Bzth, cist, djsema4, infiltrator, isvili, kim666, Korpse, LEGION69, metala, nsk2008, Olethros, Olrak, Ostinato, randumbum, rimfrost, robertho777, satanist666, senecazm, Shadechaser, SilentNidhogg, squall8fr, stub888, Surt, suseka, umnaxtet, VALERY, varlam4, vasiljev_sergej,

54 Pages V   1 2 3 > » 
- Lo-Fi Version Support form
Copyrights and abuse reports form
Time is now: 2nd July 2020 - 17:05:55