Welcome Guest ( Log In | Register )

История благодарностей участнику vasilisk ::: Спасибо сказали: 8089 раз(а)
Дата поста: В теме: За сообщение: Спасибо сказали:
Jan 2 2020, 09:10:15 Beezlefeast - Fear Engine, Vol 2: Stone Ocean (2019)


*Artist: Beezlefeast
*Album: Fear Engine, Vol 2: Stone Ocean
*Year: 2019
*Genre: Progressive Death Metal
*Country: United States
*Format: mp3@CBR320kbps
*Size: 108MB

Tracklist:
1.Creepy Intro
2.Uncle Knuckles
3.Logic Of A Nightmare
4.Geppetto's Mistakes
5.Scáthán
6.A Treachery Of Owls
7.The Silents
8.Bear Semen
9.Wolf Moon (feat. Nichole Hobbs)
******************************
Total playing time: 47:03

[more=Technical info]
Input File: 06 - A Treachery of Owls.mp3
Channels : 2
Sample Rate : 44100
Precision : 16-bit
Duration : 00:05:39.43 = 14968863 samples = 25457.2 CDDA sectors
File Size : 13.6M
Bit Rate : 320k
Sample Encoding: MPEG audio (layer I, II or III)
Comments :
Title=A Treachery of Owls
Artist=Beezlefeast
Album=Fear Engine, Vol 2: Stone Ocean
Tracknumber=6
Year=2019
Genre=Metal
Discnumber=1

[/more]

Register
(8) ASkyThatBurns, Hell_Is_Here, kimkayoung, metala, multizwilling, Olethros, Rosen, VALERY,
Dec 29 2019, 15:05:30 An Isolated Mind - Self Titled (2020)


*Artist: An Isolated Mind
*Album: Self Titled
*Year: 2020
*Genre: Avant-Garde Black Metal
*Country: United States
*Format: mp3@CBR320kbps
*Size: 75MB

Tracklist:
1. Fear
2. Euphoria
3. 5150
4. Mia
5. Sempervirens
6. Moving Forward
******************************
Total playing time: 32:35




[more=Technical info]
Input File: 05. An Isolated Mind - Sempervirens.mp3
Channels : 2
Sample Rate : 44100
Precision : 16-bit
Duration : 00:06:29.79 = 17189915 samples = 29234.5 CDDA sectors
File Size : 15.7M
Bit Rate : 322k
Sample Encoding: MPEG audio (layer I, II or III)
Comments :
Title=Sempervirens
Artist=An Isolated Mind
Album=Self Titled
Tracknumber=5
Year=2020

[/more]

Register
(4) boby9052, kimkayoung, kolar666, stub888,
Dec 28 2019, 13:20:11 Grave With A View - Godless And Wild (2019)


*Artist: Grave With A View
*Album: Godless And Wild
*Year: 2019
*Genre: Death Metal/Death N Roll
*Country: Finland
*Format: mp3@CBR320kbps
*Size: 84MB

Tracklist:
01. Scorch
02. The Halo and the Noose
03. Lightless Void
04. Weight of the Gods
05. In the Arms of Decay
06. Never
07. Ignored Forever
08. Demon Days
09. Rivers of Light
******************************
Total playing time: 34:48

[more=Technical info]
Input File: 09. Rivers of Light.mp3
Channels : 2
Sample Rate : 44100
Precision : 16-bit
Duration : 00:06:17.47 = 16646295 samples = 28310 CDDA sectors
File Size : 15.5M
Bit Rate : 330k
Sample Encoding: MPEG audio (layer I, II or III)
Comments :
Title=Rivers of Light
Artist=Grave With a View
Album=Godless and Wild
Tracknumber=9/9
Year=2019

[/more]

Register
(10) ASkyThatBurns, atavist, chipsgott, infiltrator, jollo, Olethros, Ostinato, Rosen, soulflesh, stumpheavyrock,
Dec 26 2019, 00:18:07 Новости Black-направления
YGG
[youtube]4-beWa012Z4[/youtube]
(5) Black Cat, CultMetalSerge, infiltrator, technoboy69, tormoz,
Dec 21 2019, 10:17:25 Demonshire - Prologue Dawn Of The War (2019)


*Artist: Demonshire
*Album: Prologue Dawn Of The War
*Year: 2019
*Genre: Melodic Death Metal
*Country: Sweden
*Format: mp3@CBR320kbps
*Size: 91MB

Tracklist:
01. Satharion
02. Dawn of the War
03. Trail of Blood
04. No One Dies Alone
05. Satharion (Instrumental)
06. Dawn of the War (Instrumental)
07. Trail of Blood (Instrumental)
08. No One Dies Alone (Instrumental)
******************************
Total playing time: 37:56

[more=Technical info]
Input File: 04. No One Dies Alone.mp3
Channels : 2
Sample Rate : 44100
Precision : 16-bit
Duration : 00:04:40.52 = 12370976 samples = 21039.1 CDDA sectors
File Size : 11.8M
Bit Rate : 337k
Sample Encoding: MPEG audio (layer I, II or III)
Comments :
Title=No One Dies Alone
Artist=Demonshire
Album=Prologue: Dawn of the War
Tracknumber=4/8
Year=2019

[/more]

Register
(27) Andrew, ASkyThatBurns, Ice Gnoll, infiltrator, infozahist, lldma, Ludwig Hagen, morbidangelo, oldvarg, Olethros, Olrak, Ostinato, Rosen, SaintVitus, satanist666, sergsazan, slonin, soulflesh, talismanFS, TeamatSE, terron, VALERY, wanderer73, wn129aa, zhol, Сварог Барг, скептик,
Dec 20 2019, 12:11:19 Spiteborn - Bone Trails (2019)


*Artist: Spiteborn
*Album: Bone Trails
*Year: 2019
*Genre: Death Metal/Hardcore
*Country: Finland
*Format: mp3@CBR320kbps
*Size: 97MB

Tracklist:
01. Gospel of Blood
02. Gallows
03. Accursed
04. Worlds to Burn
05. The Faithful Departed
06. To Breed and Worship
07. Lifeblood
08. Limbs
09. Blades of Initiation
10. Shadows in the Abattoir
******************************
Total playing time: 38:22

[more=Technical info]
Input File: 03. Accursed.mp3
Channels : 2
Sample Rate : 44100
Precision : 16-bit
Duration : 00:03:41.48 = 9767312 samples = 16611.1 CDDA sectors
File Size : 9.70M
Bit Rate : 350k
Sample Encoding: MPEG audio (layer I, II or III)
Comments :
Title=Accursed
Artist=SPITEBORN
Album=Bone Trails
Tracknumber=3/10
Year=2019

[/more]

Register
(12) ASkyThatBurns, atavist, infiltrator, jollo, Morgoth, multizwilling, Olethros, Rosen, soulflesh, terron, VALERY, Герб,
Dec 18 2019, 10:51:16 Kathartik - Mind.Abyss.Terror (2019)


*Artist: Kathartik
*Album: Mind.Abyss.Terror
*Year: 2019
*Genre: Black/Death Metal
*Country: Germany
*Format: mp3@CBR320kbps
*Size: 117MB

Tracklist:
1. Cult 2.9
2. Mind.Abyss.Terror
3. Glasseater
4. Instinkt
5. Restless Eyes
6. Abrasive Storm
7. Black Horizon
8. All You Cunts Mean Shit To Me
9. Immanent Destruction
10. Of Fire & Floods Pt. I
11. Of Fire & Floods Pt. II
******************************
Total playing time: 51:07

[more=Technical info]
Input File: 05. Restless Eyes.mp3
Channels : 2
Sample Rate : 44100
Precision : 16-bit
Duration : 00:05:33.92 = 14725784 samples = 25043.9 CDDA sectors
File Size : 13.4M
Bit Rate : 320k
Sample Encoding: MPEG audio (layer I, II or III)
Comments :
Title=Restless Eyes
Artist=Kathartik
Album=Mind.Abyss.Terror
Tracknumber=05
Year=2019
Genre=Death Metal

[/more]

Register
(21) ASkyThatBurns, atavist, czeski21, kim666, lldma, morbidangelo, multizwilling, older68, Olethros, Ostin Devil, Rosen, Sanctus, satanist666, SilentNidhogg, stumpheavyrock, suseka, tim47, VALERY, vasiljev_sergej, vov7609, yuratroll,
Dec 16 2019, 10:14:12 Lost To The Void - Necrotic Ideology [ep] (2019)


*Artist: Lost To The Void
*Album: Necrotic Ideology [ep]
*Year: 2019
*Genre: Death Metal/Deathcore
*Country: United States
*Format: mp3@CBR320kbps
*Size: 67MB

Tracklist:
01. An Exit to..
02. Existence
03. Doomblade Orc Cyclops
04. ?
05. Necrotic Ideology
06. Enlightenment
07. Celestial Host, Pt. 1
08. Celestial Host, Pt. 2
******************************
Total playing time: 28:56

[more=Technical info]
Input File: Lost to the Void - Necrotic Ideology - 02 Existence.mp3
Channels : 2
Sample Rate : 44100
Precision : 16-bit
Duration : 00:04:59.07 = 13188811 samples = 22430 CDDA sectors
File Size : 12.1M
Bit Rate : 323k
Sample Encoding: MPEG audio (layer I, II or III)
Comments :
Title=Existence
Artist=Lost to the Void
Album=Necrotic Ideology
Tracknumber=2
Year=2019

[/more]

Register
(5) ASkyThatBurns, infiltrator, Olethros, Rosen, zhol,
Dec 14 2019, 10:18:46 Xenopredator - Research & Development (2019)


*Artist: Xenopredator
*Album: Research & Development
*Year: 2019
*Genre: Thrash/Death Metal
*Country: United States
*Format: mp3@CBR320kbps
*Size: 142MB

Tracklist:
01. Xenopredatory Regicide
02. Beneath the Earth
03. Colonial Eradication
04. Atomic Deconstruction
05. Research
06. Development
07. Intergalactic Expeditionary Strike Force
08. Close Quarter Battle
09. Mechanically Separated Humans
10. Upon the Blooded Sands
******************************
Total playing time: 59:08

[more=Technical info]
Input File: 06. Development.mp3
Channels : 2
Sample Rate : 44100
Precision : 16-bit
Duration : 00:05:54.01 = 15611753 samples = 26550.6 CDDA sectors
File Size : 14.8M
Bit Rate : 335k
Sample Encoding: MPEG audio (layer I, II or III)
Comments :
Title=Development
Artist=Xenopredator
Album=Research & Development
Tracknumber=6/10
Year=2019

[/more]

Register
(21) atavist, boby9052, Boozer, craP_cillA, fuoco, infiltrator, jollo, Leshiy666, lldma, metala, MMMMM, multizwilling, older68, Olethros, Penetralia, Rosen, sergsazan, Shadechaser, stumpheavyrock, wanderer73, Сварог Барг,
Dec 13 2019, 09:49:30 In Human Form - Iii (2019)


*Artist: In Human Form
*Album: Iii
*Year: 2019
*Genre: Progressive Black Metal
*Country: United States
*Format: mp3@CBR320kbps
*Size: 108MB

Tracklist:
1. Apocrypha Carrion
2. Weeping Stones
3. Canonical Detritus
******************************
Total playing time: 47:09

[more=Technical info]
Input File: 02 Weeping Stones.mp3
Channels : 2
Sample Rate : 44100
Precision : 16-bit
Duration : 00:07:45.87 = 20544867 samples = 34940.2 CDDA sectors
File Size : 18.6M
Bit Rate : 320k
Sample Encoding: MPEG audio (layer I, II or III)
Comments :
Title=Weeping Stones
Artist=In Human Form
Album=III
Tracknumber=02
Year=2019
Genre=Metal

[/more]

Register
(19) ASkyThatBurns, atavist, BandR75, Dmitry1977, Femto, Hell_Is_Here, infiltrator, LEGION69, Metalass, MMMMM, morbidangelo, Olethros, Ostinato, robertho777, Rosen, Sergei78, VALERY, yuratroll, Например,
Dec 12 2019, 11:00:20 Новости Black-направления
SVARTTJERN

Трек-лист:

“Prince Of Disgust”
“Ment til å Tjene”
“Melodies Of Lust”
“Ta dets Drakt”
“Frost Embalmed Abyss”
“Ravish Me”
“Bonded By Blood”
“Shame Is Just A Word”
https://www.youtube.com/watch?time_continue...eature=emb_logo
(2) infiltrator, Leshiy666,
Dec 10 2019, 22:29:55 Новости Black-направления (2) infiltrator, vovenom,
Dec 10 2019, 10:29:38 One Less Life - Vigil (2019)


*Artist: One Less Life
*Album: Vigil
*Year: 2019
*Genre: Deathcore
*Country: United States
*Format: mp3@CBR320kbps
*Size: 81MB

Tracklist:
1.Gatekeeper
2.AK-5011
3.The Blood Pact (feat. Ringo Waterman)
4.Heaven's Gate
5.Snake (feat. Russell Pompa)
6.Vigil
7.Torment
8.Lily Of The Valley
9.Decay
10.Deathbed II
******************************
Total playing time: 34:08

[more=Technical info]
Input File: 04 - Heaven\'s Gate.mp3
Channels : 2
Sample Rate : 44100
Precision : 16-bit
Duration : 00:03:46.37 = 9982741 samples = 16977.5 CDDA sectors
File Size : 9.30M
Bit Rate : 329k
Sample Encoding: MPEG audio (layer I, II or III)
Comments :
Title=Heaven's Gate
Artist=One Less Life
Album=Vigil
Tracknumber=4
Year=2019
Genre=Metal
Discnumber=1

[/more]

Register
(4) atavist, infiltrator, Olethros, Rosen,
Dec 9 2019, 09:34:53 Jędrzej Panek - Progression (2019)


*Artist: Jędrzej Panek
*Album: Progression
*Year: 2019
*Genre: Death Metal
*Country: Unknown
*Format: mp3@CBR320kbps
*Size: 120MB

Tracklist:
01. First
02. Second
03. Third
04. Fourth
05. Fifth
06. Sixth
07. Seventh
08. Eighth
09. Ninth
10. Trumpets of the Apocalypse
******************************
Total playing time: 50:48

[more=Technical info]
Input File: 05. Fifth.mp3
Channels : 2
Sample Rate : 44100
Precision : 16-bit
Duration : 00:04:39.11 = 12308751 samples = 20933.2 CDDA sectors
File Size : 11.6M
Bit Rate : 331k
Sample Encoding: MPEG audio (layer I, II or III)
Comments :
Title=Fifth
Artist=Jędrzej Panek
Album=Progression
Tracknumber=5/10
Year=2019

[/more]

Register
(8) atavist, infiltrator, jollo, metala, morbidangelo, Olethros, Rosen, vyacheslav,
Dec 6 2019, 10:11:36 Cool Head Klan - Tűzben Edzett (2019)


*Artist: Cool Head Klan
*Album: Tűzben Edzett
*Year: 2019
*Genre: Folk/Heavy Metal
*Country: Hungary
*Format: mp3@CBR320kbps
*Size: 109MB

Tracklist:
01. Képeslap 86-ból
02. Tűzben edzett
03. Emlékkép
04. Nem bánom, hogy parasztnak születtem
05. Menny és pokol
06. Arany, ezüst és bronz
07. Corvina Burana
08. A kősziklára állj
09. Nyugtalan vér
10. Féktelen blues
11. Szép hazám útjain
******************************
Total playing time: 45:29

[more=Technical info]
Input File: 07. Corvina Burana.mp3
Channels : 2
Sample Rate : 44100
Precision : 16-bit
Duration : 00:04:28.43 = 11837587 samples = 20132 CDDA sectors
File Size : 11.2M
Bit Rate : 334k
Sample Encoding: MPEG audio (layer I, II or III)
Comments :
Title=Corvina Burana
Artist=Cool Head Klan
Album=Tűzben edzett
Tracknumber=7/11
Year=2019

[/more]

Register
(12) aviacademy, Cartman223, darksymphony, gwar, gwynnbleid, Mplast, Olethros, Rosen, senecazm, wreak, zotyo1975, Сварог Барг,
Dec 5 2019, 09:43:33 Empty Life - In The Shadow Of Decay (2019)


*Artist: Empty Life
*Album: In The Shadow Of Decay
*Year: 2019
*Genre: Post-Black Metal
*Country: Russian Federation
*Format: mp3@CBR320kbps
*Size: 94MB

Tracklist:
01. Last Snow
02. For My Lost Friend
03. Visions
04. Forgotten Times
05. Gone
06. The Room
07. Lost in the Mountains
08. Everything Disappears
******************************
Total playing time: 40:45

[more=Technical info]
Input File: 02. For My Lost Friend.mp3
Channels : 2
Sample Rate : 44100
Precision : 16-bit
Duration : 00:04:48.49 = 12722365 samples = 21636.7 CDDA sectors
File Size : 11.6M
Bit Rate : 321k
Sample Encoding: MPEG audio (layer I, II or III)
Comments :
Title=For My Lost Friend
Artist=Empty Life
Album=In the Shadow of Decay
Tracknumber=2/8
Year=2019
Genre=9
Discnumber=1/1

[/more]

Register
(12) aleon, kim666, kimkayoung, kryuger, Misanthrope@, Olethros, robertho777, Rosen, Shadechaser, stone88, vasiljev_sergej, wreak,
Nov 29 2019, 22:34:39 Новости Black-направления (2) infiltrator, vovenom,
Nov 25 2019, 22:52:21 Mental Home
Tarelka, Mirrorland,Vale
Поздние альбомы мягко говоря не очень 21.gif
(1) Tarelka,
Nov 6 2019, 22:02:23 Новости Black-направления
Kalmankantaja "Korpi" (2020)
(5) DarkHorde, infiltrator, suseka, Tarelka, vovenom,
Oct 28 2019, 23:29:47 Karna - Гуцул-Метал (2017)
Дрянь 21.gif
(1) RotAnus,
Oct 22 2019, 08:32:01 Новости Black-направления
Fen
Трек-лист:
1. Witness
2. The Dead Light Part 1
3. The Dead Light Part 2
4. Nebula
5. Labyrinthine Echoes
6. Breath of Void
7. Exsanguination
8. Rendered in Onyx
(5) Black Cat, DarkHorde, gena, infiltrator, Old Vyaine,
Oct 5 2019, 13:01:23 Новости DOOM Metal
Shape Of Despair подтвердила, что работа над их новым студийным альбомом идёт полным ходом. Детали команда обещала представить в самое ближайшее время
(1) mirotvorets,
Sep 16 2019, 20:19:37 Новости Black-направления
Midnight Odyssey Release date: November 1st, 2019
1. Hidden In Tartarus
2. Forever Silenced
3. Biolume
4. A Storm Before A Fiery Dawn
5. Of Golden Age Descended
6. When Titans Fall
7. Pillars In The Sky
(3) gena, infiltrator, Qliphoth,
Sep 16 2019, 09:06:24 Новости DOOM Metal
NOVEMBERS DOOM

Трек-лист:

"Petrichor"
"The Witness Marks"
"Nephilim Grove"
"What We Become"
"Adagio"
"Black Light"
"The Clearing Blind"
"Still Wrath"
"The Obelus"
[youtube]A3QyUhf88aA[/youtube]
(4) 6666666, Lux, quicksand, RUDACHUR,
Sep 10 2019, 20:13:10 Новости Black-направления
RIMFROST

Трек-лист:

“Rising Of A Black Dawn”
“Damned Jaws”
“Sam-Hain”
“Dawnbreaker”
“Expedition: Darkness”
“Voorhees”
“Bloodnight”
“Natten”
“At The Blessing Of The Damned”
[youtube]rwKdQdYETqk[/youtube]














(3) infiltrator, suseka, Vardlokkur,

53 Pages V   1 2 3 > » 
- Lo-Fi Version Support form
Copyrights and abuse reports form
Time is now: 17th January 2020 - 17:36:48