Welcome Guest ( Log In | Register )

История благодарностей участнику paganheart ::: Спасибо сказали: 4552 раз(а)
Дата поста: В теме: За сообщение: Спасибо сказали:
Oct 18 2019, 16:10:17 Cynic - Traced In Air - Remixed (2019)
ЦИТАТА(J0k3r @ Oct 16 2019, 01:57:14) *
Кто-нибудь различия услышал?)

Убрали харш - вокал.))) Это лишило альбом изначального очарования, к сожалению. Оригинал 2008го года - рулит и педалит. Выпуск ремастера оказался бессмыслен, как по мне, абсолютно. bye.gif
(1) Deze,
Oct 18 2019, 07:02:43 [Amatory] - Doom (2019)
Шо, неужели дум заиграли? 1488.gif
(3) Emm Human, infiltrator, vosmidesijatye,
Sep 30 2019, 19:30:52 Eloy - The Vision, The Sword And The Pyre (Part II) (2019)
ЦИТАТА(Kwaad @ Sep 30 2019, 21:22:23) *
А скажите, у них всё такое же офигенное, как на этом альбоме?

Эммм, прошлый чутка слабей был, как по мне. Мой любимый - Colours 1980 го года, могу слушать бесконечно сие прекрасное творение! pray.gif pray.gif pray.gif
(1) Kwaad,
Sep 29 2019, 14:36:51 Eloy - The Vision, The Sword And The Pyre (Part II) (2019)


*Artist: Eloy
*Album: The Vision, The Sword And The Pyre (Part II)
*Year: 2019
*Genre: Progressive Rock
*Country: Germany
*Format: mp3@CBR320kbps
*Size: 121MB

Tracklist:
01. An Instant of Relief... Still the War Rages on
02. Between Hope, Doubts, Fear and Uncertainty
03. Patay
04. Joy
05. Reims... the Coronation of Charles VII
06. Resume
07. Armistice or War?
08. Paris
09. Abandoned
10. Compiegne
11. Tormenting Imprisonment
12. Rouen
13. Eternity
******************************
Total playing time: 52:46

Preview 1

[more=Extended info]Line Up:
- Fank Bornemann / vocals, guitar
- Hannes Folberth / keyboards
- Michael Gerlach / keyboards
- Klaus-Peter Matziol / bass
- Stephan Emig / drums, percussion[/more]

[more=Technical info]
Input File: 01 - An Instant of Relief...Still the War Rages On.mp3
Channels : 2
Sample Rate : 44100
Precision : 16-bit
Duration : 00:06:28.12 = 17116180 samples = 29109.1 CDDA sectors
File Size : 15.6M
Bit Rate : 321k
Sample Encoding: MPEG audio (layer I, II or III)
Comments :
Title=An Instant of Relief...Still the War Rages On
Artist=Eloy
Album=The Vision, the Sword and the Pyre, Pt. 2
Tracknumber=1
Year=2019
Genre=Rock
Discnumber=1

[/more]

Register
(15) artscald, boby9052, gena, gwynnbleid, heinz88, Kwaad, LEGION69, MEmethuselah, metaljosue, MеtalHead, Old Vyaine, Olethros, Olrak, Rosen, Yarri,
Sep 29 2019, 08:33:26 The Doors - Transmission Impossible [unofficial release] (2019)
ЦИТАТА(Wail @ Sep 29 2019, 08:45:04) *
Please 320

Register
511Мб 320 kbps
(4) Olethros, thenecromancer, VALERY, Wail,
Sep 27 2019, 13:43:33 Borknagar - True North (2019)
Отличный альбом - не подвели, однако. Осталось дождаться версии с бонусами. 10. Wild Father's Heart (Instrumental Demo Version) 06:25
11. Up North (Demo Version) 06:38
Кстати, действительно, а за что выперли Вортекса из Гамбургеров? Тогда же "ушли" и Мустиса за компанию, а Сноуи Шоу на месте Вортекса вообще не пришелся ко двору. sirt.gif
(2) BleedingSun, infiltrator,
Sep 26 2019, 06:24:50 Batyushka - Апостол (2019)
Поп-остолоп? 1488.gif Это который уже в этом году? Там вроде два участника (Крыс и Весельчак У), а попов понаплодили уже больше 2х точно. fear.gif А еще говорят, что попам грешно размножаться.....
(4) Deze, infiltrator, NecroButcher, russ777,
Sep 25 2019, 20:51:17 Blut Aus Nord - Hallucinogen (2019)
Переслушиваю альбом и никак не пойму в каком месте это блэк? Красивая темная музыка ничего не имеющая общего стилистически с жужжащей нудятиной .
(2) mirotvorets, plfan93,
Sep 25 2019, 20:22:18 Blut Aus Nord - Hallucinogen (2019)

"Печкин: Это я, почтальон Печкин! Принёс посылку! Только я вам её не отдам! Потому что у вас доку́ментов нету.


Матроскин: Это мой дядя прислал… Он у сторожа живёт на мескалиновой фабрике… У него этого мескалина — ну просто завались!.. Вот и шлёт, м-м-м… кому попало…
Печкин: мескалин там или не мескалин, а посылку я вам не отдам. Я вам не дурачок! (постукивает себя кулаком по лбу)" 1488.gif
(2) NOMIDIMON, vosmidesijatye,
Sep 20 2019, 07:52:29 Blut Aus Nord - Hallucinogen (2019)
ЦИТАТА(garmonbozia @ Sep 20 2019, 09:42:06) *
уж если находишься в блэковой теме, то хотя бы поверхностно знай сабж с проявлением интереса к обсуждаемым музыкальным авторитетам.
а то в теме последнего воевода все довольные и чувство слуха исключительное и непонимающих блэкарей на смех поднимают. а потом заходят в иные темы и активно ахинеют.
ты же вроде взрослый дядя, короче говоря.
Не обязательно же трушатиной объедаться, чтобы авангардных изысков попробовать, ушей не хватит. Сабж же интересен не только блэкарям, особенно благодаря их трилогии, о чем я и писал выше. Посему тут "блэковая тема" не совсем "блэковая". Вон, ваш брат - чернушник, до сих пор в Боркнагаре юмором блещет, а группа ни блэк ни разу еще с 97го.
ЗЫ И да - всех этих авторитетов, хотя бы поверхностно услышать, жизни не хватит, да и не нужно - Захер Мазох не друг мне.
(4) Deze, Ghostb, infiltrator, ingram,
Sep 20 2019, 07:15:04 Borknagar - True North (2019)
Блэкари умиляют в теме. Сабж имел косвенное отношение к данным "руладам пилорамы" разве, что на дебютнике, и то с оговорками, уже на Олден Домейн они стали собой, уйдя от чернухи ооочень далеко. bye.gif
(3) BleedingSun, Exorcist, Faust_Vulkan_16,
Sep 20 2019, 06:57:33 Blut Aus Nord - Hallucinogen (2019)
Sir N. - вообще неизвестный пассажир какой-то. Ни одного этого названия не слышал. Тот же Друдкх хотя бы на слуху не только среди блэкарей. Sir N. ТРУшатина какая-то, короче говоря.
(3) Deze, Ghostb, infiltrator,
Sep 19 2019, 21:49:15 Blut Aus Nord - Hallucinogen (2019)
ЦИТАТА(snorr @ Sep 19 2019, 22:59:52) *
Серьезно?) кто такой Роман Саенко и Sir.N? Ребята, вы форумом не ошиблись?

Пришлось гуглить. 1488.gif ну не все же тут по чернухе заезжают, чай не БФМ какой, или эти - "крысы Вотана", или как там их... Мне вот данные лягушатники интересны исключительно из-за их заигрываний с авангардным металлом.
(5) Deze, Ghostb, infiltrator, ingram, snorr,
Sep 15 2019, 17:53:00 Sigmund Snopek III - Trinity Seas Seize Sees (1974)


*Artist: Sigmund Snopek III
*Album: Trinity Seas Seize Sees
*Year: 1974
*Genre: Progressive Rock
*Country: United States
*Format: mp3@CBR320kbps
*Size: 259MB

Tracklist:
Acte 1 - Discovery
1. Narrative
2. Spirit Song (Death Command)
3. Narrative
4. Escape
5. Trinity Invitation
6. Return of the Spirit
7. Waukesha Windows
8. Rhyme Well
9. Interstellar Flight
10. Arrival Boogie
11. Arrival Jam
12. Bubble Freaks Reply
13. Controller's Reply
14. That is Why
15. Bubble Man Blues
16. Spatial Song
17. Star of Seas
18. Move Very Quickly
19. Flying Free
20. Leaving Seas
21. Infinite Song Word
22. 6 Years 1000 Eyes
23. Staring Song
24. Eyes
25. Colors and Confusion
26. Hypnotic Eye
27. Flight of the Frees

Acte 2 - Consequences
28. Ockar Thrinking
29. Blacmar Chrinking
30. Osmidachoo
31. The Dry People
32. Hypnotic Pulse
33. Evil Allies
34. First Attack of the Free Spirits
35. Cry of the Frees (after Losing)
36. War and Carnage
37. Counter Attack and Dimension Warp
38. Whistle Song

Acte 3 - Aftermath
39. Hall of Godcar
40. The Goddess
41. Square of Air (airaireerreere)
42. The 12 Keys
43. The Symphony of Man
44. Ghost
45. Spacemen
46. Forever
47. Return of the Spirit
48. The SandKing
******************************
Total playing time: 2:00:00

Preview 1

[more=Extended info]Line-up / Musicians
- Peter Balistreri / drums (1-17, 48)
- Jerry Beebe / tenor sax (1-17, 48)
- David Bohn / recorder quartet (44-46)
- Dave Cook / trumpet (1-17, 48)
- Annie Denison / lead vocals (35)
- Kelly Fadeski / lead vocals (47), vocals (43)
- Scott Finch / lead guitar (26, 36), electric guitar (21, 25, 26, 36), acoustic guitar (22, 24, 25, 27, 35, 41)
- Leslie Fitzwater / lead vocal (43)
- James Gorton / lead vocals (all tracks except 2, 7, 19, 35, 41, 44, 45, 46, 47), vocals (1-17), acoustic guitar, electric guitar, autoharp, guitar & vocal arrangements
- Paul Gmeinder / cello (43)
- Jack Grassel / lead guitar (18, 19, 27-32, 34), electric guitar (18, 19), sitar (39)
- Rick Grusczynski / narration (1, 3)
- Mark Holm / trumpet (1-17, 48)
- Greg Janick / alto sax (1-17, 48), horn arrangements (1-17, 48)
- Ding Lorenz / drums & percussion (18, 19)
- Mike Lucas / drums & percussion (20-47)
- Irene Mitkus / goddess voice & translation (40)
- David Phillips / bass guitar (1-19, 48)
- Jeff Pietrangelo / trumpet with Harmon mute (28-30), trumpet (34)
- Bob Rebholz / electric flute & bass clarinet (18-19)
- Brian Ritchie / acoustic bass solo (42), Shakukachi flute (39)
- W Thatcher Schmid / whistler (38-39)
- Shaun Snopek / lead vocal (41)
- Sigmund Snopek / keyboards, flute, mellotron, synthesizers, lead vocals (2, 7, 21, 44, 45, 46), sequencing (20-47), vocals (1-17), vocal arrangements (1-17)
- Heidi & Lisa Spencer / lead vocals (chorus) (43)
- Susan Thomas / lead vocals (48)
- David Wadsworth / lead vocals (19)
- Byron Wiemann / vocals (1-17), lead electric and acoustic guitar (1-17, 37, 48), guitar & vocals arrangements (1-17)
- Warren Wiegratz / soprano sax (31), alto sax (35)
- Peter Wollenzien / trumpet (1-17, 48)
- Xeno / lead vocal (26)[/more]

[more=Technical info]
Input File: 02 -spirit-song-death-command.mp3
Channels : 2
Sample Rate : 44100
Precision : 16-bit
Duration : 00:04:12.03 = 11114347 samples = 18902 CDDA sectors
File Size : 10.1M
Bit Rate : 320k
Sample Encoding: MPEG audio (layer I, II or III)
Comments :
Title=Spirit Song (Death Command)
Artist=Sigmund Snopek III
Album=Trinity Seas Seize Sees Disc 1(99)
Tracknumber=2
Genre=Jazz

[/more]

Register
(2) Olethros, puksihka,
Sep 15 2019, 17:37:45 The Psychedelic Ensemble - Mother's Rhymes (2019)


*Artist: The Psychedelic Ensemble
*Album: Mother's Rhymes
*Year: 2019
*Genre: Progressive Rock
*Country: United States
*Format: mp3@CBR320kbps
*Size: 118MB

Tracklist:
01. Mother's Rhymes 08:36
02. Farewell 05:27
03. Little Boy Blue 05:36
04. Little Bo Peep 07:17
05. Blind Mice 04:11
06. Simple Simon 05:33
07. Humpty Dumpty 06:41
08. Rewrite The Rhymes 07:54
******************************
Total playing time: 51:15

Preview 1

[more=Extended info]Line-up / Musicians

- The Psychedelic Ensemble / Composer, Lyricist, All Instruments
- Unknown / Violin
- Unknown / Backing Vocals



Releases information
Release Date: February 20, 2019
Label: Glowing Sky Records[/more]

[more=Technical info]
Input File: 02. Farewell.mp3
Channels : 2
Sample Rate : 44100
Precision : 16-bit
Duration : 00:05:27.83 = 14457215 samples = 24587.1 CDDA sectors
File Size : 13.3M
Bit Rate : 324k
Sample Encoding: MPEG audio (layer I, II or III)
Comments :
Title=Farewell
Artist=The Psychedelic Ensemble
Album=Mother's Rhymes
Tracknumber=2
Year=2019-02-20
Genre=Rock
Discnumber=1

[/more]

Register
(5) ahp, BlackTroll, Diflock, gena, Olethros,
Sep 15 2019, 17:08:13 Ghost - Seven Inches Of Satanic Panic [ep] (2019)


*Artist: Ghost
*Album: Seven Inches Of Satanic Panic [ep]
*Year: 2019
*Genre: Heavy Metal/Psychedelic Rock
*Country: Sweden
*Format: mp3@CBR320kbps
*Size: 17MB

Tracklist:
1. Kiss the Go-Goat 03:15
2. Mary on a Cross 04:04
******************************
Total playing time: 7:19

Preview 1

[more=Extended info]Papa Nihil Vocals[/more]

[more=Technical info]
Input File: 01. Kiss The Go-Goat.mp3
Channels : 2
Sample Rate : 44100
Precision : 16-bit
Duration : 00:03:15.77 = 8633545 samples = 14682.9 CDDA sectors
File Size : 7.83M
Bit Rate : 320k
Sample Encoding: MPEG audio (layer I, II or III)
Comments :
Title=Kiss The Go-Goat
Artist=Ghost
Album=Seven Inches Of Satanic Panic
Tracknumber=01/02
Year=2019
Discnumber=1/1

[/more]

Register
(25) Aresson, artscald, BERZERK, cancer1974, caro, Demonologist, Dr.Grind Oim, gena, John Beak, KKK1488, kluval, kostja, marilin, Nattfodd, oldvarg, Olethros, peppuzzo, recber, Reverend, robertho777, Rosen, Shadechaser, soulskinner681, wreak, yuratroll,
Sep 15 2019, 16:31:47 Яkорь & Trawler - Черный Эсминец [collaboration] (2018)


*Artist: Яkорь & Trawler
*Album: Черный Эсминец [collaboration]
*Year: 2018
*Genre: Melodic Doom Metal | Southern Metal
*Country: Russian Federation | Russian Federation
*Format: mp3@CBR320kbps
*Size: 13MB

Tracklist:
1. Чёрный эсминец 06:35
******************************
Total playing time: 6:35

Preview 1

[more=Technical info]
Input File: 01. Яkорь & Trawler - Черный эсминец.mp3
Channels : 2
Sample Rate : 44100
Precision : 16-bit
Duration : 00:06:47.52 = 17971632 samples = 30564 CDDA sectors
File Size : 16.3M
Bit Rate : 320k
Sample Encoding: MPEG audio (layer I, II or III)
Comments :
Title=Черный эсминец
Artist=Яkорь & Trawler
Album=Черный эсминец
Tracknumber=01
Year=2018

[/more]

Register
(10) 0x13, Alacc17, artscald, Old Vyaine, Rosen, SatanicPanzer, stumpheavyrock, VALERY, wreak, Сварог Барг,
Sep 15 2019, 12:48:29 Paradise Lost - Lost Paradise (1990)
ЦИТАТА(Old Vyaine @ Sep 15 2019, 14:41:01) *
adeptus_custodes, ты предельно ограничен.

Кто-то слушает то, что тебе не нравится? Сходи послушай нойз/хип-хоп/сладж олдовый, РРРЯЯЯЯЯ™!
Читаешь/цитируешь Ильфа и Петрова? Сходи почитай Пинчона, РРРРРЯЯЯЯЯЯЯЯЯЯЯ™!!!

Ты можешь понять, что дело не в том, как записана или придумана партия гитары на альбоме? Макинтош банально не попадает, потому что играть ещё толком не научился.

Он не ограничен, это просто банальный и унылый троллинг. Типичнейшие приемы и увертки трололо со стажем: придирки к мелочам, отрицание очевидных вещей и упорствование в тупиковой позиции. Просто на МА отвыкли от такого наглого трололо, ну раз админы дремлют - черти в пляс. bye.gif
(2) BleedingSun, Exorcist,
Sep 15 2019, 12:19:49 Borknagar
ЦИТАТА(Tular @ Sep 15 2019, 14:13:10) *
Где тот добрый модератор, который прикроет эту биомассу?

Да, и тему надо почистить основательно. А то с вентилятора тут разбросало по всему форуму.
(1) BleedingSun,
Sep 15 2019, 12:10:18 Borknagar
ЦИТАТА(BleedingSun @ Sep 15 2019, 14:04:33) *
P.S. Забыл сказать - любая "музыка" по умолчанию - это и есть мелодии. Они есть везде и в любом жанре. Живи теперь с этим bye.gif

Как раз нет. В рэпчике, ну или хипхапе, их нет априори - там есть бит. Потому - тру энд ивл. 1488.gif
(1) BleedingSun,
Sep 14 2019, 16:24:59 Borknagar
ЦИТАТА(adeptus_custodes @ Sep 14 2019, 18:19:57) *
80% музыкального рациона которого - техно и хип хоп, ага.

Копрохихоп и технограйнд. 25.gif
(3) BleedingSun, Exorcist, plfan93,
Sep 14 2019, 15:34:24 Borknagar
Мне вот кажется, что этот Адептус ........ - второй(точнее очередной - имя им "легион") акк Димона, корчит из себя трумитолизда со стальными коками - адепта копрограйнда, как минимум, а по сути - унылое трололо, у меня аж монитор засалоточил. 1488.gif
(2) BleedingSun, Exorcist,
Sep 14 2019, 10:57:28 Borknagar
ЦИТАТА(plfan93 @ Sep 14 2019, 12:55:23) *
Он не наш, мы его не звали.)

Ну хз, может его как Ктулху, пробудили всякие пакостники, и теперь не признаются в содеянном. 25.gif
(1) plfan93,
Sep 11 2019, 19:29:27 Iggy Pop - Free (2019)
Хороший альбом, с привкусом джаза, я бы сказал. Старичок еще может! banana.gif
(3) Diflock, Ghostb, infiltrator,
Sep 9 2019, 21:06:59 Gojira - Magma (2016)
ЦИТАТА(BleedingSun @ Sep 9 2019, 23:04:03) *
Любимый у них - "From Mars to Sirius".

Аналогично! А "Глобальное Потепление" - теперь стала песней всех времен! headcrab.png
(1) BleedingSun,

34 Pages V   1 2 3 > » 
- Lo-Fi Version Support form
Copyrights and abuse reports form
Time is now: 20th October 2019 - 01:30:22