Welcome Guest ( Log In | Register )

История благодарностей участнику paganheart ::: Спасибо сказали: 5055 раз(а)
Дата поста: В теме: За сообщение: Спасибо сказали:
Jul 4 2020, 20:35:57 Haken - Virus (2020)
ЦИТАТА(vosmidesijatye @ Jul 4 2020, 15:56:25) *
Адептус стайл 1488.gif

Там еще "Ряяяяя", должно быть, в аккурат из-за спины педобира.))))) 1488.gif
(3) BleedingSun, Ghostb, infiltrator,
Jul 1 2020, 08:55:32 The Mad Goats - Rising Of The Goat (2020)


*Artist: The Mad Goats
*Album: Rising Of The Goat
*Year: 2020
*Genre: Stoner Doom Metal/Psychedelic Rock
*Country: Costa Rica
*Format: mp3@CBR128kbps
*Size: 73MB

Tracklist:
1. Hide and Seek 06:53
2. King of Queens 07:32
3. Temblor at Midnight 06:31
4. Sex and Cities 05:17
5. No Time for Losers 05:16
******************************
Total playing time: 31:29




[more=Extended info]transcode from 128 kbps
The name and art of "Rising of the Goat" are based on Amalthea, muse of Greek mythology. Sometimes it is represented as the goat that breastfed the god Zeus.[/more]

[more=Technical info]
Input File: The Mad Goats - King of Queens.mp3
Channels : 2
Sample Rate : 44100
Precision : 16-bit
Duration : 00:07:32.76 = 19966540 samples = 33956.7 CDDA sectors
File Size : 18.3M
Bit Rate : 324k
Sample Encoding: MPEG audio (layer I, II or III)
Comments :
Title=King of Queens
Artist=The Mad Goats
Album=Rising of the Goat
Year=2020

[/more]

Register
(3) infiltrator, Olethros, stumpheavyrock,
Jul 1 2020, 08:18:57 Haken - Virus (2020)


*Artist: Haken
*Album: Virus
*Year: 2020
*Genre: Progressive Metal/Rock
*Country: United Kingdom
*Format: mp3@CBR320kbps
*Size: 119MB

Tracklist:
1. Prosthetic 05:58
2. Invasion 06:42
3. Carousel 10:29
4. The Strain 05:23
5. Canary Yellow 04:14
6. Messiah Complex I: Ivory Tower 03:57
7. Messiah Complex II: A Glutton for Punishment 03:38
8. Messiah Complex III: Marigold 02:24
9. Messiah Complex IV: The Sect 02:02
10. Messiah Complex V: Ectobius Rex 04:57
11. Only Stars 02:10
******************************
Total playing time: 51:54

Preview 1


[more=Extended info]Line Up:
- Ross Jennings / vocals
- Charlie Griffiths / guitars
- Richard Henshall / guitars
- Diego Tejeida / keyboards
- Conner Green / bass
- Raymond Hearne / drums[/more]

[more=Technical info]
Input File: 01 - Haken - Prosthetic.mp3
Channels : 2
Sample Rate : 44100
Precision : 16-bit
Duration : 00:05:58.22 = 15797370 samples = 26866.3 CDDA sectors
File Size : 14.4M
Bit Rate : 322k
Sample Encoding: MPEG audio (layer I, II or III)
Comments :
Title=Prosthetic
Artist=Haken
Album=Virus
Tracknumber=1/11
Year=2020
Genre=Progressive Metal
Discnumber=1/1

[/more]

Register
(23) 555, BERZERK, BlackTroll, boby9052, comradEnemy, demon_e, DenisKov, Ghostb, Herrant, infiltrator, Jorn777, Lukittaz, metala, Metalass, nygga, Old Vyaine, Olethros, Rover, Shadowman, smes, Yarri, yuratroll, Нигилист,
Jun 21 2020, 16:52:22 Hail Spirit Noir - Eden In Reverse (2020)
Ccыль на Limited Edition с 2мя бонусами, битрейт 320, размер 128 Мб
Register
(10) BlackTroll, BleedingSun, Daale, GFW, Ghostb, Johnix, Old Vyaine, xska, Нигилист, скептик,
Jun 18 2020, 18:56:09 Hail Spirit Noir - Eden In Reverse (2020)
Чудесный альбом! Уже несколько раз прогнал и не могу остановиться! Очешуительный прог/спейс - рок/металл, просто высочайшей пробы! headcrab.png headcrab.png headcrab.png На 4м треке, кстати, поет, приглашенный Лазаре из Solefald/Borknagar/Age Of Silence. ЗЫ Вокал везде отличный, в том числе и именитого гостя). ЗЫЫ Блэка тут нет, совсем, совсем нет, металла тоже на полкопейки. 1488.gif
(8) BleedingSun, Daale, Evilded, Faust_Vulkan_16, Ghostb, Metalass, Old Vyaine, smes,
Jun 2 2020, 11:39:43 Arabs In Aspic - Madness And Magic (2020)


*Artist: Arabs In Aspic
*Album: Madness And Magic
*Year: 2020
*Genre: Progressive Rock
*Country: Norway
*Format: mp3@CBR320kbps
*Size: 108MB

Tracklist:
1. I Vow To Thee, My Screen 08:22
2. Lullaby For Modern Kids, Part 1 08:19
3. Lullaby For Modern Kids, Part 2 02:06
4. High-Tech Parent 04:34
5. Madness And Magic 06:47
6. Heaven In Your Eye 16:45
******************************
Total playing time: 46:53

Preview 1

[more=Extended info]Line Up:
- Jostein Smeby / guitars, vocals
- Stig Jorgensen / organs, vocals
- Erik Paulsen / bass, vocals
- Eskil Nyhus / drums, cymbals
- Alessandro G. Elide / percussion, gongs[/more]

[more=Technical info]
Input File: 01-I vow to thee my screen.mp3
Channels : 2
Sample Rate : 44100
Precision : 16-bit
Duration : 00:08:22.51 = 22160515 samples = 37688 CDDA sectors
File Size : 20.1M
Bit Rate : 320k
Sample Encoding: MPEG audio (layer I, II or III)
Comments :
Title=I vow to thee my screen
Artist=Arabs in Aspic
Album=Madness and Magic
Tracknumber=1
Year=2020
Genre=Progressive Rock

[/more]

Register
(9) AHBAnep, infiltrator, marilin, Old Vyaine, Olethros, Sabbathian, stumpheavyrock, Valdmaar, yuratroll,
May 30 2020, 19:17:13 Paradise Lost - Medusa (2017)
На волне отличного нового альбома переслушиваю Медузу.... Господа-товарищи, вы зря холиварите, оба альбома преотличнейшие.... единственная слабая вещь на данном альбоме - это 1488.gif Frozen Illusion с "психоделического мяса" 90го года выпуска.
(1) Archy,
May 30 2020, 16:03:18 Descend Into Despair - Opium (2020)


*Artist: Descend Into Despair
*Album: Opium
*Year: 2020
*Genre: Funeral Doom Metal
*Country: Romania
*Format: mp3@CBR320kbps
*Size: 133MB

Tracklist:
1. Ensh[r]ine 22:28
2. Antumbra 17:08
3. Dis[re]member 19:55
******************************
Total playing time: 59:31



[more=Extended info]Xander Keyboards (early), Drums (2010-2014), Guitars, Vocals (2010-present)
Cosmin Guitars (2013-present)
Florentin Keyboards (2013-2014), Bass (2014), Guitars (acoustic) (2014-present), Keyboards, Lyrics (2017-present)
Alex Bass (2014-present)
Luca Drums (2014-present)
Flaviu Keyboards (2016-present)
Liviu Guitars (2019-present)

[youtube]46yYZRsE0oc[/youtube]
[youtube]IyNpVeRo2Qc[/youtube]
[youtube]ou6GsPHZySw[/youtube][/more]

[more=Technical info]
Input File: 02. Antumbra.mp3
Channels : 2
Sample Rate : 44100
Precision : 16-bit
Duration : 00:17:08.29 = 45347677 samples = 77121.9 CDDA sectors
File Size : 41.2M
Bit Rate : 321k
Sample Encoding: MPEG audio (layer I, II or III)
Comments :
Title=Antumbra
Artist=Descend Into Despair
Album=Opium
Tracknumber=2/3
Year=2020

[/more]

Register

Register
(20) Buregon, cesar, gena, Hell_Is_Here, infiltrator, Jorn777, krotovich, libertine, nadin85, Olethros, pothead, robertho777, Rosen, Samaritianin, satanath, Shadechaser, skidnik, supremo, thenecromancer, vyacheslav,
May 27 2020, 20:33:07 Sinister Downfall - A Dark Shining Light (2020)
Уже едет дисочек от лейбла в комплекте с дебютником. headcrab.png
(1) Bloodn Lord,
May 15 2020, 19:50:51 Paradise Lost - Obsidian (2020)
Вывод: я так понял, что Белоснежке альбом не понравился и он, как обычно поливает радужной субстанцией всех...ну пёс его знает, что так всё плохо в этом мире или в Ленинграде фон радиоактивный превышен, но картина самая обычная, как и в других темах - "баба Яга против", ничего нового. 1488.gif Кстати, дебют гораздо хуже Медузы. если чё, киньте моё "фу" в копилку тоже, если чё. 25.gif 1488.gif ЗЫ Да, Екатерина Матвеевна уж гораздо краше крайнего Крематория, который без Григоряна,тоже если чё... 1488.gif
(2) Ghostb, infiltrator,
May 13 2020, 07:57:32 Septic Flesh - Mystic Places Of Dawn (1994)
Рип, который выложил SyncestrA, да, звучит гораздо лучше оригинала. headcrab.png 9.gif
(2) Bloodn Lord, SyncestrA,
May 9 2020, 17:40:37 Green Carnation - Leaves Of Yesteryear (2020)
ЦИТАТА(Ghostb @ May 9 2020, 19:35:44) *
А этих почему выделяешь?

Ну, видимо, потому, что те активно косят под Тул, ну косили раньше, по крайней мере. 1488.gif
(1) Ghostb,
May 9 2020, 12:54:46 Death Sentence - Awaiting The Cinnamon Dawn (1999)
Хм, а я было решил, что это альбом моих земляков, которые тоже начинали c детх-дума и назывались Death Sentence, а потом реинкарнировали в Phantasmagory став играть прогдэт.
(2) Hellstriker, infiltrator,
May 7 2020, 08:43:02 Paradise Lost - Obsidian (2020)
Ну вот, даже тут, в этой теме Тиран опять яростно защищает Адепта и согласен с ним по всем позициям, как и в других темах, так, что спектакль это про "умного чсвшного металхэда-рэпера и простовато-нагловатого чсвшного трололо, косящего под шумера - фэна Оззика".)))))) 1488.gif Он бы уже, хоть раз, ну чисто ради приличия, не согласился с выводами своего альтер эго - духовного близнеца.))))
(1) Faust_Vulkan_16,
May 5 2020, 07:52:26 Paradise Lost - Obsidian (2020)
ЦИТАТА(SatanicPanzer @ May 5 2020, 09:50:31) *
Paradise Lost - Obsidian (Limited Edition) (2020) вроде ж качество, не? bye.gif

Неа. Транскод, как он есть. Православный срез на 17 килогерцах.
(1) zyklon,
May 5 2020, 07:48:08 Paradise Lost - Obsidian (2020)
ЦИТАТА(BleedingSun @ May 5 2020, 05:34:51) *
Руки прочь от Кататонии 13.gif
dooo.gif
dwarf-1.gif А альбом - огненный прямо-таки у моих любимцев вышел! Не подвели, хороняки, не подвели! headcrab.png
(1) BleedingSun,
May 2 2020, 20:27:15 Nick Cave And The Bad Seeds - The Boatman's Call (1997)
ЦИТАТА(Old Vyaine @ May 2 2020, 22:25:38) *
У Коляна странное диско. Есть офигительные вещи, альбом-94 я вознесу в самые топища. Но есть и ни о чём работы.

Да, да, да - Let Love In просто потрясающая пластинка! pray.gif pray.gif pray.gif
(2) Ghostb, Old Vyaine,
Apr 30 2020, 20:06:16 Witchcraft - Black Metal (2020)
ЦИТАТА(Krosis @ Apr 30 2020, 08:49:54) *
унылые завывания а-ля акустические поделки кзастура. не очень. а вокалом похоже на Сэлвика местами

Обычный вокал от Witchcraft, разве, что теперь в акустике. bye.gif Жаль, что альбом не такой хитовый, как Legend. И да, к этому вашему блэку группа отношения не имела изначально, это, как я понимаю, стеб на любимым жужжащепердящим жанром всея митолиздов. 1488.gif
(1) Ghostb,
Apr 28 2020, 19:30:36 Witchcraft - Black Metal (2020)


*Artist: Witchcraft
*Album: Black Metal
*Year: 2020
*Genre: Psychedelic/Occult Rock/Acoustic
*Country: Sweden
*Format: mp3@CBR320kbps
*Size: 73MB

Tracklist:
1. Elegantly Expressed Depression 05:29
2. A Boy and a Girl 01:57
3. Sad People 05:42
4. Grow 07:51
5. Free Country 03:57
6. Sad Dog 04:21
7. Take Him Away 03:42
******************************
Total playing time: 32:59

Preview 1

[more=Technical info]
Input File: 04. Grow.mp3
Channels : 2
Sample Rate : 44100
Precision : 16-bit
Duration : 00:07:51.77 = 20805233 samples = 35383 CDDA sectors
File Size : 18.9M
Bit Rate : 320k
Sample Encoding: MPEG audio (layer I, II or III)
Comments :
Title=Grow
Artist=Witchcraft
Album=Black Metal
Tracknumber=04/07
Year=2020
Discnumber=1/1

[/more]

Register
(20) Angry_Chair, BladeOvDarkness, Boozer, djsema4, infiltrator, Krosis, KVRT, Leolomb, marilin, multizwilling, oldvarg, Olethros, popen13, smes, stub888, supremo, thenecromancer, VALERY, xska, ZA670,
Apr 25 2020, 17:25:58 JG Thirlwell & Simon Steensland - Oscillospira (2020)


*Artist: JG Thirlwell & Simon Steensland
*Album: Oscillospira
*Year: 2020
*Genre: Progressive Rock/RIO/Avant Prog
*Country: Sweden
*Format: mp3@CBR320kbps
*Size: 161MB

Tracklist:
1. Catholic Deceit 11:22
2. Heron 07:16
3. Night Shift 10:06
4. Papal Stain 09:58
5. Heresy Flank 08:23
6. Mare 07:37
7. Crystal Night 03:57
8. Redbug 11:16
******************************
Total playing time: 1:09:55

Preview 1
Preview 2

[more=Technical info]
Input File: 02. Heron.mp3
Channels : 2
Sample Rate : 44100
Precision : 16-bit
Duration : 00:07:16.19 = 19236111 samples = 32714.5 CDDA sectors
File Size : 17.6M
Bit Rate : 322k
Sample Encoding: MPEG audio (layer I, II or III)
Comments :
Title=Heron
Artist=JG Thirlwell & Simon Steensland
Album=Oscillospira
Tracknumber=2
Year=2020
Genre=RIO / Avant-Prog

[/more]

Register
(5) BlackTroll, infiltrator, Olethros, vosmidesijatye, yuratroll,
Apr 19 2020, 21:08:24 Katatonia - City Burials (2020)
Скажу, что пока мариновали альбом в модерке - успел его прослушать раз 10, причем с огромным удовольствием, а не как с крайним Лепроус: "по советам товарищей по партии для понимания глубины текущего момента". Скажу одно - меня Екатерина Матвеевна так не цепляла с времен "Виват пустоте" headcrab.png , ну, а там.... время покажет, но вряд ли мне альбом разонравится, в итоге.)))
(3) BleedingSun, infiltrator, mirotvorets,
Apr 12 2020, 08:27:44 Брюс Дикенсон или Валерий Кипелов
Пол Ди’Анно. 25.gif
(2) Borya_Tvorogov, Kazoth,
Apr 8 2020, 20:59:27 Чудодейственные свойства гомеопатии, или Голосовалка за лучший альбом 2019 года, Тур 2, Плэй-офф
ЦИТАТА(Deze @ Apr 8 2020, 22:25:54) *
Что значит, почему??? Ты посмотри на количество слушателей. Они бы даже в голосовалку советчиков прошли. Это не просто непопса, это супернепопса))))))))))

Ага, вот потом и не удивляйтесь почему забивают на ваши голосовалки. Или профиль в этом вашем ласт фм, делясь прослушиваниями обязан каждый слушатель музыки под страхом небесных кар? 1488.gif Поверь, многим, в том числе и мне, тем кому понравились Vltimas - настолько пох на вашу статистику, что даже представить невозможно. ЗЫ А диск Vltimas я заказал у Леши Станата, кстати.
(2) garmonbozia, infiltrator,
Apr 3 2020, 14:28:31 Чудодейственные свойства гомеопатии, или Голосовалка за лучший альбом 2019 года, Тур 1
ЦИТАТА(vosmidesijatye @ Apr 3 2020, 16:24:52) *
Hvis Lyset Tar Oss и Filosofem?

Нет, Det Som Engang Var - прежде всего. Ну, а вышеуказанное попозже.
(2) infiltrator, vosmidesijatye,
Mar 28 2020, 06:22:54 Me And That Man - New Man, New Songs, Same Shit, Vol.1 (2020)
ЦИТАТА(Ghostb @ Mar 28 2020, 04:10:22) *
Надеюсь, не будет таким третьесортным закосом под Кейва как дебютник. Может, даже приглашенные гости помогут вокальные партии вытянуть, а то чистый у него совершенно ужасен.

Кейву самому бы косить под самого себя, времен, хотя бы Let Love In, не мешало, а то эти "колыбельные" с времен Ноктюрамы уже и не отличить одну от другой. 21.gif Потому, раз Кейв не хочет в Кейва, то спасибо хотя бы Адаму за "правильного" Кейва.
(2) comradEnemy, infiltrator,

38 Pages V   1 2 3 > » 
- Lo-Fi Version Support form
Copyrights and abuse reports form
Time is now: 9th July 2020 - 05:23:09