Welcome Guest ( Log In | Register )

История благодарностей участнику paganheart ::: Спасибо сказали: 4742 раз(а)
Дата поста: В теме: За сообщение: Спасибо сказали:
Jan 15 2020, 15:21:00 Лучший советчик МА - Часть 5 (Прог) - Тур 1, Общий сбор
Cпецом зашел в ваш сайт "конечностей моржа" - вроде 10 тыщ нет. Добавлю любимейший альбом последних лет 10. headcrab.png headcrab.png headcrab.png
ЦИТАТА
Theater Of The Absurd - The Myth Of Sisyphus (2013)
(2) Daale, infiltrator,
Jan 15 2020, 14:40:45 Adrian Tabacaru - Lucifer: A Rock Opera (2020)


*Artist: Adrian Tabacaru
*Album: Lucifer: A Rock Opera
*Year: 2020
*Genre: Progressive Metal/Rock/Rock Opera
*Country: Romania
*Format: mp3@CBR320kbps
*Size: 103MB

Tracklist:
01. Exordium
02. Lucifer
03. Longing for the Star
04. Intermezzo
05. Beyond Infinity
06. The Long Way Home
07. Asking the Void
08. Antithesis
09. A Valediction - Forbidding Mourning
10. Conclusio
11. Celestial Funeral
12. Singularity
******************************
Total playing time: 45:11

Preview 1

[more=Extended info]Line Up:
Adrian Tabacaru - drums, composed
Eugen Brudaru in the role of Hiperion
Maria Hojda in the role of Catalina
Razvan Krivach in the role of Catalin
Iustinian Zetea - bass (vocal style)
Dominic Cristea - baritone
Laura Mihaila - vocals
Dragos Cretu - vocals
Andrei Ionescu - vocals
Andrew Pleavin - narrator
Olimpia Malai - angels
Raluca Sratulat - violin and viola
Andreea Timiras - cello
Adrian Buciu - flute
Sebastian Burneci - trompet
Constantin Urziceanu - clarinet
Sergiu Dan Feier - oboe
Petre Iftimie - guitar
Andrei Popa - guitar
Alexei Nichiforof - bass[/more]

[more=Technical info]
Input File: 02 - Lucifer.mp3
Channels : 2
Sample Rate : 44100
Precision : 16-bit
Duration : 00:05:57.22 = 15753446 samples = 26791.6 CDDA sectors
File Size : 14.3M
Bit Rate : 320k
Sample Encoding: MPEG audio (layer I, II or III)
Comments :
Title=Lucifer
Artist=Adrian Tabacaru
Album=Lucifer - A Rock Opera
Tracknumber=2
Year=2020
Genre=Rock
Discnumber=1

[/more]

Register
(12) AHBAnep, ASkyThatBurns, chipsgott, corell, infiltrator, Olethros, Rosen, SAPOGi, SatanicPanzer, varlam4, yuratroll, скептик,
Jan 9 2020, 19:29:20 Может ли Христианский Блек быть Тру Блеком?
ЦИТАТА(atom72 @ Jan 9 2020, 20:59:27) *
Банальность в том что весь блек про сотону - христианский, потому что сотону и придумали христиане.

[youtube]6WuS27iQnvs[/youtube]
ЗЫ Абсолютно солидарен с Кагадеевым. 25.gif
(2) infiltrator, Old Vyaine,
Jan 4 2020, 08:43:24 Pat Reilly - Path To Transcendence (2020)


*Artist: Pat Reilly
*Album: Path To Transcendence
*Year: 2020
*Genre: Progressive Metal
*Country: United States
*Format: mp3@CBR320kbps
*Size: 75MB

Tracklist:
01. Between Two Worlds 03:44
02. Emergence 06:56
03. Bleeding Life 03:37
04. The Sleepless 01:34
05. Dracarys 05:47
06. Winter Sunrise 05:20
07. Birth of Freedom 02:59
08. Vitality 04:53
******************************
Total playing time: 34:50

Preview 1


[more=Technical info]
Input File: 1 - Between Two Worlds.mp3
Channels : 2
Sample Rate : 44100
Precision : 16-bit
Duration : 00:03:43.83 = 9870859 samples = 16787.2 CDDA sectors
File Size : 9.00M
Bit Rate : 322k
Sample Encoding: MPEG audio (layer I, II or III)
Comments :
Title=Between Two Worlds
Artist=Pat Reilly
Album=Path to Transcendence
Tracknumber=1
Year=2020
Genre=Alternative/Indie Rock/Metal
Discnumber=1

[/more]

Register
(9) autumnwood, dimitriusk, infiltrator, metala, multizwilling, Olethros, Rosen, Rover, SAPOGi,
Jan 4 2020, 08:15:41 Aghora - Entheogenic Frequencies (2019)


*Artist: Aghora
*Album: Entheogenic Frequencies
*Year: 2019
*Genre: Progressive Metal/Jazz Fusion
*Country: United States
*Format: mp3@CBR320kbps
*Size: 148MB

Tracklist:
01. Path 06:34
02. Arrival 10:09
03. Kingdom of Ea 06:16
04. Cave 06:38
05. Portal 06:36
06. Tree of Answers 08:32
07. The Marduk Prophecy 08:58
08. Truth Is Alien 10:09
******************************
Total playing time: 1:03:52

Preview 1

[more=Extended info]Band members
Santiago Dobles Guitars, Banjo, Synths
Alan Goldstein Bass
Matt Thompson Drums
Guest/Session
Gustavo Dobles Orchestration and Keyboards
Miscellaneous staff
Alex Gerst Drum Engineering
Santiago Dobles Engineering, Mixing, Production
Freddy González Mastering
Santiago Jaramillo Artwork[/more]

[more=Technical info]
Input File: 01 - Path.mp3
Channels : 2
Sample Rate : 44100
Precision : 16-bit
Duration : 00:06:34.50 = 17397274 samples = 29587.2 CDDA sectors
File Size : 16.1M
Bit Rate : 326k
Sample Encoding: MPEG audio (layer I, II or III)
Comments :
Title=Path
Artist=Aghora
Album=Entheogenic Frequencies
Tracknumber=1
Year=2019

[/more]

Register
(43) AHBAnep, Alpha_Prime, as71, ASkyThatBurns, autumnwood, chipsgott, dalek, Deada, dimitriusk, Evilded, Faust_Vulkan_16, Forest, garml2, gena, Hammaren, Herrant, Illogicist, kimkayoung, LEGION69, martintrue, metala, metaljosue, mirotvorets, Mplast, multizwilling, nikolay81, oldvarg, Olethros, realexxx75, Rosen, SaintVitus, SAPOGi, satanath, SatanicPanzer, Shadowman, Tino, Yarri, yuratroll, zerger, Луч, Нигилист, скептик, Язва,
Dec 28 2019, 11:00:12 Altesia - Paragon Circus (2019)
Да, шикарный подарок под НГ - в виде данного релиза! Чудеснейший альбом! Эээх, если бы Opeth записали хоть что-то на подобном уровне вместо невнятного "нечто", в виде последних 2х релизов... 6.gif
(1) Yarri,
Dec 27 2019, 12:06:10 Leif Edling - Songs Of Torment-Songs Of Joy (2008)
ЦИТАТА(thenecromancer @ Dec 27 2019, 12:55:19) *

Ок, fxd. bye.gif
(2) infiltrator, thenecromancer,
Dec 26 2019, 19:51:55 She Cries - Constancy Of Misery Or Mirrors Scared To Show Exhausted Ones [demo] (1995)
Register
Обновил. bye.gif
(2) infiltrator, Wail,
Dec 25 2019, 17:45:39 Procol Harum - Exotic Birds And Fruit (1974)
ЦИТАТА(vosmidesijatye @ Jul 25 2019, 17:56:08) *
Один из любимых их альбомов.

paganheart, что скажешь?

Неплох, да, но дебютник - круче всех. pray.gif pray.gif pray.gif
(2) Faust_Vulkan_16, Yarri,
Dec 20 2019, 18:20:41 Me And That Man - Run With The Devil [single] (2019)
[youtube]Q3UzBSWL1Ow[/youtube]
Еще одна новая тема подоспела! Вот она - просто топчик! В старом Никкейвовском и Леонардокоэновском ключе! headcrab.png headcrab.png headcrab.png
(1) BleedingSun,
Dec 14 2019, 20:48:37 Coven - Blood On The Snow [lp] (1974)
CBR256kbps 66Мб
Register

CBR320kbps 82Мб
Register
(3) DMIYUR, HviteGuden, tormoz,
Dec 13 2019, 15:35:32 Arkona - Age Of Capricorn (2019)
ЦИТАТА
04. Deathskull Mystherium 06:52
Мистерия мертвой черепушки - тоже такое себе название, что ни "пингвин", то мастер стендапа. 1488.gif
(4) AlivePhantom, Deze, infiltrator, vosmidesijatye,
Dec 13 2019, 14:03:14 Psychotic Waltz
А вот и первый сингл с грядущей пластинки подоспел!
[youtube]2u1V8G43ytE[/youtube]
Цепляет с пол оборота! headcrab.png
(4) Emm Human, Illogicist, KVRT, Penetralia,
Dec 11 2019, 17:24:51 Tiamat - Amanethes (2008)
Ну хз, по-моему, очень достойный альбом. Из всех вышедших, после Сламбера - в тройке (да, скорее двойке) лучших. А в чем там профанация и "мыльный пузырь" - даже не предполагаю 13.gif .
(1) Ghostb,
Dec 8 2019, 20:22:32 The Who - The Who (2019)
ЦИТАТА(vosmidesijatye @ Dec 8 2019, 22:05:21) *
Новый? Типа полноформат?

Да. Полноформат. Лучше, чем Endless Wire, например.
(1) vosmidesijatye,
Dec 8 2019, 18:18:00 Dråpsnatt - I Denna Skog (2009)
ЦИТАТА(titorrante @ Dec 8 2019, 19:45:42) *
Link Death!

Register
(1) thenecromancer,
Dec 8 2019, 18:08:46 The Who - The Who (2019)


*Artist: The Who
*Album: The Who
*Year: 2019
*Genre: Classic/Hard Rock
*Country: United Kingdom
*Format: mp3@CBR320kbps
*Size: 136MB

Tracklist:
01. All This Music Must Fade 03:21
02. Ball and Chain 04:30
03. I Don't Wanna Get Wise 03:55
04. Detour (3:46)
05. Beads On One String 03:40
06. Hero Ground Zero 04:53
07. Street Song 04:48
08. I'll Be Back 05:02
09. Break The News 04:30
10. Rockin' In Rage 04:05
11. She Rocked My World 03:23
12. This Gun Will Misfire 03:35
13. Got Nothing To Prove 03:38
14. Danny And My Ponies 04:02
******************************
Total playing time: 57:08

Preview 1

[more=Extended info]Роджер Долтри - вокал
Пит Таунсенд - гитары, бас, бэк-вокал
Карла Азар - ударные
Гордон Гилтрэп - гитара
Пино Палладино, Гэс Сейфферт - бас
Зак Старки - ударные
Бенмонт Тэнч - клавишные
Саймон Таунсенд - гитара
Джоуи Уэронкер - ударные[/more]

[more=Technical info]
Input File: 01 All This Music Must Fade.mp3
Channels : 2
Sample Rate : 44100
Precision : 16-bit
Duration : 00:03:20.87 = 8858323 samples = 15065.2 CDDA sectors
File Size : 8.43M
Bit Rate : 336k
Sample Encoding: MPEG audio (layer I, II or III)
Comments :
Title=All This Music Must Fade
Artist=The Who
Album=WHO (Deluxe)
Tracknumber=1
Year=2019
Genre=Rock
Discnumber=1

[/more]

Register
(9) ahp, Aresson, canadaspaceman, KVRT, marilin, oldvarg, Olethros, smes, VALERY,
Dec 5 2019, 18:16:54 Psychotic Waltz
Тут такая тема.....
ЦИТАТА
US Progressive Metal pioneers and innovators Psychotic Waltz OFFICIAL return in their full original line-up with their highly anticipated 5th studio album and first new music in 23 years. Entitled “The God-Shaped Void”, the upcoming new album and InsideOutMusic debut will be released on February 14th, 2020.

The basic tracks for “The God-Shaped Void” were recorded with engineer Ulrich Wild in the band’s hometown of San Diego, then the rest of the recordings at Studio D in Austria and finally the material was mixed/mastered by Jens Bogren (Opeth, Devin Townsend, Fates Warning) at Fascination Street Studios in Sweden. Artwork, as to be seen above, was created by longtime visual partner Travis Smith (Katatonia, Riverside, Nevermore).

PSYCHOTIC WALTZ guitarist Dan Rock checked in to comment about the creation and recording process of “The God-Shaped Void” as follows:
“First we’d like to thank all the fans who have supported us over the years. The new album would probably not exist if it were not for the good times and fan support we had on our reunion tours of Europe in 2011/2012. It really sunk in how cool I would be to make new music again, instead of just continually playing the first four albums. With all of us living further apart, especially Devon, it was a much slower process than having all five of us in the same room like we used to. But times change, and the Internet helped quite a bit. Normally, Brian and I would come up with guitar parts at home, whether alone or together. Sometimes we would program a basic drum beat for Norm to latch onto the vibe that we were feeling, and some of those stayed, while others were greatly improved upon by his far superior drum skills. We took our time (obviously) and went one song at a time and rehearsed it and recorded it in the jam room until we were musically happy with it. Then I would upload the individual tracks for Devon to download in his home studio so that he could remix it, and really see what each guy was doing. He was able to add vocals, make edits and rearrange parts that made for sense for him as a singer, and then send it back to us to review, retrack or punch in if needed… we did all of our pre-production mixes that way.”

“I think Devon did a really great job considering the process, but we all wanted to bring in a professional set of outside ears with more experience. We were fortunate enough to have Ulrich Wild come down to San Diego and do all the basic tracking in a little-known local studio called Rarefied. Even better, Jens Bogren had an opening in his schedule at Fascination Street Studios and was able to mix and master it for us. And none of this would have been possible if InsideOutMusic didn’t have the faith in us that they did to release a new record after such a long time. Many thanks go out to everybody who made it possible after all these years. We hope you find it worth the wait!”

A first single and the pre-order for “The God-Shaped Void” in its various formats (Ltd. and Standard CD, 2LP on 180gr. black vinyl as well as limited coloured editions and also Digital Download) will be available as of December 13th, 2019, so stay tuned for more news soon…
Ждем февраль, товарищи, пренепременно ждем! headcrab.png headcrab.png headcrab.png
(3) mirotvorets, thenecromancer, Yarri,
Dec 1 2019, 09:54:48 Nick Cave & The Bad Seeds - Ghosteen (2019)
ЦИТАТА(atom72 @ Dec 1 2019, 10:21:20) *
Но ведь Your Funeral… My Trial был издан в 86

Ага, The Good Son в 90м, а Tender Prey в 88м. 20.gif Тут, как говорится, каждому по фломастеру индивидуально.
(2) atom72, Ghostb,
Nov 29 2019, 21:27:55 Nick Cave & The Bad Seeds - Ghosteen (2019)


*Artist: Nick Cave & The Bad Seeds
*Album: Ghosteen
*Year: 2019
*Genre: Alternative Rock
*Country: Australia
*Format: mp3@CBR320kbps
*Size: 141MB

Tracklist:
CD1:
01. Spinning Song 04:43
02. Bright Horses 04:52
03. Waiting for You 03:54
04. Night Raid 05:07
05. Sun Forest 06:46
06. Galleon Ship 04:14
07. Ghosteen Speaks 04:02
08. Leviathan 04:47

CD2:
01. Ghosteen 12:10
02. Fireflies 03:23
03. Hollywood 14:12
******************************
Total playing time: 1:08:10

Preview 1

[more=Technical info]
Input File: 101-nick_cave_and_the_bad_seeds-spinning_song.mp3
Channels : 2
Sample Rate : 44100
Precision : 16-bit
Duration : 00:04:43.60 = 12506936 samples = 21270.3 CDDA sectors
File Size : 11.5M
Bit Rate : 324k
Sample Encoding: MPEG audio (layer I, II or III)
Comments :
Title=Spinning Song
Artist=Nick Cave & The Bad Seeds
Album=Ghosteen
Tracknumber=1/8
Year=2019-10-04
Genre=Rock
Discnumber=1/2

[/more]

Register
(20) A.L.Rapsod, Aresson, atom72, avkruchinin, DMIYUR, gena, gwar, Lord Noctua, lucifix, marilin, Mplast, nadin85, Olethros, raattent, ripper33, stub888, VALERY, vam1972, Vassago06, vosmidesijatye,
Nov 29 2019, 09:59:13 Solaris - Nostradamus 2.0: Returnity (2019)


*Artist: Solaris
*Album: Nostradamus 2.0: Returnity
*Year: 2019
*Genre: Progressive Rock
*Country: Hungary
*Format: mp3@CBR320kbps
*Size: 102MB

Tracklist:
01. Returnity I-VI 34:00
- I 1960 Augusztus 1.
- II 1942 December 2.
- III 1986 Aprilis 26.
- IV 1905 Junius 30.
- V 1969 Szeptember 2.
- VI 1969 Julius 20.
02. Double Helix - 1953 Februar 28. 03:04
03. Deep Blue - 1997 Majus 11. 03:33
04. Radioscope - 1926 Marcius 20. 03:54
******************************
Total playing time: 44:31

Preview 1

[more=Extended info]Line Up:
- Attila Kollar / lead vocals, flutes, tambourine
- Csaba Bogdan / guitars
- Robert Erdesz / keyboards, vocals
- Attila Seres / bass
- Laszlo Gomor / drums, percussion, vocals
- Vilmos Toth / drums (1)
- Ferenc Raus / drums (2,4)

With:
- Edina Szirtes 'Mokus' / violin
- Zsuzsa Ullmann / vocals
- Gyorgy Demeter / vocals
- Ferenz Gerdesits / vocals
Releases information
Sub-titled "Unborn Visions"

Artwork: Laszlo Bosnyak[/more]

[more=Technical info]
Input File: 02. Double Helix - 1953. február 28..mp3
Channels : 2
Sample Rate : 44100
Precision : 16-bit
Duration : 00:03:06.45 = 8222401 samples = 13983.7 CDDA sectors
File Size : 7.51M
Bit Rate : 322k
Sample Encoding: MPEG audio (layer I, II or III)
Comments :
Title=Double Helix - 1953. Február 28.
Artist=Solaris
Album=Nostradamus 2.0 - Returnity
Tracknumber=02
Year=2019
Genre=Progressive Rock

[/more]

Register
(4) dimitriusk, Forest, mirotvorets, Olethros,
Nov 20 2019, 17:34:22 Paradise Lost - Medusa (2017)
ЦИТАТА(plfan93 @ Nov 20 2019, 17:00:38) *
А вообще, хотелось бы второй "Реквием".

Ну тут у всех индивидуальные предпочтения. Я вот не отказался бы от 2го Faith Divides Us - Death Unites Us headcrab.png
(1) Ghostb,
Nov 9 2019, 22:36:15 Theatre Of Tragedy - Velvet Darkness They Fear (1996)
Velvet Darkness They Fear - один из первых мостиков в мир тяжелой музыки для меня! Мегакайфовейший мостик, скажу я вам! headcrab.png
(1) Tarelka,
Nov 8 2019, 19:16:47 Pyogenesis - A Kingdom To Disappear (2017)
"Первый сингл „Mother Bohemia“ с предстоящего альбома „A Silent Soul Screams Loud“ в сети!"(ц)
[youtube]XV1oqfISbtA[/youtube]
(2) Faust_Vulkan_16, Old Vyaine,
Nov 5 2019, 19:35:20 Leprous - Pitfalls (2019)
ЦИТАТА(plfan93 @ Nov 3 2019, 06:41:58) *
Написал красиво, но неправду. Плохой человек, хороший человек...Мой внутренний искренностиметр не зафиксировал никаких отклонений от ранних альбомов. Музыка полегчала? Так к этому они постепенно и целенаправленно шли.

Правда у каждого своя, особенно в вопросах восприятия музыки и я внятно и четко озвучил свои претензии к прослушанному опусу - ощущение "неискренности" о которой я написал хватает за горло, сразу со второй темы (сегодня прослушал еще раз - думал, что что-то не так воспринял, ан нет - ничего добавить не могу). Я рад за тех кому музыка понравилась, но я написал как раз правду ибо написал не кривя душой и то, что думал тогда и думаю в данный момент о данном опусе некогда любимых Лепроус. ЗЫ "Металхэдом" не являюсь, кстати, ибо митол в чистом виде не перевариваю, особенно всякие блэки прочие бруталкпрограйндпавертрэши. Скажем так, мне, как любителю старого олдскульного рока - альбом не понравился, а не в какой-то иной ипостаси. bye.gif
(3) BleedingSun, mirotvorets, vosmidesijatye,

36 Pages V   1 2 3 > » 
- Lo-Fi Version Support form
Copyrights and abuse reports form
Time is now: 18th January 2020 - 23:38:51