Welcome Guest ( Log In | Register )

История благодарностей участнику paganheart ::: Спасибо сказали: 5154 раз(а)
Дата поста: В теме: За сообщение: Спасибо сказали:
Sep 1 2020, 11:28:58 Pain Of Salvation - Panther (2020)
Хех, Keen To A Fault мне вообще показалась некой аллюзией на сольное творчество Питера Гэбриела, да и вокал Даньки подчеркивает сходство. Альбом кайфовейший - его прям смакуешь, а он раскрывается новыми красками раз за разом. headcrab.png headcrab.png headcrab.png Зря они синглами выпускали композиции, зря - это очень цельный, монолитный альбом, я бы назвал его музыкальным воплощением идеологии киберпанка, по ощущениям от прослушивания.
(2) BleedingSun, Yarri,
Aug 31 2020, 10:05:54 Pain Of Salvation - Panther (2020)
Чет затащил альбом, прямо не по-детски. 1488.gif С прошлым такого не было - тот сразу цепанул, а этот надо было несколько раз хорошенько прослушать, еще и попасть в нужное настроение. У меня так же со Скарсиком было, который поначалу обескуражил, а потом, как пропер!!! headcrab.pngЗЫ проходных композиций не замечено вообще (это еще один камень в огород Лепроуз, от которых у меня задницу печет до сих пор 1488.gif ). Фаворитами пока выделю: Icon, Panther, Keen to a fault, Accelerator. bye.gif
(4) BleedingSun, Exorcist, ingested, MeatKnife,
Aug 3 2020, 08:41:12 Uriah Heep - Living The Dream (2018)
Спустя 2 года наконец-то послушал. 1488.gif Отличный альбус, собственно, держат марку после Аутсайдера. Rockin In The Road прям сразу вкатила так не по-детски.
(1) wwwgnom,
Aug 1 2020, 19:38:29 Nick Cave And The Bad Seeds - No More Shall We Part (2001)
ЦИТАТА(Ghostb @ Aug 1 2020, 21:24:54) *
"Push the Sky Away"

Из поздних - самая мякотка! headcrab.png
(2) Ghostb, infiltrator,
Jul 31 2020, 14:36:04 Septicflesh - Infernus Sinfonica Mmxix [live] (2020)
ЦИТАТА(Dmitry1977 @ Jul 31 2020, 14:46:01) *
Это тебе Леша Анальный сказал? Или на Эхе Москвы была передача? Что-то я упустил.

Ну у Леши и его либеральных сотоварищей еще с времен Петра Ликсеича во всех методичках записано жирным шрифтом: " в любой полемике все должно скатиться в поливание говном России, будь эта тема, хоть о котиках, хоть о погоде, хоть о Септикфлеш 1488.gif "
(4) Dmitry1977, Ghostb, infiltrator, ripper33,
Jul 30 2020, 20:14:54 Nick Cave And The Bad Seeds - No More Shall We Part (2001)
[youtube]AeTYL_cKGyI[/youtube]
Альбом - шикарнейший! Где-то до сих пор лежит лицензионная студийная кассета с оным. А открывашка - одна из любимейших в творчестве дяди Коли. headcrab.png
(2) Ghostb, infiltrator,
Jul 30 2020, 18:09:44 Septicflesh - Infernus Sinfonica Mmxix [live] (2020)


*Artist: Septicflesh
*Album: Infernus Sinfonica Mmxix [live]
*Year: 2020
*Genre: Symphonic Death Metal
*Country: Greece
*Format: mp3@CBR320kbps
*Size: 186MB

Tracklist:
1. Intro 01:56
2. Portrait of a Headless Man 05:28
3. Martyr 05:55
4. Prototype 05:39
5. The Pyramid God 06:09
6. The Enemy of Truth 06:37
7. Communion 04:15
8. The Vampire from Nazareth 04:48
9. Dogma of Prometheus 05:54
10. Lovecraft's Death 04:37
11. Dante's Inferno 06:26
12. Persepolis 06:54
13. A Great Mass of Death 05:28
14. Anubis 05:30
15. Dark Art 05:39
******************************
Total playing time: 1:21:15

Preview 1
Preview 2

[more=Extended info]Band members
Seth Siro Anton Bass, Vocals (harsh)
Christos Antoniou Guitars
Sotiris Vayenas Vocals (clean)
Kerim Lechner Drums
Guest/Session
Dinos "Psychon" Prassas Guitars
Symphonic Experience Orchestra Orchestra
Enharmonía Vocalis Choir Vocals (choirs)
National University of Mexico Children's and Youth Choir Vocals (choirs)
Miscellaneous staff
Anel Baldit Producer
Iván Lopto Producer
Dante Díaz Producer
Dinos "Psychon" Prassas Mixing, Mastering
Juan Ramón Oliva Recording
Gerardo Urbán y Fernández Conductor
Manuel Vargas-Mena Recording (assistant)[/more]

[more=Technical info]
Input File: 02. Portrait of a Headless Man.mp3
Channels : 2
Sample Rate : 44100
Precision : 16-bit
Duration : 00:05:28.59 = 14490775 samples = 24644.2 CDDA sectors
File Size : 13.2M
Bit Rate : 321k
Sample Encoding: MPEG audio (layer I, II or III)
Comments :
Title=Portrait of a Headless Man
Artist=Septicflesh
Album=Infernus Sinfonica MMXIX
Tracknumber=2
Year=2020
Genre=Death Metal
Discnumber=1

[/more]

Register
(43) 6666666, aa144aa, ahp, Aresson, BERZERK, Bloodn Lord, cancer1974, cesar, chipsgott, dark1988, drrmad, dulak, Faust_Vulkan_16, Femto, HMHamster, infiltrator, insufferable, Kaphiel, kostja, Legacy100, martintrue, Metalass, Mogozoz, multizwilling, Nattfodd, nnnmmm, older68, Olethros, Ostinato, popen13, respect, Reverend, Rosen, sarcophagus, supremo, Thiarnan, THROWER666, tOmV, VALERY, varlam4, Xor, yuratroll, Сварог Барг,
Jul 9 2020, 17:30:35 Samael - Transcendence [single] (2020)
Хм, неожиданно отличный сингл. 9.gif А ведь с времен вышеупомянутого Eternal у них вообще ничего не цепляло.
(2) Bloodn Lord, sethurius,
Jul 4 2020, 20:35:57 Haken - Virus (2020)
ЦИТАТА(vosmidesijatye @ Jul 4 2020, 15:56:25) *
Адептус стайл 1488.gif

Там еще "Ряяяяя", должно быть, в аккурат из-за спины педобира.))))) 1488.gif
(3) BleedingSun, Ghostb, infiltrator,
Jul 3 2020, 19:10:11 Hollow Ship - Future Remains (2020)
Хороши! Душевнейшие товарищи! 9.gif
(1) vosmidesijatye,
Jul 1 2020, 08:55:32 The Mad Goats - Rising Of The Goat (2020)


*Artist: The Mad Goats
*Album: Rising Of The Goat
*Year: 2020
*Genre: Stoner Doom Metal/Psychedelic Rock
*Country: Costa Rica
*Format: mp3@CBR128kbps
*Size: 73MB

Tracklist:
1. Hide and Seek 06:53
2. King of Queens 07:32
3. Temblor at Midnight 06:31
4. Sex and Cities 05:17
5. No Time for Losers 05:16
******************************
Total playing time: 31:29




[more=Extended info]transcode from 128 kbps
The name and art of "Rising of the Goat" are based on Amalthea, muse of Greek mythology. Sometimes it is represented as the goat that breastfed the god Zeus.[/more]

[more=Technical info]
Input File: The Mad Goats - King of Queens.mp3
Channels : 2
Sample Rate : 44100
Precision : 16-bit
Duration : 00:07:32.76 = 19966540 samples = 33956.7 CDDA sectors
File Size : 18.3M
Bit Rate : 324k
Sample Encoding: MPEG audio (layer I, II or III)
Comments :
Title=King of Queens
Artist=The Mad Goats
Album=Rising of the Goat
Year=2020

[/more]

Register
(4) infiltrator, Olethros, Rosen, stumpheavyrock,
Jul 1 2020, 08:18:57 Haken - Virus (2020)


*Artist: Haken
*Album: Virus
*Year: 2020
*Genre: Progressive Metal/Rock
*Country: United Kingdom
*Format: mp3@CBR320kbps
*Size: 119MB

Tracklist:
1. Prosthetic 05:58
2. Invasion 06:42
3. Carousel 10:29
4. The Strain 05:23
5. Canary Yellow 04:14
6. Messiah Complex I: Ivory Tower 03:57
7. Messiah Complex II: A Glutton for Punishment 03:38
8. Messiah Complex III: Marigold 02:24
9. Messiah Complex IV: The Sect 02:02
10. Messiah Complex V: Ectobius Rex 04:57
11. Only Stars 02:10
******************************
Total playing time: 51:54

Preview 1


[more=Extended info]Line Up:
- Ross Jennings / vocals
- Charlie Griffiths / guitars
- Richard Henshall / guitars
- Diego Tejeida / keyboards
- Conner Green / bass
- Raymond Hearne / drums[/more]

[more=Technical info]
Input File: 01 - Haken - Prosthetic.mp3
Channels : 2
Sample Rate : 44100
Precision : 16-bit
Duration : 00:05:58.22 = 15797370 samples = 26866.3 CDDA sectors
File Size : 14.4M
Bit Rate : 322k
Sample Encoding: MPEG audio (layer I, II or III)
Comments :
Title=Prosthetic
Artist=Haken
Album=Virus
Tracknumber=1/11
Year=2020
Genre=Progressive Metal
Discnumber=1/1

[/more]

Register
(37) 555, andgrek28, BERZERK, BlackTroll, BladeOvDarkness, boby9052, Cartman223, comradEnemy, demon_e, DenisKov, Ghostb, Herrant, infiltrator, Jorn777, leviathanticus, Lukittaz, metala, Metalass, MMMMM, Mogozoz, Mplast, Nattfodd, nygga, Old Vyaine, Olethros, Rodriga, Rosen, Rover, SAPOGi, SatanicPanzer, Shadowman, smes, terron, Yarri, Yorker, yuratroll, Нигилист,
Jun 21 2020, 16:52:22 Hail Spirit Noir - Eden In Reverse (2020)
Ccыль на Limited Edition с 2мя бонусами, битрейт 320, размер 128 Мб
Register
(12) BlackTroll, BleedingSun, Daale, Femto, GFW, Ghostb, Johnix, Old Vyaine, xska, yuratroll, Нигилист, скептик,
Jun 18 2020, 18:56:09 Hail Spirit Noir - Eden In Reverse (2020)
Чудесный альбом! Уже несколько раз прогнал и не могу остановиться! Очешуительный прог/спейс - рок/металл, просто высочайшей пробы! headcrab.png headcrab.png headcrab.png На 4м треке, кстати, поет, приглашенный Лазаре из Solefald/Borknagar/Age Of Silence. ЗЫ Вокал везде отличный, в том числе и именитого гостя). ЗЫЫ Блэка тут нет, совсем, совсем нет, металла тоже на полкопейки. 1488.gif
(8) BleedingSun, Daale, Evilded, Faust_Vulkan_16, Ghostb, Metalass, Old Vyaine, smes,
Jun 2 2020, 11:39:43 Arabs In Aspic - Madness And Magic (2020)


*Artist: Arabs In Aspic
*Album: Madness And Magic
*Year: 2020
*Genre: Progressive Rock
*Country: Norway
*Format: mp3@CBR320kbps
*Size: 108MB

Tracklist:
1. I Vow To Thee, My Screen 08:22
2. Lullaby For Modern Kids, Part 1 08:19
3. Lullaby For Modern Kids, Part 2 02:06
4. High-Tech Parent 04:34
5. Madness And Magic 06:47
6. Heaven In Your Eye 16:45
******************************
Total playing time: 46:53

Preview 1

[more=Extended info]Line Up:
- Jostein Smeby / guitars, vocals
- Stig Jorgensen / organs, vocals
- Erik Paulsen / bass, vocals
- Eskil Nyhus / drums, cymbals
- Alessandro G. Elide / percussion, gongs[/more]

[more=Technical info]
Input File: 01-I vow to thee my screen.mp3
Channels : 2
Sample Rate : 44100
Precision : 16-bit
Duration : 00:08:22.51 = 22160515 samples = 37688 CDDA sectors
File Size : 20.1M
Bit Rate : 320k
Sample Encoding: MPEG audio (layer I, II or III)
Comments :
Title=I vow to thee my screen
Artist=Arabs in Aspic
Album=Madness and Magic
Tracknumber=1
Year=2020
Genre=Progressive Rock

[/more]

Register
(10) AHBAnep, cancer1974, infiltrator, marilin, Old Vyaine, Olethros, Sabbathian, stumpheavyrock, Valdmaar, yuratroll,
May 30 2020, 19:17:13 Paradise Lost - Medusa (2017)
На волне отличного нового альбома переслушиваю Медузу.... Господа-товарищи, вы зря холиварите, оба альбома преотличнейшие.... единственная слабая вещь на данном альбоме - это 1488.gif Frozen Illusion с "психоделического мяса" 90го года выпуска.
(1) Archy,
May 30 2020, 16:03:18 Descend Into Despair - Opium (2020)


*Artist: Descend Into Despair
*Album: Opium
*Year: 2020
*Genre: Funeral Doom Metal
*Country: Romania
*Format: mp3@CBR320kbps
*Size: 133MB

Tracklist:
1. Ensh[r]ine 22:28
2. Antumbra 17:08
3. Dis[re]member 19:55
******************************
Total playing time: 59:31



[more=Extended info]Xander Keyboards (early), Drums (2010-2014), Guitars, Vocals (2010-present)
Cosmin Guitars (2013-present)
Florentin Keyboards (2013-2014), Bass (2014), Guitars (acoustic) (2014-present), Keyboards, Lyrics (2017-present)
Alex Bass (2014-present)
Luca Drums (2014-present)
Flaviu Keyboards (2016-present)
Liviu Guitars (2019-present)

[youtube]46yYZRsE0oc[/youtube]
[youtube]IyNpVeRo2Qc[/youtube]
[youtube]ou6GsPHZySw[/youtube][/more]

[more=Technical info]
Input File: 02. Antumbra.mp3
Channels : 2
Sample Rate : 44100
Precision : 16-bit
Duration : 00:17:08.29 = 45347677 samples = 77121.9 CDDA sectors
File Size : 41.2M
Bit Rate : 321k
Sample Encoding: MPEG audio (layer I, II or III)
Comments :
Title=Antumbra
Artist=Descend Into Despair
Album=Opium
Tracknumber=2/3
Year=2020

[/more]

Register

Register
(23) Buregon, cesar, gena, Hell_Is_Here, infiltrator, Jorn777, krotovich, libertine, nadin85, Olethros, pothead, robertho777, Rosen, Samaritianin, satanath, Shadechaser, skidnik, supremo, thenecromancer, vosmidesijatye, vyacheslav, wreak, Yorker,
May 27 2020, 20:33:07 Sinister Downfall - A Dark Shining Light (2020)
Уже едет дисочек от лейбла в комплекте с дебютником. headcrab.png
(1) Bloodn Lord,
May 15 2020, 19:50:51 Paradise Lost - Obsidian (2020)
Вывод: я так понял, что Белоснежке альбом не понравился и он, как обычно поливает радужной субстанцией всех...ну пёс его знает, что так всё плохо в этом мире или в Ленинграде фон радиоактивный превышен, но картина самая обычная, как и в других темах - "баба Яга против", ничего нового. 1488.gif Кстати, дебют гораздо хуже Медузы. если чё, киньте моё "фу" в копилку тоже, если чё. 25.gif 1488.gif ЗЫ Да, Екатерина Матвеевна уж гораздо краше крайнего Крематория, который без Григоряна,тоже если чё... 1488.gif
(2) Ghostb, infiltrator,
May 13 2020, 07:57:32 Septic Flesh - Mystic Places Of Dawn (1994)
Рип, который выложил SyncestrA, да, звучит гораздо лучше оригинала. headcrab.png 9.gif
(2) Bloodn Lord, SyncestrA,
May 9 2020, 17:40:37 Green Carnation - Leaves Of Yesteryear (2020)
ЦИТАТА(Ghostb @ May 9 2020, 19:35:44) *
А этих почему выделяешь?

Ну, видимо, потому, что те активно косят под Тул, ну косили раньше, по крайней мере. 1488.gif
(1) Ghostb,
May 9 2020, 12:54:46 Death Sentence - Awaiting The Cinnamon Dawn (1999)
Хм, а я было решил, что это альбом моих земляков, которые тоже начинали c детх-дума и назывались Death Sentence, а потом реинкарнировали в Phantasmagory став играть прогдэт.
(2) Hellstriker, infiltrator,
May 7 2020, 08:43:02 Paradise Lost - Obsidian (2020)
Ну вот, даже тут, в этой теме Тиран опять яростно защищает Адепта и согласен с ним по всем позициям, как и в других темах, так, что спектакль это про "умного чсвшного металхэда-рэпера и простовато-нагловатого чсвшного трололо, косящего под шумера - фэна Оззика".)))))) 1488.gif Он бы уже, хоть раз, ну чисто ради приличия, не согласился с выводами своего альтер эго - духовного близнеца.))))
(1) Faust_Vulkan_16,
May 5 2020, 07:52:26 Paradise Lost - Obsidian (2020)
ЦИТАТА(SatanicPanzer @ May 5 2020, 09:50:31) *
Paradise Lost - Obsidian (Limited Edition) (2020) вроде ж качество, не? bye.gif

Неа. Транскод, как он есть. Православный срез на 17 килогерцах.
(1) zyklon,
May 5 2020, 07:48:08 Paradise Lost - Obsidian (2020)
ЦИТАТА(BleedingSun @ May 5 2020, 05:34:51) *
Руки прочь от Кататонии 13.gif
dooo.gif
dwarf-1.gif А альбом - огненный прямо-таки у моих любимцев вышел! Не подвели, хороняки, не подвели! headcrab.png
(1) BleedingSun,

38 Pages V   1 2 3 > » 
- Lo-Fi Version Support form
Copyrights and abuse reports form
Time is now: 26th September 2020 - 21:57:40