Welcome Guest ( Log In | Register )

История благодарностей участнику paganheart ::: Спасибо сказали: 4895 раз(а)
Дата поста: В теме: За сообщение: Спасибо сказали:
Yesterday, 14:28:31 Чудодейственные свойства гомеопатии, или Голосовалка за лучший альбом 2019 года, Тур 1
ЦИТАТА(vosmidesijatye @ Apr 3 2020, 16:24:52) *
Hvis Lyset Tar Oss и Filosofem?

Нет, Det Som Engang Var - прежде всего. Ну, а вышеуказанное попозже.
(1) vosmidesijatye,
Mar 28 2020, 06:22:54 Me And That Man - New Man, New Songs, Same Shit, Vol.1 (2020)
ЦИТАТА(Ghostb @ Mar 28 2020, 04:10:22) *
Надеюсь, не будет таким третьесортным закосом под Кейва как дебютник. Может, даже приглашенные гости помогут вокальные партии вытянуть, а то чистый у него совершенно ужасен.

Кейву самому бы косить под самого себя, времен, хотя бы Let Love In, не мешало, а то эти "колыбельные" с времен Ноктюрамы уже и не отличить одну от другой. 21.gif Потому, раз Кейв не хочет в Кейва, то спасибо хотя бы Адаму за "правильного" Кейва.
(2) comradEnemy, infiltrator,
Mar 27 2020, 11:43:23 Me And That Man - New Man, New Songs, Same Shit, Vol.1 (2020)


*Artist: Me And That Man
*Album: New Man, New Songs, Same Shit, Vol.1
*Year: 2020
*Genre: Dark Folk/Country Blues/Country Rock
*Country: Poland
*Format: mp3@CBR320kbps
*Size: 95MB

Tracklist:
1. Run with the Devil (feat. Jørgen Munkeby) 02:30
2. Coming Home (feat. Sivert Høyem) 03:19
3. Burning Churches (feat. Mat McNerney) 03:19
4. By the River (feat. Ihsahn) 03:51
5. Męstwo 04:02
6. Surrender (feat. Dead Soul & Rob Caggiano) 03:42
7. Deep Down South (feat. Johanna Sadonis & Nicke Anderson) 03:49
8. Man of the Cross (feat. Jérôme Reuter) 04:35
9. You Will Be Mine (feat. Matt Heafy) 03:52
10. How Come? (feat. Corey Taylor & Rob Caggiano & Brent Hinds) 04:46
11. Confession (feat. Niklas Kvarforth) 02:47
******************************
Total playing time: 40:32

Preview 1

[more=Extended info]Альбом проекта Нергала Me and That Man New Man, New Songs, Same Shit, Vol.1 – образец дарк-фолка и блюза. В записи материала приняли участие Кори Тейлор (Slipknot, Stone Sour), Брент Хайндс (Mastodon), Мэтью Хифи (Trivium) и другие.[/more]

[more=Technical info]
Input File: 01 Run with the Devil (feat. Jørgen Munkeby).mp3
Channels : 2
Sample Rate : 44100
Precision : 16-bit
Duration : 00:02:30.27 = 6626775 samples = 11270 CDDA sectors
File Size : 6.32M
Bit Rate : 336k
Sample Encoding: MPEG audio (layer I, II or III)
Comments :
Title=Run with the Devil (feat. Jørgen Munkeby)
Artist=Me And That Man
Album=New Man, New Songs, Same Shit, Vol.1
Tracknumber=1/11
Year=2020
Genre=Rock
Discnumber=1/1

[/more]

Register
(37) 29A666, A.L.Rapsod, Angry_Chair, as71, BladeOvDarkness, BleedingSun, Brann, Druidir, garml2, gena, gwar, helvetestoner, HMHamster, HviteGuden, infiltrator, judaz, Konst, Krosis, legion01, Lux, MAYH, nadin85, Ogneslov, Olethros, sabr, SatanicPanzer, smes, soulskinner681, stone88, Tular, VALERY, wolverine, xska, ZA670, zyklon, Герб, Козлотролль,
Mar 20 2020, 20:10:22 Ном - Супердиск (1992)
ЦИТАТА(Old Vyaine @ Mar 20 2020, 21:52:59) *
Они в последнее время вообще сильно утяжелились.

Что есть, то есть. Альбом "Я тебя услышал" местами вообще - готик-дум самый натуральный. Что тут сказать, развиваются ребята, не стоят и не тухнут в своих миазмах, что еще больше вызывает чувство восхищения глубиной таланта Кагадеева и сотоварищей. headcrab.png
(1) Faust_Vulkan_16,
Mar 20 2020, 10:49:43 Ном - Супердиск (1992)
1. Нина 03:59 - вообще мегаклассика! pray.gif Они её на концертах по-другому сейчас исполняют, жестче намного, но не так психоделично-авангардно, как в оригинале.)))
(2) infiltrator, vosmidesijatye,
Mar 15 2020, 19:13:31 Psychotic Waltz - The God-Shaped Void (2020)
FLAC-rip 320 kbps со сканами - 11 песенное издание с бонусом 9. Season Of The Swarm (Bonus track)
Register
(2) boby9052, SatanicPanzer,
Mar 13 2020, 17:45:15 My Dying Bride - The Ghost Of Orion (2020)
ЦИТАТА(Ghostb @ Mar 13 2020, 19:30:25) *
По качеству свежевыпущенных альбомов где-то между вторым и третьим сортами.

Ага, вот наконец-то и пришел к мудрому умозаключению о крайнем выкидыше Leprous. 1488.gif
(2) infiltrator, mirotvorets,
Mar 9 2020, 14:56:28 Tristitia - Burial Of The Sad (2020)
ЦИТАТА(quicksand @ Mar 9 2020, 15:57:27) *
Рискну предположить, что песни на этом альбоме взяты из ранее неизданного материала, который был еще до записи дебюта и, в т.ч., не входившие в свое время в официально выпущенные демо 93 и 94 годов, хотя пара песен уже ранее выходила в мир на компиляции 2017 года.
Кажется на странице группы в ФБ и прочитал о планируемом выходе старого, ранее не издававшегося материала, и должно было все выйти то ли в конце прошлого года, то ли в начале текущего. Так что, хоть это материал и не должно оправдывать, но по крайней мере так стало бы понятней, отчего у опытного коллектива долгожданный лонг-плей записан и звучит так ло-файно 11.gif

К сожалению, это не так...
ЦИТАТА
All music and lyrics by Luis B. Galvez
Produced by Luis B. Galvez
Recorded and mixed at Soundeathlirium Studios Halmstad, Sweden 2019

Thomas Karlsson - Vocals
Luis B. Galvez - All guitars, bass and keyboars
Alessio - Drums

Bass on River of the Cross by Harri Juvonen
Bass on Autumn Leaves by Wilhelm Lindh
(1) quicksand,
Mar 6 2020, 12:24:51 НОМ - Веселая Карусель (2020)


*Artist: НОМ
*Album: Веселая Карусель
*Year: 2020
*Genre: Rock
*Country: Russian Federation
*Format: mp3@CBR320kbps
*Size: 95MB

Tracklist:
01. Ну, погоди! 04:27
02. Антошка 04:33
03. В лесу родилась ёлочка 04:04
04. Сорняки 02:19
05. Шарики варить 03:12
06. Дразнилка 04:04
07. Поросята болеют 02:18
08. Хлеб-соль 04:33
09. Отцы и дети 06:57
10. Старый жук 05:02
******************************
Total playing time: 41:29

Preview 1

[more=Extended info]Андрей Кагадеев
лидер группы «НОМ»

«Веселая карусель» — это фантазия группы НОМ на тему детских песен, выполненная в жанре мультальманаха. Кавер-версии песен из мультфильмов разных лет вдумчиво перемешаны с оригинальным музыкальным материалом. Альбом отличает стилевое разнообразие — от клезмера и хард-кора до мини-оперы, группа в данном случае ничем себя не ограничивала. Это первый релиз, записанный на студии «Свиное рыло», т. е. мы не обращались к общественности с краудфандингом, все сделали сами, своими руками, не прибегая и к услугам профессиональных звукорежиссеров со стороны. Звук на альбоме таков, каким его видим мы — музыканты. Усилилось «женское» участие — в группе новая барабанщица Валентина Векшина. Помимо Варвары Зверьковой женскими и детскими голосами поют также Ольга Зубкова, Галина Савченко, Мария Любичева, Светлана Гумановская. В общем, все как всегда — разнообразно и много неожиданностей для слушателей.[/more]

[more=Technical info]
Input File: 01. НОМ - Ну, погоди.mp3
Channels : 2
Sample Rate : 44100
Precision : 16-bit
Duration : 00:04:27.59 = 11800719 samples = 20069.2 CDDA sectors
File Size : 10.7M
Bit Rate : 320k
Sample Encoding: MPEG audio (layer I, II or III)
Comments :
Title=Ну, погоди
Artist=НОМ
Album=Веселая Карусель
Tracknumber=01
Year=2020
Genre=Ironic Rock

[/more]

Register
(19) A.L.Rapsod, Aresson, as71, Ash_1980, Branis, Diflock, DMIYUR, Druidir, infiltrator, judaz, KVRT, Old Vyaine, oldvarg, Olethros, sabr, stone88, stub888, VALERY, zerger,
Mar 5 2020, 16:30:16 Crematory - Unbroken (2020)
ЦИТАТА(plfan93 @ Mar 5 2020, 18:09:32) *
Уж лет двадцать у них ничего толкового не выходило, и, судя по синглам, так все и останется.

Ну не 20.... был у них один альбом в послереанимационном периоде - Pray , который, надо сказать, весьма хорош, а всё остальное да, музыкальная графомания на уровне ДНОцовой - количество ради количества и выполнения обязательств перед лейблом.
(1) Ghostb,
Feb 23 2020, 13:15:57 Фильм Князья Хаоса
Начал смотреть. Шансонье Луи тут действительно смешной вышел. 1488.gif
(1) tireheb,
Feb 20 2020, 20:54:20 ДДТ - Галя Ходи (2018)
ЦИТАТА(Leshiy666 @ Feb 20 2020, 22:17:05) *
[youtube]Xk7sor5f9v0[/youtube]

[youtube]3QIOMymkXJQ[/youtube]

"Галю Приходь" - кавер на самый известный хит АКаДаКи(AC/DC). 1488.gif Вопли "каверили" их довольно часто, ну и Slade не забывали - "Весна" - "In for a Peny". crazy.gif
(1) Leshiy666,
Feb 1 2020, 19:19:18 Sedate Illusion - Ungod Me (2020)


*Artist: Sedate Illusion
*Album: Ungod Me
*Year: 2020
*Genre: Progressive Metal
*Country: Greece
*Format: mp3@CBR320kbps
*Size: 115MB

Tracklist:
01. Intro 00:36
02. Perspective 08:35
03. Descending 08:10
04. Ellipsism 08:11
05. Forever 05:28
06. Rain 05:47
07. Reach the Sun 08:34
08. Withered Roses (Reissue) 04:20
******************************
Total playing time: 49:41

Preview 1

[more=Extended info]Line Up:
- Vangelis Kakarougkas / vocals, keyboards
- Anastasios Kibizis / guitars
- Vagelis Glavinas / bass
- Antreas Alamanos / drums[/more]

[more=Technical info]
Input File: 2 - Perspective.mp3
Channels : 2
Sample Rate : 44100
Precision : 16-bit
Duration : 00:08:35.30 = 22724598 samples = 38647.3 CDDA sectors
File Size : 20.7M
Bit Rate : 321k
Sample Encoding: MPEG audio (layer I, II or III)
Comments :
Title=Perspective
Artist=Sedate Illusion
Album=Ungod Me
Tracknumber=2
Year=2020
Genre=Progressive Rock
Discnumber=1

[/more]

Register
(14) ASkyThatBurns, Blaubart, boby9052, gwynnbleid, infiltrator, leks, metala, MMMMM, Mogozoz, Olethros, Rosen, Rover, terron, wreak,
Jan 24 2020, 21:12:57 НОМ - Превыше Всего (2009)
Крутой альбом! Обезьянья песнь и Подшиток - вообще вне конкуренции, одни из лучших в творчестве Андрея Кагадеева и Сотоварищей. Нравятся все этапы творчества этого великолепного коллектива, но поздние альбомы почему-то мне ближе всего, особенно крайний "Я тебя услышал", где ребята решили в тяжесть зарубиться. headcrab.png ЗЫ: 15го планирую на них попасть в Арх-ке. ЗЫЫ Единственное кого и чего не хватает в позднем тв-ве - это покойного Сергея (в Межпланетной любви - его голос вне конкуренции ) и Ивана Туриста.
(1) Old Vyaine,
Jan 24 2020, 13:29:10 Psychotic Waltz
[youtube]O6Heqhw0Z1o[/youtube]
Подброшу еще ништяков с грядущего лонгплея! headcrab.png
(3) Ghostb, mirotvorets, Yarri,
Jan 23 2020, 13:55:05 Thy Catafalque - Naiv (2020)
Ууух, мощща! headcrab.png headcrab.png headcrab.pngЗЫ Снова русские дети на альбоме привносят колорит.ЗЫЫ Альбом - улетнейший!
(2) Disillusion, infiltrator,
Jan 15 2020, 15:21:00 Лучший советчик МА - Часть 5 (Прог) - Тур 1, Общий сбор
Cпецом зашел в ваш сайт "конечностей моржа" - вроде 10 тыщ нет. Добавлю любимейший альбом последних лет 10. headcrab.png headcrab.png headcrab.png
ЦИТАТА
Theater Of The Absurd - The Myth Of Sisyphus (2013)
(2) Daale, infiltrator,
Jan 15 2020, 14:40:45 Adrian Tabacaru - Lucifer: A Rock Opera (2020)


*Artist: Adrian Tabacaru
*Album: Lucifer: A Rock Opera
*Year: 2020
*Genre: Progressive Metal/Rock/Rock Opera
*Country: Romania
*Format: mp3@CBR320kbps
*Size: 103MB

Tracklist:
01. Exordium
02. Lucifer
03. Longing for the Star
04. Intermezzo
05. Beyond Infinity
06. The Long Way Home
07. Asking the Void
08. Antithesis
09. A Valediction - Forbidding Mourning
10. Conclusio
11. Celestial Funeral
12. Singularity
******************************
Total playing time: 45:11

Preview 1

[more=Extended info]Line Up:
Adrian Tabacaru - drums, composed
Eugen Brudaru in the role of Hiperion
Maria Hojda in the role of Catalina
Razvan Krivach in the role of Catalin
Iustinian Zetea - bass (vocal style)
Dominic Cristea - baritone
Laura Mihaila - vocals
Dragos Cretu - vocals
Andrei Ionescu - vocals
Andrew Pleavin - narrator
Olimpia Malai - angels
Raluca Sratulat - violin and viola
Andreea Timiras - cello
Adrian Buciu - flute
Sebastian Burneci - trompet
Constantin Urziceanu - clarinet
Sergiu Dan Feier - oboe
Petre Iftimie - guitar
Andrei Popa - guitar
Alexei Nichiforof - bass[/more]

[more=Technical info]
Input File: 02 - Lucifer.mp3
Channels : 2
Sample Rate : 44100
Precision : 16-bit
Duration : 00:05:57.22 = 15753446 samples = 26791.6 CDDA sectors
File Size : 14.3M
Bit Rate : 320k
Sample Encoding: MPEG audio (layer I, II or III)
Comments :
Title=Lucifer
Artist=Adrian Tabacaru
Album=Lucifer - A Rock Opera
Tracknumber=2
Year=2020
Genre=Rock
Discnumber=1

[/more]

Register
(16) AHBAnep, ASkyThatBurns, chipsgott, corell, dimitriusk, gwynnbleid, infiltrator, Mogozoz, Olethros, Rosen, SAPOGi, SatanicPanzer, varlam4, wreak, yuratroll, скептик,
Jan 9 2020, 19:29:20 Может ли Христианский Блек быть Тру Блеком?
ЦИТАТА(atom72 @ Jan 9 2020, 20:59:27) *
Банальность в том что весь блек про сотону - христианский, потому что сотону и придумали христиане.

[youtube]6WuS27iQnvs[/youtube]
ЗЫ Абсолютно солидарен с Кагадеевым. 25.gif
(2) infiltrator, Old Vyaine,
Jan 4 2020, 08:43:24 Pat Reilly - Path To Transcendence (2020)


*Artist: Pat Reilly
*Album: Path To Transcendence
*Year: 2020
*Genre: Progressive Metal
*Country: United States
*Format: mp3@CBR320kbps
*Size: 75MB

Tracklist:
01. Between Two Worlds 03:44
02. Emergence 06:56
03. Bleeding Life 03:37
04. The Sleepless 01:34
05. Dracarys 05:47
06. Winter Sunrise 05:20
07. Birth of Freedom 02:59
08. Vitality 04:53
******************************
Total playing time: 34:50

Preview 1


[more=Technical info]
Input File: 1 - Between Two Worlds.mp3
Channels : 2
Sample Rate : 44100
Precision : 16-bit
Duration : 00:03:43.83 = 9870859 samples = 16787.2 CDDA sectors
File Size : 9.00M
Bit Rate : 322k
Sample Encoding: MPEG audio (layer I, II or III)
Comments :
Title=Between Two Worlds
Artist=Pat Reilly
Album=Path to Transcendence
Tracknumber=1
Year=2020
Genre=Alternative/Indie Rock/Metal
Discnumber=1

[/more]

Register
(10) autumnwood, dimitriusk, infiltrator, metala, Mogozoz, multizwilling, Olethros, Rosen, Rover, SAPOGi,
Jan 4 2020, 08:15:41 Aghora - Entheogenic Frequencies (2019)


*Artist: Aghora
*Album: Entheogenic Frequencies
*Year: 2019
*Genre: Progressive Metal/Jazz Fusion
*Country: United States
*Format: mp3@CBR320kbps
*Size: 148MB

Tracklist:
01. Path 06:34
02. Arrival 10:09
03. Kingdom of Ea 06:16
04. Cave 06:38
05. Portal 06:36
06. Tree of Answers 08:32
07. The Marduk Prophecy 08:58
08. Truth Is Alien 10:09
******************************
Total playing time: 1:03:52

Preview 1

[more=Extended info]Band members
Santiago Dobles Guitars, Banjo, Synths
Alan Goldstein Bass
Matt Thompson Drums
Guest/Session
Gustavo Dobles Orchestration and Keyboards
Miscellaneous staff
Alex Gerst Drum Engineering
Santiago Dobles Engineering, Mixing, Production
Freddy González Mastering
Santiago Jaramillo Artwork[/more]

[more=Technical info]
Input File: 01 - Path.mp3
Channels : 2
Sample Rate : 44100
Precision : 16-bit
Duration : 00:06:34.50 = 17397274 samples = 29587.2 CDDA sectors
File Size : 16.1M
Bit Rate : 326k
Sample Encoding: MPEG audio (layer I, II or III)
Comments :
Title=Path
Artist=Aghora
Album=Entheogenic Frequencies
Tracknumber=1
Year=2019

[/more]

Register
(53) AHBAnep, Alpha_Prime, as71, ASkyThatBurns, autumnwood, chipsgott, dalek, ddx1, Deada, dimitriusk, Evilded, Faust_Vulkan_16, Forest, garml2, gena, gwynnbleid, Hammaren, Herrant, Illogicist, J0k3r, kimkayoung, LEGION69, lucifix, martintrue, metala, metaljosue, mirotvorets, Mplast, multizwilling, nikolay81, oldvarg, Olethros, peppuzzo, realexxx75, Rosen, SaintVitus, SAPOGi, satanath, SatanicPanzer, Shadowman, StabWound, SyncestrA, Tino, varlam4, Vital157, Yarri, yuratroll, zerger, Луч, Нигилист, партизан, скептик, Язва,
Dec 28 2019, 11:00:12 Altesia - Paragon Circus (2019)
Да, шикарный подарок под НГ - в виде данного релиза! Чудеснейший альбом! Эээх, если бы Opeth записали хоть что-то на подобном уровне вместо невнятного "нечто", в виде последних 2х релизов... 6.gif
(1) Yarri,
Dec 27 2019, 12:06:10 Leif Edling - Songs Of Torment-Songs Of Joy (2008)
ЦИТАТА(thenecromancer @ Dec 27 2019, 12:55:19) *

Ок, fxd. bye.gif
(2) infiltrator, thenecromancer,
Dec 26 2019, 19:51:55 She Cries - Constancy Of Misery Or Mirrors Scared To Show Exhausted Ones [demo] (1995)
Register
Обновил. bye.gif
(2) infiltrator, Wail,
Dec 25 2019, 17:45:39 Procol Harum - Exotic Birds And Fruit (1974)
ЦИТАТА(vosmidesijatye @ Jul 25 2019, 17:56:08) *
Один из любимых их альбомов.

paganheart, что скажешь?

Неплох, да, но дебютник - круче всех. pray.gif pray.gif pray.gif
(2) Faust_Vulkan_16, Yarri,

36 Pages V   1 2 3 > » 
- Lo-Fi Version Support form
Copyrights and abuse reports form
Time is now: 4th April 2020 - 12:55:20