Welcome Guest ( Log In | Register )

История благодарностей участнику paganheart ::: Спасибо сказали: 4441 раз(а)
Дата поста: В теме: За сообщение: Спасибо сказали:
May 26 2019, 09:20:57 Diamond Head - The Coffin Train (2019)
Металлика здорового человека. 1488.gif Собсно, альбом весьма форматный, никаким хардом тут особо и не пахнет.
(2) Faust_Vulkan_16, Ghostb,
Mar 26 2019, 06:55:43 Hteththemeth - Best Worst Case Scenario (2016)
Новая композиция. Великолепная, надо сказать! headcrab.png
[youtube]dALmv-HZsw0[/youtube]
(2) Tular, Язва,
Jan 24 2019, 17:37:25 Oomph! - Ritual (2019)
Хороший альбом, годный. Не мой любимый "фейтноуморообразный" Ego, конечно, но сейчас и не 2000й год за окном.))) bye.gif
(1) Mplast,
Dec 21 2018, 14:18:16 Infected Mushroom - Head Of Nasa And The 2 Amish Boys (2018)


*Artist: Infected Mushroom
*Album: Head Of Nasa And The 2 Amish Boys
*Year: 2018
*Genre: Psy-Trance/Dubstep/Electro
*Country: Israel
*Format: mp3@CBR320kbps
*Size: 119MB

Tracklist:
01. Bliss On Mushrooms (Feat. Miyavi) (09:30)
02. Guitarmass (06:38)
03. Head Of NASA (07:45)
04. Chenchen Barvaz (07:42)
05. Walking On The Moon (05:36)
06. Here We Go Go Go (05:55)
07. Lost In Space (04:55)
******************************
Total playing time: 48:01

Preview 1

[more=Extended info]electronic music DJs and producers Duo::
Amit Duvdevani
Erez Eisen[/more]

[more=Technical info]
Input File: 02. Infected Mushroom - Guitarmass.mp3
Channels : 2
Sample Rate : 44100
Precision : 16-bit
Duration : 00:06:39.02 = 17596738 samples = 29926.4 CDDA sectors
File Size : 16.1M
Bit Rate : 322k
Sample Encoding: MPEG audio (layer I, II or III)
Comments :
Title=Guitarmass
Artist=Infected Mushroom
Album=Head Of NASA And The 2 Amish Boys
Tracknumber=2
Year=2018
Genre=Psy-Trance / Dubstep / Electro

[/more]

Register
(7) Emhyr var Emreis, Faust_Vulkan_16, gwar, nemx, Olethros, Shadechaser, скептик,
Dec 20 2018, 18:19:50 Phlebotomized - Deformation Of Humanity (2019)
Блин,я как будто в молодость кассетных 90х вернулся - это настолько очешуенно, что словами не передать! headcrab.png
(3) Ghostb, metala, troll_swamp,
Dec 17 2018, 16:58:40 Custard Flux - Helium (2018)


*Artist: Custard Flux
*Album: Helium
*Year: 2018
*Genre: Psychedelic/Progressive Rock
*Country: United States
*Format: mp3@CBR320kbps
*Size: 149MB

Tracklist:
01. The Hit Parade
02. Forevermore
03. Empyrean House
04. Tiger
05. The Shire Of Gingin
06. Innermission
07. Sleepy
08. La Mort
09. Out Of Phase
10. Golden Opportunity
11. Tiger Reprise
12. Helium
******************************
Total playing time: 1:04:52


Preview 2

[more=Extended info]Line Up / Musicians:
Andrea Massimo / guitar, vocals
Walter Kesten / guitar
Lino Cicala / keyboards
Andrea Zani / keyboards
Tony Alemanno / bass guitar and bass pedal
Matteo Paparazzo / drums
Demetra Fogazza / flute, vocals[/more]

[more=Technical info]
Input File: 03. Empyrean House.mp3
Channels : 2
Sample Rate : 44100
Precision : 16-bit
Duration : 00:03:54.41 = 10337437 samples = 17580.7 CDDA sectors
File Size : 9.46M
Bit Rate : 323k
Sample Encoding: MPEG audio (layer I, II or III)
Comments :
Title=Empyrean House
Artist=Custard Flux
Album=Helium
Tracknumber=3
Year=2018
Genre=Progressive Rock

[/more]

Register
(2) Diflock, marilin,
Dec 7 2018, 19:13:59 Pavlov's Dog - Prodigal Dreamer (2018)
ЦИТАТА(Shadowman @ Dec 7 2018, 20:42:12) *
Ого! Мало того, что в любом Мухосранске есть как минимум одна группа с таким названием, так еще и до штатов эта мода дошла? Однако...

Издеваешься? 1488.gif Когда штатовцы прогремели со своим Pampered Menial - все участники ярославских и прочих ВИА еще даже не созрели в комсомольских семенниках их папаш)))). У меня в 90х Pampered Menial и At the Sound of the Bell были любимы не менее, чем Yes и Rush, например.)))
[youtube]p7RtIQLWchQ[/youtube]
(3) Deze, Ghostb, Vastich,
Dec 6 2018, 20:13:49 Pavlov's Dog - Prodigal Dreamer (2018)
ЦИТАТА(vosmidesijatye @ Dec 6 2018, 22:09:55) *
Ты точно видишь влияние Агаты в этом клипце?

[youtube]r_Qi08c_5oE[/youtube]

Это же больше КИШовщина натуральная 25.gif

Сорян, это я с другим проджектом "Маэстро" спутал - КлЮб ТрагЭдии, который - песня "Ты и Я". crazy.gif
(1) vosmidesijatye,
Dec 6 2018, 19:32:10 Pavlov's Dog - Prodigal Dreamer (2018)


*Artist: Pavlov's Dog
*Album: Prodigal Dreamer
*Year: 2018
*Genre: Progressive Rock
*Country: United States
*Format: mp3@CBR320kbps
*Size: 125MB

Tracklist:
01. Paris 04:43
02. Hard Times 04:26
03. Winterblue 04:06
04. Thrill Of It All 05:55
05. Easter Day 02:45
06. Hurting Kind 06:28
07. Aria 04:46
08. Waterlow 04:23
09. Suzanne 03:54
10. Crying Forever 04:04
11. Being In Love 02:32
12. Shaking Me Down 04:17
13. The Winds Wild Early 06:41
******************************
Total playing time: 59:00

Preview 1

[more=Extended info]Label: Rockville Music.
Releases 07 December 2018.

Current members
David Surkamp - vocals, guitar (1972–1977, 1990, 2004, 2005–present)
Manfred Plötz - drums (2015–present)
Abbie (Hainz) Steiling - violin, mandolin (2008-present)
Amanda McCoy - lead guitar (2013-present)
Rick Steiling - bass (2009, 2011-present)
Sara Surkamp - vocals, guitar (2005-present)
Новый альбом легенды американского прог-рока![/more]

[more=Technical info]
Input File: 02. Hard Times.mp3
Channels : 2
Sample Rate : 44100
Precision : 16-bit
Duration : 00:04:26.75 = 11763851 samples = 20006.5 CDDA sectors
File Size : 10.8M
Bit Rate : 324k
Sample Encoding: MPEG audio (layer I, II or III)
Comments :
Title=Hard Times
Artist=Pavlov's Dog
Album=Prodigal Dreamer
Tracknumber=2
Year=2018
Genre=Progressive Rock

[/more]

Register
(3) dk201x, Mplast, VALERY,
Dec 5 2018, 18:35:13 They - Unspeakable (2018)


*Artist: They
*Album: Unspeakable
*Year: 2018
*Genre: Progressive Rock/Metal
*Country: United States
*Format: mp3@CBR320kbps
*Size: 121MB

Tracklist:
01 - Sacred Geometry (05:36)
02 - Beneath the Serpents (04:18)
03 - Unspeakable (05:56)
04 - They (04:41)
05 - Moving Forward (03:59)
06 - Geometric Reprise (02:44)
07 - Swallow Black Rain (03:40)
08 - Ulterior Motives (05:16)
09 - Down in the Park (03:25)
10 - Lost & Found (04:53)
11 - Moth (04:49)
12 - Pseudogray (07:47)
******************************
Total playing time: 57:04

Preview 1

[more=Technical info]
Input File: 04 - They.mp3
Channels : 2
Sample Rate : 44100
Precision : 16-bit
Duration : 00:04:41.83 = 12428571 samples = 21137 CDDA sectors
File Size : 11.4M
Bit Rate : 323k
Sample Encoding: MPEG audio (layer I, II or III)
Comments :
Title="They"
Artist=They
Album=Unspeakable
Tracknumber=04
Year=2018
Genre=Progressive Rock

[/more]

Register
(5) Diflock, dimitriusk, Mplast, Olethros, скептик,
Nov 14 2018, 22:10:06 Overhead - Haydenspark (2018)


*Artist: Overhead
*Album: Haydenspark
*Year: 2018
*Genre: Progressive Rock
*Country: Finland
*Format: mp3@CBR320kbps
*Size: 110MB

Tracklist:
1. Animation for the Poor Man 04:13
2. Last Generation 05:15
3. Count Your Blessings 04:44
4. Haydenspark 09:24
5. King of the World 05:31
6. Across the Nation 05:23
7. Death by Tribulation 05:19
8. The Fall 03:54
9. Gone Too Far 08:04
******************************
Total playing time: 51:47



[more=Technical info]
Input File: 01. Animation for the Poor Man.mp3
Channels : 2
Sample Rate : 44100
Precision : 16-bit
Duration : 00:04:13.88 = 11195888 samples = 19040.6 CDDA sectors
File Size : 10.3M
Bit Rate : 325k
Sample Encoding: MPEG audio (layer I, II or III)
Comments :
Title=Animation for the Poor Man
Artist=Overhead
Album=Haydenspark
Tracknumber=1
Year=2018
Discnumber=1

[/more]

Register
(6) dimitriusk, dk201x, gena, marilin, Olethros, snot,
Oct 11 2018, 22:20:43 Hartyga - Amyrsanaa (2018)


*Artist: Hartyga
*Album: Amyrsanaa
*Year: 2018
*Genre: Folk/Progressive Rock
*Country: Russian Federation
*Format: mp3@CBR320kbps
*Size: 117MB

Tracklist:
01. My Kargyraa 04:43
02. Red Star 05:31
03. Girl from Tozhu 08:35
04. Collective Farmer 03:36
05. Silks 03:08
06. Orphan's Lament 10:41
07. Amyr-Sanaa 08:41
08. My Mezhegei 06:15
******************************
Total playing time: 51:10

Preview 1

[more=Technical info]
Input File: 02 - Red Star.mp3
Channels : 2
Sample Rate : 44100
Precision : 16-bit
Duration : 00:05:31.12 = 14602524 samples = 24834.2 CDDA sectors
File Size : 13.3M
Bit Rate : 321k
Sample Encoding: MPEG audio (layer I, II or III)
Comments :
Title=Red Star
Artist=Hartyga
Album=Amyrsanaa
Tracknumber=02
Year=2018
Genre=Progressive | Folk Rock

[/more]

Register
(8) avkruchinin, Cartman223, dk201x, gwar, Olethros, Phlebotomized, qpMM, SyncestrA,
Sep 27 2018, 20:50:25 Voivod - The Wake (2018)
Ведем наш репортаж с Олимпа... sirt.gif
(1) vosmidesijatye,
Sep 27 2018, 20:17:54 Voivod - The Wake (2018)
О, тут смотрю собрались субъекты желающие вдохнуть пару @дорог@ "Lizard" от KC через хорошую купюру и отполировать свежим Войводом. Ну-ну..... crazy.gif crazy.gif crazy.gif Я это к тому, что атрофировавшиеся рецепторы не являются мерилом для оценки чего-либо, вообще.... тогда уж проще наслаждаться гармониями метронома, чё уж тут.... 1488.gif
ЗЫ Войвод - молодцы, не "метрономами едины", за, что и любимы.
(1) vosmidesijatye,
Sep 27 2018, 19:42:07 Voivod - The Wake (2018)
ЦИТАТА(Faust_Vulkan_16 @ Sep 27 2018, 21:36:50) *
Зачем это слушают наркоманы от блэка и других брутальных стилей?
Тут не 2 аккорда, а гораздо больше
bye.gif bye.gif 1488.gif

"Плюсану аккуратно.(ц)" 1488.gif
(2) Faust_Vulkan_16, vosmidesijatye,
Sep 27 2018, 19:19:17 A Forest Of Stars - Grave Mounds And Grave Mistakes (2018)
Это, как всегда, воодушевляюще мозголомно и чудесно до одури в эпизодах темной гармонии "той стороны звездного леса". Я очарован... 20.gif 20.gif 20.gif
(1) Ghostb,
Sep 27 2018, 15:39:07 A Forest Of Stars - Grave Mounds And Grave Mistakes (2018)
Нет слов.... Это "просто праздник какой-то" .. осталось еще Arcturus дождаться новый и всё.... жизнь прожита не зря! headcrab.png crazy.gif
(1) Faust_Vulkan_16,
Sep 8 2018, 15:46:16 Pantheist - Seeking Infinity (2018)
Альбом просто чумовой! Пока лучшее,что вышло в думе в этом году! Филигранность композиций, помноженная на мощь и атмосферу! pray.gif pray.gif pray.gif
(2) Faust_Vulkan_16, quicksand,
Aug 23 2018, 20:18:47 Alice In Chains - Rainier Fog (2018)
Альбом меня порадовал, пожалуй, впервые в новой ипостаси.
(2) Faust_Vulkan_16, infiltrator,
Aug 23 2018, 19:04:08 Alice In Chains - Rainier Fog (2018)
ЦИТАТА(Anger @ Aug 23 2018, 20:45:52) *
даже Genesis. несмотря на то, что поначалу вокалистом был Питер Гэбриел. группа дял меня существует только с Коллинзом. а этого я уже рассматриваю отдельно. нравятся его сольные песни

вот взять знаменитый хит Land Of Confusion с другим вокалом - была бы полная Ж

fear.gif fear.gif fear.gif Ужас, мать его, лютый ужас. Коллинз - поп-певец и неплохой драммер.... вот уж кому нужно было после "Заклания" назваться как-то иначе, а не лабать махровый попс под старой вывеской. А насчет КС: там только Лейк продержался 2 альбома, а потом были да Хаскел, Баррел и великолепный Вэттон, но музыка была при этом офигенной,а не поп-свистелкой для заколачивания бабла. В 80е да, пришел Белью и музыка стала другой, но это тема для отдельного разговора.
(3) Ghostb, infiltrator, vam1972,
Aug 20 2018, 20:44:37 Pink Floyd - A Saucerful Of Secrets (1968)
ЦИТАТА(vosmidesijatye @ Aug 20 2018, 22:40:23) *
Их двое 1488.gif Уточни

Который с черной бородой и морем нерастраченной желчи в организме . 25.gif

ЦИТАТА(maxmagmas @ Aug 20 2018, 22:40:53) *
Поэтому он не "мостик" между A Saucerful Of Secrets и "к следущему номерному альбому MEDDLE" (с)?

Это к Фросту - "он художник, он так видит". 1488.gif
(1) BERZERK,
Aug 20 2018, 20:38:49 Pink Floyd - A Saucerful Of Secrets (1968)
ЦИТАТА(vosmidesijatye @ Aug 20 2018, 22:36:36) *
Эт Wish You Were Here bye.gif

Отвечу в духе твоего угрюмо-бородатого земели - Нет!
(1) vosmidesijatye,
Jul 26 2018, 16:05:59 Coldworld - Nostalgia [ep] (2018)
Так себе жвачка. Ничего общего с чудесными и обволакивающими "Звёздами" и "Меланхолией". Упертым блэцкерам должно вкатить. 22.gif
(1) The_Hound,
Jul 1 2018, 20:26:14 Immortal - Northern Chaos Gods (2018)
Register
Ссылко для тех у кого не работает ядиск.
(24) Fryz, infiltrator, Lanceatum, Lyrch, madskot, MеtalHead, Necromayhem, nekrokilldozer, north_friend, nsk2008, OldY, Orkkh, QuadenThyrane, Rodriga, SatanicPanzer, svartalf, vasilisk, vasiljev_sergej, westwall, WX419, yarrsuaa, ZarK, zerger, Авел,
Jul 1 2018, 17:01:53 Immortal - Northern Chaos Gods (2018)


*Artist: Immortal
*Album: Northern Chaos Gods
*Year: 2018
*Genre: Black Metal
*Country: Norway
*Format: mp3@CBR320kbps
*Size: 98MB

Tracklist:
1. Northern Chaos Gods 04:25
2. Into Battle Ride 03:50
3. Gates to Blashyrkh 04:38
4. Grim and Dark 05:27
5. Called to Ice 05:06
6. Where Mountains Rise 05:51
7. Blacker of Worlds 03:43
8. Mighty Ravendark 09:14
******************************
Total playing time: 42:14

Preview 1

[more=Extended info]Band members
Demonaz Vocals, Guitars, Lyrics
Horgh Drums
Guest/Session
Peter Tägtgren Bass
Miscellaneous staff
Jannicke Wiese-Hansen Artwork[/more]

[more=Technical info]
Input File: Immortal - Gates to Blashyrkh.mp3
Channels : 2
Sample Rate : 44100
Precision : 16-bit
Duration : 00:04:38.30 = 12272898 samples = 20872.3 CDDA sectors
File Size : 11.1M
Bit Rate : 320k
Sample Encoding: MPEG audio (layer I, II or III)

[/more]

Register
(156) 0x13, 1968_janeart, 666days, acerbus, ad73, aesteticvice, AlivePhantom, AmunRha, andeimon, andgrek28, andivi, Anhra Mainyu, Aresson, artscald, as71, babanguida, Bergthron, berserkr, biroutios, BlaspherionFLUL, cancer1974, cesar, Chasm, Constantinus I, Corpuscul, craP_cillA, CRUNCH, DarkHorde, djsema4, DMIYUR, DOKTORBLACK88, draht, dulak, emperor1971, Evjenne, Farung, Fatalist77791, Fater_Hu, Femto, Fess, Filosofem91, Firefrost, fylopaloma, gattometal, Golodomor, gwar, igore2911, Immolator, Incantatore, Infidel, infiltrator, infozahist, jedtinsel, ji_indur, jollo, judaz, JuicyMaraca, kefka, killingod, kim666, kimkayoung, Konst, KVRT, Lanceatum, LazarShadow, legion01, Lord Noctua, lordbathor, Luminous, Lux, maochen, Matusalem, MaXL, MEmethuselah, metal73, metala, Mihalik, MMMMM, Moonshtook, mrdrs, NappyRob, Nerevar, nnnmmm, nsk2008, Old Vyaine, Ostinato, Paatddal, Paradayz, Penetralia, Pentium.Disel, Pinhead666, psycopathx, Radek, recber, RedSparrow, RENыч, Requiescat, ripper33, Rodriga, Rosen, RotAnus, Rundagor, russ777, SadistikSlayer, SameMan, sandr666, sarrum, SatanicPanzer, scorn33, Semargl2010, sethurius, Shadowman, Shub, sking, smes, SS2998, StabWound, stub888, suseka, tamerz, TeamatSE, thenecromancer, the_metalist, Tino, tiptoer, tOmV, udt4050, Ufasas, uk82, Un4given, undeadlich, VALERY, varg-38ru, varlam4, Velmi, Vidder242, vir2al, vo140182fav, vov7609, vovenom, vragh, WarmasterChorus, wgs73, Wolftribes, wolverine, wrath082, xska, Yanek, yarrsuaa, yuratroll, ZambuL, Герб, Лицемер, Луч, партизан, Сварог Барг,

34 Pages V  < 1 2 3 4 > » 
- Lo-Fi Version Support form
Copyrights and abuse reports form
Time is now: 15th September 2019 - 23:56:03