Welcome Guest ( Log In | Register )

История благодарностей участнику DarkHorde ::: Спасибо сказали: 6765 раз(а)
Дата поста: В теме: За сообщение: Спасибо сказали:
Sep 9 2018, 03:51:14 Soulsides - Atručanyja Słovy (2018)
Чуть тяжелее Арии, как мне кажется. Вердикт: Недотрэш!
(2) AHBAnep, Andrew,
Sep 8 2018, 13:03:03 Owl - Nights In Distortion (2018)
aesteticvice, сделал. Owl
(1) aesteticvice,
Sep 8 2018, 13:00:56 Owl

Genre(s):
Death/Doom Metal/Ambient
Lyrical Theme(s):
Atmospheric Doom/Death Metal
Origin:
Germany (Bonn, North Rhine-Westphalia)
Formed In:
2010
Status:
Active
Current line-up:
Patrick Schroeder - Drums, Percussion (2010-) (See also: Klabautamann (live), ex-Slon, ex-Tortur, ex-Kosmos Wald, Monty Battles, Pines, ex-Centaurus-A, ex-Valborg, ex-Aardvarks (live), ex-Island, ex-Syre)
Christian Kolf - Guitars, Bass, Vocals, Synths (2010-) (Absolutum, Valborg, ex-Island, ex-Slon, ex-Woburn House, ex-Kosmos Wald, Gruenewald, ex-Centaurus-A, ex-Klabautamann (live), ex-Skarab, ex-Orbo)
Former/Past Member(s):
René Marquis (R.I.P. 2018) - Bass (2018)

Discography:
Owl - Owl [full-length] - 2011
Owl - You Are The Moon, I Am The Night [full-length] - 2013
Owl - Into The Absolute [ep] - 2014
Owl - The Last Walk [ep] - 2014
Owl - Aeon Cult [ep] - 2015
Owl - Orion Fenix [ep] - 2018
Owl - Nights In Distortion [full-length] - 2018

*****
Official site:
Owl @ Last.fm


(3) aesteticvice, Borderline1991, necroscum,
Sep 7 2018, 13:46:48 Monstrosity - The Passage Of Existence (2018)
ЦИТАТА(quicksand @ 8th September 2018 - 00:22:52) *
помогите спрятать под спойлер, плиз

Спрятал.

Разок послушать можно, не более.
(2) quicksand, Samogon,
Sep 6 2018, 12:58:42 Create A Kill - Summoned To Rise (2018)
Какие люди здесь засветились. По превью отлично рубят, надо слушать.
(2) aSERiuus, Samaritianin,
Sep 6 2018, 12:16:47 Metal Allegiance - Volume II - Power Drunk Majesty (2018)
[youtube]sxDy11uRxNc[/youtube]

по превью типа оверкилл воршип
(3) Diflock, infiltrator, max_stalingradsky,
Sep 3 2018, 07:54:08 Archgoat - The Luciferian Crown (2018)
Хоть и честные 192, но подожду честные 320 smile1.gif По музыке всё как надо!
(2) infiltrator, Samaritianin,
Sep 1 2018, 12:29:27 Голосовние за лучший альбом 2017 в стиле Thrash Metal
ЦИТАТА(kostja @ 1st September 2018 - 23:21:32) *
Kreator - Gods Of Violence

ЦИТАТА(kostja @ 1st September 2018 - 23:21:32) *
Trivium - The Sin and The Sentence

Шта? Трэш? Изыди! 23.gif
(1) neoatheist,
Aug 3 2018, 03:52:09 Elektrix - To The Other Side (2018)
Added links by Samaritianin
(1) Diflock,
Jul 28 2018, 14:06:45 External - The Blurry Horizon (2018)
[youtube]Rnhr7f9rf84[/youtube]

Финны? Трэш? Исполняют? Нонсенс!!!
Включаю решим 80-го: судя по обложке прог/арт/метал... по утубу так и есть, как мне кажется. Что угодно, но не трэш.
(3) Andrew, boby9052, Diflock,
Jul 28 2018, 13:20:28 Head Brain Blockade - Разрушение Основ Жизни (2018)
Знатное рубилово, однозначно слушать metaler.gif
(1) aesteticvice,
Jul 20 2018, 03:43:17 Extremity - Coffin Birth (2018)
[youtube]sNXjBZMwgaQ[/youtube]
(3) helvetestoner, JantoHadez, kauyumari,
Jul 17 2018, 04:14:41 Infernal Execrator - Obsolete Ordinance (2018)
По доступному превью просто чума metaler.gif Адовый музон, вобрали всё лучшее от Dark Funeral и Marduk, в лучшие их годы.
(1) babanguida,
Jul 17 2018, 04:06:19 Infernal Execrator - Obsolete Ordinance (2018)
Added links by shiddyDick666
(3) babanguida, cancer1974, nsk2008,
Jul 13 2018, 03:23:26 Obscura - Diluvium (2018)
Added links by aesteticvice
(1) Aresson,
Jul 12 2018, 02:52:24 Kammerjäger - Rising From Hell (2017)
По превью драйвовый музон, однозначно слушать metaler.gif
(4) BERZERK, infiltrator, Samaritianin, samokot,
Jul 11 2018, 14:39:51 Korpiklaani - Kotikonnut [single] (2018)
Оба клипа жуткая нудятина, другого и не ожидал.
(2) Fess, Nattfodd,
Jul 8 2018, 03:05:00 Zmey Gorynich - Mother Russia (2018)
ЦИТАТА(aesteticvice @ 8th July 2018 - 05:34:22) *
несколько убойных телег

Морозобой ваще шикарно! И в целом альбом не плох.
(1) Brutello,
Jul 6 2018, 12:36:32 Morte - Miasma (2018)
ох, по превью очень даже хорошо. Надо слушать.
(2) infiltrator, Samaritianin,
Jul 6 2018, 12:30:30 Supremate - Uniting Flaw (2018)
недотрэш... чтобы финны не делали, всюду MDM получается 1488.gif
(1) Samaritianin,
Jul 4 2018, 03:59:14 Second Reality - Monolith (1997)
Added links by Proteus_666
[more=Technical info]
Input File: 01-Steel Conversion.mp3
Channels : 2
Sample Rate : 44100
Precision : 16-bit
Duration : 00:05:41.54 = 15061914 samples = 25615.5 CDDA sectors
File Size : 8.20M
Bit Rate : 192k
Sample Encoding: MPEG audio (layer I, II or III)
Comments :
Title=Steel Conversion
Artist=Second Reality (Ger)
Album=Monolith
Tracknumber=01
Year=1997
Genre=Thrash Metal[/more]
(1) Proteus_666,
Jun 28 2018, 12:24:49 Végbélszakadás - Halál A Bélrendszerre​!​!​! [demo] (2018)
ЦИТАТА
Tags
black metal metal goregrind rotty and roll shit Budapest

(1) necroscum,
Jun 27 2018, 14:11:57 Dead And Forgotten - Ars Moriendi [ep] (2004)
Added links by NachtWulf
(1) thenecromancer,
Jun 17 2018, 12:03:43 Главная страница
ЦИТАТА(Kazoth @ 17th June 2018 - 22:41:55) *
сайт переехал

Да.


ЦИТАТА(Kazoth @ 17th June 2018 - 22:41:55) *
сайт переехал

Да.

ЦИТАТА(Kazoth @ 17th June 2018 - 22:41:55) *
сайт переехал

Да.
(1) Kazoth,
Jun 15 2018, 12:26:38 Dreadful Fate - Vengeance (2018)
Превьюхи ваще башкотрясные и угарные metaler.gif Срочно качать и слушать
(2) Andrew, smes,

104 Pages V   1 2 3 > » 
- Lo-Fi Version Support form
Copyrights and abuse reports form
Time is now: 18th September 2018 - 20:14:38