Welcome Guest ( Log In | Register )

История благодарностей участнику DarkHorde ::: Спасибо сказали: 7755 раз(а)
Дата поста: В теме: За сообщение: Спасибо сказали:
Oct 17 2020, 13:46:40 Benediction - Scriptures (2020)
Однако очень неожиданно. Насколько приятный альбом вышел, суровый, без соплей. Старички тряхнули так тряхнули) Узнаваемый звук, вокал, всё прекрасно)
(2) hammer, Samaritianin,
Oct 6 2020, 02:35:58 Kataklysm - Unconquered (2020)
Уже лет 20 ничего интересного у них нет.
(2) hammer, infiltrator,
Sep 22 2020, 01:44:48 Dark Horde - Ascension Of The Inner Flame (2015)
15.gif вот оно чё
(7) Borderline1991, defamer666, Hell_Is_Here, kranger, Occultas, Velmi, vosmidesijatye,
Sep 10 2020, 02:26:37 Jupiterian - Protosapien (2020)
Added links by mirotvorets
(4) infiltrator, Morgoth, Occultas, Samaritianin,
Aug 26 2020, 01:34:23 Incantation - Sect Of Vile Divinities (2020)
Хотелось бы более низкого звучания. Но тем не менее альбом альбом хорошо, старички верны себе, достойная работа.
(2) infiltrator, kipelov999,
Jun 27 2020, 01:09:15 Diabolic Oath - Profane Death Exodus (2020)
Added links by Necrokilldozer
(3) infiltrator, Marshall, Occultas,
Jun 4 2020, 14:34:03 Witches - The Fates (2020)
С блэк/дэтовым налётом, одобряю 20.gif
(3) Andrew, infiltrator, Metalass,
May 12 2020, 13:35:15 Sepulchre - Thrill Of A Kill (2019)
По превью скучно и не интересно
(3) AHBAnep, infiltrator, kranger,
May 7 2020, 08:17:36 Ancient Burial - Beyond The Watchtowers (2020)
ЦИТАТА(asog @ 7th May 2020 - 01:44:42) *
Это чё ваще?

Buy Digital Album €7 EUR or more 1488.gif
(1) rimfrost,
Apr 27 2020, 02:27:26 Carcass - Necroticism - Descanting The Insalubrious (1991)
ЦИТАТА(6666666 @ 27th April 2020 - 06:47:22) *
Здесь и далее - плохо.

Далее они пошли по другому направлению.
Но этот альбом величайший. Музыканты показали свой уровень мастерства владения инструментами и сочинительский талант. То что они пошли иначе как хотелось бы это другой разговор.
(2) Shadowman, swed,
Apr 23 2020, 01:51:35 Napalm Death - Live At Nantes Deathfist Festival'2020 [festival] (2020)
Посмотрел, нормальный концерт, старички отжигают!
(1) Occultas,
Apr 21 2020, 08:55:05 Новости Death Metal направления
И Pyre и Centinex здорово порадовали, надеюсь альбомы в целом не подкачают
(2) Emm Human, infiltrator,
Apr 21 2020, 08:40:39 The Projectionist - The Stench Of Amalthia (2020)
ЦИТАТА(isvili @ 20th April 2020 - 03:07:49) *
Не один ли художник часом?

Один и тотже им рисует... по приданиям рисует своей кровью 1488.gif
(1) Occultas,
Apr 16 2020, 13:23:06 Guerra Total - War Is The Pursuit Of Death: A Hymnal For The Misanthrope (2020)
metaler.gif злобно banana.gif
(2) infiltrator, Samaritianin,
Apr 13 2020, 13:48:01 Aveth - Echoes Of A Mournful Dawn (2020)
Added links by _agoth_
(4) aleon, exorcist1969, infiltrator, Samaritianin,
Mar 27 2020, 08:27:34 Новости Thrash Metal направления
недокреатор предоставил недотрэш. Их творчество уже лет 20 как не представляет никакого интереса.
(3) infiltrator, suseka, vosmidesijatye,
Mar 20 2020, 02:26:00 Thanatos - Violent Death Rituals (2020)
Ссылки от Andrew
Проблема с переносом ссылок ещё не решена.
Register

(3) infiltrator, Metalass, Olethros,
Mar 15 2020, 09:42:11 Рекорды очереди премодерации релизов
Увы да. Пару дней никого не было. Всё сделал)
(2) infiltrator, Old Vyaine,
Mar 12 2020, 13:02:32 Humanity Delete - No One Survives This Game (2020)
Ссылки от камрада Samaritianin
Увы, не удалось перенести стандартными методами. Уже написал в техподдержку 15.gif

Register
(7) ASkyThatBurns, BERZERK, infiltrator, multizwilling, Ostinato, Samaritianin, swed,
Feb 24 2020, 11:50:16 Asphyx - Asphyx (1994)
Один из лучших альбомов группы, если не самый лучший! metaler.gif
(1) Ingvar,
Feb 20 2020, 12:37:14 Amorphia - Merciless Strike (2020)
Последняя песня чисто по раннему Содому, одобрямс!
(1) Samaritianin,
Feb 20 2020, 01:35:48 Amorphia - Merciless Strike (2020)
Такой трэш нам нужен! metaler.gif Пусть и слеероподобный, зато башкотрясный и угарный!
(5) AHBAnep, akym, infiltrator, Samaritianin, wanderer73,
Feb 17 2020, 03:29:07 Sodom - Tapping The Vein (1992)
Самый любимый! metaler.gif
(1) Emm Human,
Feb 2 2020, 03:03:35 Mavorim - Axis Mundi (2020)
Added links by Verhasst
[more=Technical info]
Input File: 10 Axis Mundi.mp3
Channels : 2
Sample Rate : 44100
Precision : 16-bit
Duration : 00:06:16.58 = 16606958 samples = 28243.1 CDDA sectors
File Size : 15.1M
Bit Rate : 320k
Sample Encoding: MPEG audio (layer I, II or III)
Comments :
Title=Axis Mundi
Artist=Mavorim
Album=Axis Mundi
Tracknumber=10
Year=2020
Genre=Black Metal

[/more]
(2) infiltrator, Verhasst,
Jan 31 2020, 02:34:20 Sepultura - Quadra (2020)
97% успеха Сепультуры начиная с 2000-х годов это альбомы выпущенные до 96-го включительно. Под другой вывеской проект вряд ли бы собирал такую аудиторию и имел хоть какой-то успех.
По содержанию - качественная музыка, с добавлением различных фишек, стилей, дабы разнообразить материал. Представляет какой-нибудь интерес? Нет конечно! Просто музыка разок прослушать и забыть навсегда. А учитывая что абсолютно ничего здесь не цепляет, такая длина альбома утомляет очень сильно. Идеальное время не более 30 минут. Но это уже сугубо личное ощущение.
(2) infiltrator, mardak666,

110 Pages V   1 2 3 > » 
- Lo-Fi Version Support form
Copyrights and abuse reports form
Time is now: 22nd October 2020 - 01:25:55