Welcome Guest ( Log In | Register )

История благодарностей участнику Old Vyaine ::: Спасибо сказали: 15341 раз(а)
Дата поста: В теме: За сообщение: Спасибо сказали:
Jul 13 2019, 14:12:51 Scooter - No Time To Chill (1998)
QUOTE(6666666 @ 13th July 2019 - 16:05:50) *
Песня про рыбу действительно хорошая.


Если б они ещё сами эту мелодию придумали...
(1) plfan93,
Jul 13 2019, 10:10:53 Scooter - No Time To Chill (1998)
QUOTE(hammer @ 13th July 2019 - 12:08:53) *
Какой нить Эминем или СнубДог, под которое выросло целое поколение-тоже классика?

QUOTE(Old Vyaine @ 13th July 2019 - 11:55:14) *
а с хе..ра ли нет?


Ибо у каждого жанра своя классика.
(1) vosmidesijatye,
Jul 12 2019, 19:14:58 Paradise Lost - One Second (1997)
QUOTE(Хогги @ 23rd December 2007 - 13:32:47) *
10. Disappear 04:29

QUOTE(Faust_Vulkan_16 @ 12th July 2019 - 21:14:08) *
божественна

(2) plfan93, Utugg,
Jul 12 2019, 18:52:07 Batushka - Hospodi (2019)
QUOTE(V_H_H_V @ 12th July 2019 - 20:46:58) *
О них мало кто знает


А Крысюк знать обязан?
(2) ingram, russ777,
Jul 12 2019, 16:14:18 Океан Мессиобожателей на Невском, или Голосовалка за лучший альбом 2018 года, Итог
QUOTE(Old Vyaine @ 28th May 2019 - 08:46:02) *
Возгораниями доволен.

(1) plfan93,
Jul 12 2019, 14:25:52 Paradise Lost - One Second (1997)
Очень плохо всё в мире Макса. Беспросветно просто.
(2) Ghostb, m00n1ight,
Jul 11 2019, 13:41:38 Хуковые песни - 2018
QUOTE(6666666 @ 11th July 2019 - 15:39:46) *
Хорошего очень мало.


В твоём мире.
(1) Deze,
Jul 11 2019, 06:49:11 Paradise Lost - Host (1999)
Не метал делает команды хорошими или плохими, отнюдь.
(2) Deze, DMIYUR,
Jul 10 2019, 18:58:07 King Diamond - The Puppet Master (2003)
Безоговорочно лучший у позднего КД, да и олдовым шедеврам составит конкуренцию не напрягаясь.
(2) Exorcist, WarmasterChorus,
Jul 10 2019, 18:56:30 Paradise Lost - Host (1999)
QUOTE(vo140182fav @ 10th July 2019 - 17:54:13) *
Вот и поняли пацаны, что выехать можно только за счет старых фенов. И вернулись "на круги своя".


Логичный вопрос: когда же им денег захотелось — экспериментируя в 97-01 или позже?
(1) Deze,
Jul 10 2019, 13:41:24 Iron Maiden - Somewhere In Time (1986)
QUOTE(hammer @ 10th July 2019 - 15:15:12) *
Бить буду долго....

QUOTE(hammer @ 10th July 2019 - 15:15:12) *
долго и больно.....

QUOTE(hammer @ 10th July 2019 - 15:15:12) *
и скорее всего ногами..........


главное, не нас. Себе влепи))
(1) vosmidesijatye,
Jul 10 2019, 13:40:09 Paradise Lost - Host (1999)
QUOTE(vo140182fav @ 10th July 2019 - 15:23:50) *
Ну денег пацанам захотелось.


facessspalm.png Подобным группам олдскул явно больше бабла приносит. Потому что большинство как вы с хаммером 1488.gif
(1) Deze,
Jul 10 2019, 12:03:05 Paradise Lost - Host (1999)
QUOTE(hammer @ 10th July 2019 - 13:52:55) *
После него тренд вверх пошел.


Именно после него. Но Хост лучше всего, что они выпустили после, кроме альбомов 10-х годов, когда реально пошёл олдскул, а не простое утяжеление звука.
(1) Deze,
Jul 10 2019, 11:42:35 Paradise Lost - One Second (1997)
Лучше Icon, конечно, они ничего никогда не записывали.
(3) Exorcist, hammer, infiltrator,
Jul 10 2019, 06:48:43 Iron Maiden - Somewhere In Time (1986)
QUOTE(hammer @ 10th July 2019 - 07:53:38) *
Лучше было до этого на альбоме Поверслейв


Нет.

QUOTE(hammer @ 10th July 2019 - 07:53:38) *
а еще лучше на Седьмом сыне


И нет.
(3) Ghostb, infiltrator, vo140182fav,
Jul 4 2019, 21:28:29 Lolita Komplex - Escapism (2019)
[more="Пара актуальных клипчегов:"][youtube]2stE2vpFpYk[/youtube][youtube]G9_FQU8YMwk[/youtube][/more]
(2) Alacc17, Mplast,
Jul 4 2019, 19:59:31 Bards Of Valor - A Tale Of Hope & Ruin (2019)
[youtube]LZsQ8SKwFkM[/youtube]

Самодеятельность.
(2) AHBAnep, RotAnus,
Jul 3 2019, 19:31:48 Blood Stain Child - Amateras (2019)
QUOTE(Lucifer @ 3rd July 2019 - 12:05:16) *
Лучшая японская банда.


*вздох*
(4) 6666666, Deze, Ghostb, vosmidesijatye,
Jul 2 2019, 20:31:51 Slayer
QUOTE(Tarelka @ 2nd July 2019 - 22:19:06) *
чей?


Сейчас бы полчаса перечислять твои фейки, ага 1488.gif
(1) Exorcist,
Jul 2 2019, 19:58:04 Memoriam - Requiem For Mankind (2019)
QUOTE(hammer @ 2nd July 2019 - 10:54:27) *
Не думал что у тебя синдром хронической усталости?


Не, я только что из отпуска, бодрый и прыткий. Просто болты в любой своей ипостаси унылы.
(1) 6666666,
Jul 1 2019, 19:39:48 Rivers Like Veins - Z Iskier Srebrnych Orszaków (2019)
А затягивающая гудьба 20.gif

Правда

QUOTE(Samaritianin @ 1st July 2019 - 19:12:23) *
Rivers Like Veins


[more="Извините smile2.gif"][youtube]b0qy-ZTqTmY[/youtube][/more]
(3) Kwaad, Orkkh, Samaritianin,
Jul 1 2019, 19:32:19 Бахыт-Компот - Пьяная-Помятая Пионервожатая (1994)
Тащемта культовый в определённых кругах альбом. Куртуазный маньеризм!
(2) infiltrator, vosmidesijatye,
Jun 30 2019, 18:10:23 Palehorse/Palerider - Fire Gone Out/Haxan [ep] (2019)


*Artist: Palehorse/Palerider
*Album: Fire Gone Out/Haxan [ep]
*Year: 2019
*Genre: Atmospheric Doom Metal/Shoegaze
*Country: United States
*Format: mp3@CBR320kbps
*Size: 46MB

Tracklist:
1. Fire Gone Out 07:09
2. Haxan 08:40
******************************
Total playing time: 15:49



[more=Extended info]На грани неформата. Doomgaze, как они сами себя называли. Красота страшная.

Честно куплено на БК.[/more]

[more=Technical info]
Input File: Palehorse-Palerider_-_Fire_Gone_Out_-_Haxan_-_01_Fire_Gone_Out[1].mp3
Channels : 2
Sample Rate : 44100
Precision : 16-bit
Duration : 00:07:09.27 = 18930675 samples = 32195 CDDA sectors
File Size : 17.3M
Bit Rate : 323k
Sample Encoding: MPEG audio (layer I, II or III)
Comments :
Title=Fire Gone Out
Artist=Palehorse/Palerider
Album=Fire Gone Out / Haxan (EP)
Tracknumber=1/2
Year=2019
Genre=Atmospheric Doom Metal/Shoegaze

[/more]

Register
(11) BandR75, chefo, Corpuscul, dark1988, marilin, Olethros, robertho777, Rosen, TAKATAEL, tOmV, wreak,
Jun 30 2019, 17:49:39 Moon Far Away - Athanor Eurasia (Luxus) (2019)


*Artist: Moon Far Away
*Album: Athanor Eurasia (Luxus)
*Year: 2019
*Genre: Neofolk/Dark Folk
*Country: Russian Federation
*Format: mp3@CBR320kbps
*Size: 202MB

Tracklist:
1. The Song Of The Five Lakes Watermill 04:17
2. The Blank Flag Of The Europe 04:59
3. Napadi, Rosa 04:58
4. Polia Vy, Polia 05:20
5. Lubila Menja Mat, Obozhala 04:57
6. Dva Lazyrja 08:15
7. The Blueberry song 06:59
8. Intersymbolism 03:47
9. Ostavaisja Bely, Knjaz 02:18
10. Celebrate! 05:45
11. Steel Light Love (single version) 03:56
12. Velichalnaya 03:49
13. Chitin 05:08
14. Napadi, Rosa (Single Version) 04:58
15. Rose In Hell 04:13
16. Celebrate! (single version) 04:28
17. An Invisible Step Of World History 04:25
******************************
Total playing time: 1:22:32



[more=Extended info]Moon Far Away - A Folkloristic Marriage of East and West

Since their foundation in 1994, Moon Far Away, hailing from Arkhangelsk, Russia, have developed a unique style out of the established neo-folk tropes of the western world and the musical heritage of their home turf - the Russian North; a hotbed within the country for literature, visual arts, architecture and, of course, music. With influences as diverse as their background, they engaged in neoclassical dark wave and world music on earlier releases, and have remained a relatively unknown gemstone until this day. In the meantime, the group has honed its colorful blend to quasi-perfection, which is more than evident on its fifth record and Auerbach Tonträger/Prophecy Productions debut, "Athanor Eurasia".

While deftly weaving together acoustic guitars and wind instruments, as well as both female and male voices, this new album is a neo-folk release of outstanding quality with the traditional song format always in focus. In part, the result harks back to the likes of Death In June, Forseti or Sol Invictus (whose Tony Wakeford appears as a guest on 'Celebrate!') whereas other tracks are adaptions of passed-down Northern Russian folk tunes the band collected on expeditions to the Arkhangelsk Oblast - the musicians' subarctic home region. Within this dense tapestry all threads, regardless of their geographical or cultural origin, make up a unified whole that defies categorization.

Thus, "Athanor Eurasia" venerates the tradition of shared space both conceptually and musically. "It is not about country borders or maps, emigrants or geopolitics", stresses Count Ash, the group's masked leader. "We like to think of "Athanor Eurasia" as the first album of Eurasian neo-folk in that it is based on the canons outlined in the West, yet enriched with the ideas and sentiments born in the East. This is how we have been living and creating for many years, feeling complete creative freedom and sharing the fruits of this freedom with others."

Count Ash concludes with Moon Far Away's approach on music: "Creating something that is new in form while adhering to the ancient spiritual tradition is the only way for a culture to exist in time. It is the alchemy of creative process, which, through the use of only the purest, but singularly opposite ingredients, gives birth to something new. And inside that furnace, which continues to cast new meanings and symbols, the flame is still burning …"

"Athanor Eurasia" is available as Digipak CD, gatefold LP and 2CD book edition (hardcover, 18x18cm, 36 pages with in-depth liner notes in English, enhanced artwork and 7 bonus tracks with a playing time of more than 30 minutes). Together with the album, Auerbach Tonträger release "Zhito Zhala: The Early Harvest 1997-2010", a 5CD artbook comprised of Moon Far Away's early albums from 1997 to 2010.

Buy at our shop here:

worldwide: en.prophecy.de/artists/moon-far-away
US/Canada: us.prophecy.de/artists/moon-far-away
credits
released June 28, 2019

Честно куплено на БК.[/more]

[more=Technical info]
Input File: Moon Far Away - Athanor Eurasia (Luxus) - 02 The Blank Flag Of The Europe.mp3
Channels : 2
Sample Rate : 44100
Precision : 16-bit
Duration : 00:04:59.09 = 13189957 samples = 22431.9 CDDA sectors
File Size : 12.1M
Bit Rate : 325k
Sample Encoding: MPEG audio (layer I, II or III)
Comments :
Title=The Blank Flag Of The Europe
Artist=Moon Far Away
Album=Athanor Eurasia (Luxus)
Tracknumber=2/17
Year=2019
Genre=Neofolk/Dark Folk

[/more]

Register
(17) 6666666, A.L.Rapsod, abob, dromord, Druidir, Forest Silence, Golodomor, gwar, Infidel, mirotvorets, nsmetalhead, Olethros, sarcophagus, whitebros, Абигор, Герб, скептик,
Jun 30 2019, 11:12:27 Xentrix - Bury The Pain (2019)
Не буду оригинальным — качественная и дельная музыка, но Эксодусом (не Тестаментом!) несёт изо всех щелей. На ранние работы не особо похоже.
(1) Samaritianin,

250 Pages V   1 2 3 > » 
- Lo-Fi Version Support form
Copyrights and abuse reports form
Time is now: 17th July 2019 - 01:19:17