Welcome Guest ( Log In | Register )

История благодарностей участнику Muxeu ::: Спасибо сказали: 1794 раз(а)
Дата поста: В теме: За сообщение: Спасибо сказали:
Jan 9 2015, 11:07:01 Comatose Vigil - Rehearsal Ii [demo] (2003) (1) VALERY,
Jan 9 2015, 11:06:24 Comatose Vigil - Rehearsal I [demo] (2003) (1) VALERY,
Dec 17 2014, 20:37:07 Narath - Pulsar (2014)


*Artist: Narath
*Album: Pulsar
*Year: 2014
*Genre: Black Metal
*Country: Russian Federation
*Format: mp3@CBR320kbps
*Size: 131MB

Tracklist:
01. Sexuality Of Grave / Sorrow
02. Saviour From The Depth
03. Infected by Alien
04. My Green Mile
05. Pulsar
06. Lord's Secret Domain
07. Eat Me!
08. A Perfect Time To Die
******************************
Total playing time: 59:42

[more=Technical info]
Input File: 02. Saviour From The Depth.mp3
Channels : 2
Sample Rate : 44100
Precision : 16-bit
Duration : 00:04:55.13 = 13015409 samples = 22135 CDDA sectors
File Size : 11.8M
Bit Rate : 320k
Sample Encoding: MPEG audio (layer I, II or III)
Comments :
Title=Saviour From The Depth
Artist=Narath
Album=Pulsar
Tracknumber=2
Year=2014
Genre=Black Metal

[/more]

Register
(14) 0x13, artscald, Constantinus I, Darkthronefoad, ddarkthrone, Kazoth, Moonshtook, Rattenkonig, Rosen, satanist666, tont, VALERY, vasiljev_sergej, wreak,
Aug 20 2014, 07:30:05 Narath - Lust (Rehearsal) [demo] (2009)


*Artist: Narath
*Album: Lust (Rehearsal) [demo]
*Year: 2009
*Genre: Black Metal
*Country: Russian Federation
*Format: mp3@CBR320kbps
*Size: 56MB

Tracklist:
01. Smiling In The Dark
02. Liebeshunger
******************************
Total playing time: 24:08

[more=Technical info]
Input File: 2.Liebeshunger.mp3
Channels : 2
Sample Rate : 44100
Precision : 16-bit
Duration : 00:09:40.50 = 25599874 samples = 43537.2 CDDA sectors
File Size : 23.2M
Bit Rate : 320k
Sample Encoding: MPEG audio (layer I, II or III)
Comments :
Title=Liebeshunger
Artist=Narath
Album=Lust (Rehearsal)
Tracknumber=2
Year=2009
Genre=Black Metal

[/more]

Register
(6) Constantinus I, Rosen, tont, varlam4, vasiljev_sergej, wreak,
Aug 16 2014, 09:39:15 Narath - XVII (Rehearsal) [demo] (2008)


*Artist: Narath
*Album: XVII (Rehearsal) [demo]
*Year: 2008
*Genre: Black Metal
*Country: Russian Federation
*Format: mp3@CBR320kbps
*Size: 96MB

Tracklist:
01. Fog
02. Derelict
03. Nebelrichter
04. Tired
******************************
Total playing time: 41:55

[more=Technical info]
Input File: 4.Tired.mp3
Channels : 2
Sample Rate : 44100
Precision : 16-bit
Duration : 00:09:54.39 = 26212731 samples = 44579.5 CDDA sectors
File Size : 23.8M
Bit Rate : 320k
Sample Encoding: MPEG audio (layer I, II or III)
Comments :
Title=Tired
Artist=Narath
Album=XVII (Rehearsal)
Tracknumber=4
Year=2008
Genre=Black Metal

[/more]

Register
(6) Constantinus I, Rosen, tont, varlam4, vasiljev_sergej, wreak,
Aug 16 2014, 09:31:28 Narath - Derelict (Rehearsal) [demo] (2008)


*Artist: Narath
*Album: Derelict (Rehearsal) [demo]
*Year: 2008
*Genre: Black Metal
*Country: Russian Federation
*Format: mp3@CBR320kbps
*Size: 56MB

Tracklist:
01. Tired
02. Derelict
03. Nebelrichter
******************************
Total playing time: 24:01

[more=Technical info]
Input File: 2.Derelict.mp3
Channels : 2
Sample Rate : 44100
Precision : 16-bit
Duration : 00:06:05.48 = 16117756 samples = 27411.1 CDDA sectors
File Size : 14.6M
Bit Rate : 320k
Sample Encoding: MPEG audio (layer I, II or III)
Comments :
Title=Derelict
Artist=Narath
Album=Derelict (Rehearsal)
Tracknumber=2
Year=2008
Genre=Black Metal

[/more]

Register
(6) Constantinus I, Rosen, tont, varlam4, vasiljev_sergej, wreak,
Aug 16 2014, 09:27:08 Narath - Weiterfahren (Rehearsal) [demo] (2006)


*Artist: Narath
*Album: Weiterfahren (Rehearsal) [demo]
*Year: 2006
*Genre: Black Metal
*Country: Russian Federation
*Format: mp3@CBR320kbps
*Size: 92MB

Tracklist:
01. I Shall Love You All
02. The Steps
03. The Starway
04. I Remember...
05. Fury
06. Funeral March
07. The Guardian Angel
08. A Different Smiles
09. Blind
******************************
Total playing time: 40:04

[more=Technical info]
Input File: 7.The Guardian Angel.mp3
Channels : 2
Sample Rate : 44100
Precision : 16-bit
Duration : 00:05:20.11 = 14116719 samples = 24008 CDDA sectors
File Size : 12.8M
Bit Rate : 320k
Sample Encoding: MPEG audio (layer I, II or III)
Comments :
Title=The Guardian Angel
Artist=Narath
Album=Weiterfahren (Rehearsal)
Tracknumber=7
Year=2006
Genre=Black Metal

[/more]

Register
(7) Constantinus I, randumbum, Rosen, tont, varlam4, vasiljev_sergej, wreak,
Aug 16 2014, 09:19:43 Narath - Meisterwerke II (Rehearsal) [demo] (2004)


*Artist: Narath
*Album: Meisterwerke II (Rehearsal) [demo]
*Year: 2004
*Genre: Black Metal
*Country: Russian Federation
*Format: mp3@CBR320kbps
*Size: 83MB

Tracklist:
01. ...In the Milky-White World
02. Thrown Down And Crushed (Old Wainds Cover)
03. Obey Baphomet (Blackdeath Cover)
04. I Hear the Sea II
05. Your New Muse
06. Untitled
07. Wound (Working Cut)
08. Untitled
09. I Am the Funeral
10. Untitled
******************************
Total playing time: 36:14

[more=Technical info]
Input File: 01....In the Milky-White World.mp3
Channels : 2
Sample Rate : 44100
Precision : 16-bit
Duration : 00:07:14.60 = 19165904 samples = 32595.1 CDDA sectors
File Size : 17.4M
Bit Rate : 320k
Sample Encoding: MPEG audio (layer I, II or III)
Comments :
Title=...In the Milky-White World
Artist=Narath
Album=Meisterwerke II (Rehearsal)
Tracknumber=1
Year=2004
Genre=Black Metal

[/more]

Register
(8) Constantinus I, Ludwig Hagen, randumbum, Rosen, tont, varlam4, vasiljev_sergej, wreak,
Aug 16 2014, 09:14:28 Narath - Meisterwerke (Rehearsal) [demo] (2004)


*Artist: Narath
*Album: Meisterwerke (Rehearsal) [demo]
*Year: 2004
*Genre: Black Metal
*Country: Russian Federation
*Format: mp3@CBR320kbps
*Size: 121MB

Tracklist:
01. Feindblut I
02. Feindblut II
03. The End
04. Old Age
05. Time
06. Hate You
07. Your New Muse
08. I Hear the Sea II
09. Untitled
******************************
Total playing time: 53:39

[more=Technical info]
Input File: 2.Feindblut II.mp3
Channels : 2
Sample Rate : 44100
Precision : 16-bit
Duration : 00:04:20.55 = 11490167 samples = 19541.1 CDDA sectors
File Size : 10.4M
Bit Rate : 320k
Sample Encoding: MPEG audio (layer I, II or III)
Comments :
Title=Feindblut II
Artist=Narath
Album=Meisterwerke (Rehearsal)
Tracknumber=2
Year=2004
Genre=Black Metal

[/more]

Register
(7) Constantinus I, randumbum, Rosen, tont, varlam4, vasiljev_sergej, wreak,
Aug 16 2014, 09:07:54 Narath - Father (Rehearsal) [demo] (2004)


*Artist: Narath
*Album: Father (Rehearsal) [demo]
*Year: 2004
*Genre: Black Metal
*Country: Russian Federation
*Format: mp3@CBR320kbps
*Size: 49MB

Tracklist:
01. Pride
02. Father
03. Fear
04. Dunkelheit (Burzum Cover)
******************************
Total playing time: 22:07

[more=Technical info]
Input File: 1.Pride.mp3
Channels : 2
Sample Rate : 44100
Precision : 16-bit
Duration : 00:03:55.13 = 10369233 samples = 17634.8 CDDA sectors
File Size : 9.41M
Bit Rate : 320k
Sample Encoding: MPEG audio (layer I, II or III)
Comments :
Title=Pride
Artist=Narath
Album=Father (Rehearsal)
Tracknumber=1
Year=2004
Genre=Black Metal

[/more]

Register
(7) Constantinus I, randumbum, Rosen, tont, varlam4, vasiljev_sergej, wreak,
Aug 8 2014, 22:44:27 Narath - Fog (Rehearsal) [demo] (2008)


*Artist: Narath
*Album: Fog (Rehearsal) [demo]
*Year: 2008
*Genre: Black Metal
*Country: Russian Federation
*Format: mp3@CBR320kbps
*Size: 42MB

Tracklist:
01. Fog
02. Laughter Of The Dead II
03. The Brown Epilogue
******************************
Total playing time: 18:32

[more=Technical info]
Input File: 2.Laughter Of The Dead II.mp3
Channels : 2
Sample Rate : 44100
Precision : 16-bit
Duration : 00:04:25.75 = 11719399 samples = 19931 CDDA sectors
File Size : 10.6M
Bit Rate : 320k
Sample Encoding: MPEG audio (layer I, II or III)
Comments :
Title=Laughter Of The Dead II
Artist=Narath
Album=Fog (Rehearsal)
Tracknumber=2
Year=2008
Genre=Black Metal

[/more]

Register
(12) blacky66, Constantinus I, craP_cillA, kim666, Ludwig Hagen, randumbum, Rosen, satanist666, tont, varlam4, vasiljev_sergej, wreak,
Aug 8 2014, 22:40:52 Narath - Trauer (Rehearsal) [demo] (2005)


*Artist: Narath
*Album: Trauer (Rehearsal) [demo]
*Year: 2005
*Genre: Black Metal
*Country: Russian Federation
*Format: mp3@CBR320kbps
*Size: 48MB

Tracklist:
01. Portraits
02. ...And Oblivion Will Be Your Fate
03. Open Your Veins
04. Trauer
******************************
Total playing time: 20:28

[more=Technical info]
Input File: 1.Portraits.mp3
Channels : 2
Sample Rate : 44100
Precision : 16-bit
Duration : 00:04:36.80 = 12206704 samples = 20759.7 CDDA sectors
File Size : 11.1M
Bit Rate : 320k
Sample Encoding: MPEG audio (layer I, II or III)
Comments :
Title=Portraits
Artist=Narath
Album=Trauer (Rehearsal)
Tracknumber=1
Year=2005
Genre=Black Metal

[/more]

Register
(8) Constantinus I, craP_cillA, randumbum, Rosen, tont, varlam4, vasiljev_sergej, wreak,
Jul 24 2014, 18:47:25 Narath - Heritage [best of/compilation] (2004)


*Artist: Narath
*Album: Heritage [best of/compilation]
*Year: 2004
*Genre: Black Metal
*Country: Russian Federation
*Format: mp3@CBR320kbps
*Size: 136MB

Tracklist:
01. From The Dark Past (Mayhem Cover)
02. Shrouded By The Fog (Mehafelon Cover)
03. Void (Promo Version)
04. Pride (Demo Version)
05. I Am The Funeral (Demo Version)
06. Dunkelheit (Burzum Cover)
07. Untitled (Unreleased Track)
08. Nocturnal (From First Demo'2001)
09. The Metal Flowers (Blackdeath Cover, Demo)
10. Heritage (Unreleased Track)
11. Hate You (Unreleased Version)
12. Grief (Unreleased Track)
13. Outerspace III
******************************
Total playing time: 1:00:54

Preview 1

[more=Technical info]
Input File: 01.From The Dark Past (Mayhem Cover).mp3
Channels : 2
Sample Rate : 44100
Precision : 16-bit
Duration : 00:06:30.14 = 17205218 samples = 29260.6 CDDA sectors
File Size : 15.6M
Bit Rate : 320k
Sample Encoding: MPEG audio (layer I, II or III)
Comments :
Title=From The Dark Past (Mayhem Cover)
Artist=Narath
Album=Heritage
Tracknumber=1
Year=2004
Genre=Black Metal

[/more]

Register
(8) blacky66, Domineus218, randumbum, Rosen, SIAVASH, tont, vasiljev_sergej, wreak,
Jul 24 2014, 18:45:35 Narath - Staublicht (Rehearsal) [demo] (2005)


*Artist: Narath
*Album: Staublicht (Rehearsal) [demo]
*Year: 2005
*Genre: Black Metal
*Country: Russian Federation
*Format: mp3@CBR320kbps
*Size: 83MB

Tracklist:
01. Idol
02. Wound
03. I Hear The Sea II
04. Staublicht
05. Acoustic Set
******************************
Total playing time: 35:34

Preview 1

[more=Technical info]
Input File: 1.Idol.mp3
Channels : 2
Sample Rate : 44100
Precision : 16-bit
Duration : 00:05:36.93 = 14858613 samples = 25269.8 CDDA sectors
File Size : 13.5M
Bit Rate : 320k
Sample Encoding: MPEG audio (layer I, II or III)
Comments :
Title=Idol
Artist=Narath
Album=Staublicht (Rehearsal)
Tracknumber=1
Year=2005
Genre=Black Metal

[/more]

Register
(5) randumbum, Rosen, tont, vasiljev_sergej, wreak,
Jul 20 2014, 15:29:57 Narath - Heterodox [ep] (2006)


*Artist: Narath
*Album: Heterodox [ep]
*Year: 2006
*Genre: Electronic
*Country: Russian Federation
*Format: mp3@CBR320kbps
*Size: 40MB

Tracklist:
01. The Zero Heart (Raw Mix)
02. Smells Like Teen Spirit (Nirvana Cover)
03. Heterodox (FL2 Mix)
04. Outerspace VII
******************************
Total playing time: 17:34

Preview 1

[more=Technical info]
Input File: 2.Smells Like Teen Spirit (Nirvana Cover).mp3
Channels : 2
Sample Rate : 44100
Precision : 16-bit
Duration : 00:04:44.87 = 12562679 samples = 21365.1 CDDA sectors
File Size : 11.4M
Bit Rate : 320k
Sample Encoding: MPEG audio (layer I, II or III)
Comments :
Title=Smells Like Teen Spirit (Nirvana Cover)
Artist=Narath
Album=Heterodox (EP)
Tracknumber=2
Year=2006
Genre=Electronic

[/more]

Register
(1) Kazoth,
Mar 2 2014, 20:39:29 Narath - Epilogue [demo] (2014)


*Artist: Narath
*Album: Epilogue [demo]
*Year: 2014
*Genre: Black Metal
*Country: Russian Federation
*Format: mp3@CBR320kbps
*Size: 127MB

Tracklist:
01. Old Bones' Taverna 2:29
02. My Green Mile 6:37
03. God's Secret Domain 17:30
04. Callisto IV 31:12
******************************
Total playing time: 57:48

Preview 1

[more=Technical info]
Input File: 2.My Green Mile.mp3
Channels : 2
Sample Rate : 44100
Precision : 16-bit
Duration : 00:06:37.72 = 17539276 samples = 29828.7 CDDA sectors
File Size : 15.9M
Bit Rate : 320k
Sample Encoding: MPEG audio (layer I, II or III)
Comments :
Title=My Green Mile
Artist=Narath
Album=Epilogue (Demo)
Tracknumber=2
Year=2014
Genre=Black Metal

[/more]

Register
(10) 0x13, blacky66, caro, craP_cillA, Kazoth, randumbum, tont, VALERY, vasiljev_sergej, wreak,
Jan 1 2014, 19:40:41 Narath - XXI [rehearsal] (2013)


*Artist: Narath
*Album: XXI [rehearsal]
*Year: 2013
*Genre: Black Metal
*Country: Russian Federation
*Format: mp3@CBR320kbps
*Size: 97MB

Tracklist:
1. A Sexuality Of Grave
2. Sorrow
3. Jesus Is A Cthulhu
4. Alien
5. Pulsar
6. Destructive Visions
7. God's Secret Domain
8. Absorb Me
******************************
Total playing time: 44:01

Preview 1

[more=Technical info]
Input File: 2.Sorrow.mp3
Channels : 2
Sample Rate : 44100
Precision : 16-bit
Duration : 00:09:17.79 = 24598671 samples = 41834.5 CDDA sectors
File Size : 22.3M
Bit Rate : 320k
Sample Encoding: MPEG audio (layer I, II or III)
Comments :
Title=Sorrow
Artist=Narath
Album=XXI (Rehearsal)
Tracknumber=2
Year=2013
Genre=Black Metal

[/more]

Register
(8) blacky66, caro, craP_cillA, garretje, Kazoth, rom666, tont, vasiljev_sergej,
Dec 25 2013, 17:10:19 Narath (1) DarkHorde,
Dec 25 2013, 14:43:54 Narath - Mindframe [demo] (2005)


*Artist: Narath
*Album: Mindframe [demo]
*Year: 2005
*Genre: Black Metal
*Country: Russian Federation
*Format: mp3@CBR320kbps
*Size: 99MB

Tracklist:
01. Mindframe 43:50
******************************
Total playing time: 43:50

[more=Extended info]http://vk.com/narath[/more]

[more=Technical info]
Input File: 1.Mindframe (5m 00s).mp3
Channels : 2
Sample Rate : 44100
Precision : 16-bit
Duration : 00:05:00.15 = 13236615 samples = 22511.2 CDDA sectors
File Size : 12.0M
Bit Rate : 320k
Sample Encoding: MPEG audio (layer I, II or III)
Comments :
Title=Mindframe
Artist=Narath
Album=Mindframe (Demo)
Tracknumber=1
Year=2005
Genre=Black Metal

[/more]

Register
(11) artscald, caro, craP_cillA, Kazoth, Lord Of The Siths, randumbum, RENыч, tont, varlam4, vasiljev_sergej, wreak,
Dec 25 2013, 14:25:24 Narath - Heartless [rehearsal] [demo] (2008)


*Artist: Narath
*Album: Heartless [rehearsal] [demo]
*Year: 2008
*Genre: Black Metal
*Country: Russian Federation
*Format: mp3@CBR320kbps
*Size: 58MB

Tracklist:
01. Fog
02. Derelict
03. Vortex, Der Steuereinnehmer (Blackdeath Cover)
******************************
Total playing time: 24:57

[more=Extended info]http://vk.com/narath[/more]

[more=Technical info]
Input File: 3.Vortex, Der Steuereinnehmer (Blackdeath Cover).mp3
Channels : 2
Sample Rate : 44100
Precision : 16-bit
Duration : 00:03:21.64 = 8892412 samples = 15123.1 CDDA sectors
File Size : 8.06M
Bit Rate : 320k
Sample Encoding: MPEG audio (layer I, II or III)
Comments :
Title=Vortex, Der Steuereinnehmer (Blackdeath Cover)
Artist=Narath
Album=Heartless (Rehearsal)
Tracknumber=3
Year=2008
Genre=Black Metal

[/more]

Register
(9) artscald, caro, craP_cillA, randumbum, satanas189, tont, varlam4, vasiljev_sergej, wreak,
Dec 9 2013, 08:36:55 Narath (1) DarkHorde,
Dec 9 2013, 08:00:58 Narath - Idol [demo] (2004)


*Artist: Narath
*Album: Idol [demo]
*Year: 2004
*Genre: Black Metal
*Country: Russian Federation
*Format: mp3@CBR320kbps
*Size: 70MB

Tracklist:
01. Autism
02. Idol
03. Plague
04. Destiny
05. Heritage
06. Cloudy Days
07. Mourn The Harvester Of Sands
******************************
Total playing time: 30:12

Preview 1

[more=Technical info]
Input File: 02.Idol.mp3
Channels : 2
Sample Rate : 44100
Precision : 16-bit
Duration : 00:05:15.67 = 13920871 samples = 23675 CDDA sectors
File Size : 12.6M
Bit Rate : 320k
Sample Encoding: MPEG audio (layer I, II or III)
Comments :
Title=Idol
Artist=Narath
Album=Idol (Demo)
Tracknumber=02
Year=2004
Genre=Black Metal

[/more]

Register
(8) artscald, burzum1983, caro, craP_cillA, Kazoth, saxon, tont, vasiljev_sergej,
Nov 29 2013, 16:18:11 Narath (1) DarkHorde,
Nov 29 2013, 12:05:08 Sumadual Mued - First Pages Of Demonology [best of/compilation] (2005)


*Artist: Sumadual Mued
*Album: First Pages Of Demonology [best of/compilation]
*Year: 2005
*Genre: Black Metal
*Country: Russian Federation
*Format: mp3@CBR320kbps
*Size: 168MB

Tracklist:
01. Your New God
02. Ruins Of Life
03. Untitled Track
04. Demon's Life
05. Names
06. The Book
07. Beyond The Trees
08. Chaos
09. The Truth
10. Ave Satanas!
11. Outro - World's Funeral
12. The Unholy Prophet
13. In Nomine
14. Cursed Child
15. Darkness Return
16. Ruins Of Life
17. Outro
******************************
Total playing time: 1:16:57

[more=Technical info]
Input File: 01.Your New God.mp3
Channels : 2
Sample Rate : 44100
Precision : 16-bit
Duration : 00:05:33.77 = 14719213 samples = 25032.7 CDDA sectors
File Size : 13.4M
Bit Rate : 320k
Sample Encoding: MPEG audio (layer I, II or III)
Comments :
Title=Your New God
Artist=Sumadual Mued
Album=First Pages Of Demonology
Tracknumber=1
Year=2005
Genre=138

[/more]

Register
(8) caro, randumbum, Reverend, rom666, tont, varlam4, vasiljev_sergej, wreak,
Nov 29 2013, 11:47:30 Narath - Anger [demo] (2003)


*Artist: Narath
*Album: Anger [demo]
*Year: 2003
*Genre: Black Metal
*Country: Russian Federation
*Format: mp3@CBR320kbps
*Size: 109MB

Tracklist:
01. Intro - Your New Muse
02. I Hear The Sea II
03. III
04. IV
05. V
06. VI
07. VII
08. Resistance
09. Hate You
10. X
11. XI
******************************
Total playing time: 49:00

Preview 1

[more=Technical info]
Input File: 03.III.mp3
Channels : 2
Sample Rate : 44100
Precision : 16-bit
Duration : 00:03:16.86 = 8681570 samples = 14764.6 CDDA sectors
File Size : 7.87M
Bit Rate : 320k
Sample Encoding: MPEG audio (layer I, II or III)
Comments :
Title=III
Artist=Narath
Album=Anger (Demo)
Tracknumber=3
Year=2003
Genre=Black Metal

[/more]

Register
(7) artscald, craP_cillA, Orkkh, Starseeker, tont, vasiljev_sergej, wreak,

8 Pages V   1 2 3 > » 
- Lo-Fi Version Support form
Copyrights and abuse reports form
Time is now: 24th August 2019 - 14:20:40