Welcome Guest ( Log In | Register )

История благодарностей участнику Shoegazer ::: Спасибо сказали: 8684 раз(а)
Дата поста: В теме: За сообщение: Спасибо сказали:
Jan 18 2019, 20:06:12 Blood Feast - Chopped, Sliced And Diced [ep] (2018)
As promised. FLAC lossless. 191MB.

Register


(11) AHBAnep, cancer1974, Dark Sage, desekrator, jerrytodd, Kowalski, metaljosue, pichileon, Samaritianin, samokot, Tino,
Jan 18 2019, 03:37:18 Blood Feast - Chopped, Sliced And Diced [ep] (2018)


*Artist: Blood Feast
*Album: Chopped, Sliced And Diced [ep]
*Year: 2018
*Genre: Thrash Metal
*Country: United States
*Format: mp3@VBR273kbps
*Size: 52MB

Tracklist:
1. Concubine 4:04
2. Hunted Stalked And Slain 4:31
3. Darkside 4:31
4. Chopping Block Blues 4:11
5. Chemically Imbalanced 3:16
6. By The Slice [Live In Osaka] 4:55
******************************
Total playing time: 25:28




[more=Technical info]
Input File: BLOOD FEAST - Chopped, Sliced and Diced - 01 Concubine_0.mp3
Channels : 2
Sample Rate : 44100
Precision : 16-bit
Duration : 00:02:02.50 = 5402426 samples = 9187.8 CDDA sectors
File Size : 3.17M
Bit Rate : 207k
Sample Encoding: MPEG audio (layer I, II or III)
Comments :
Title=Concubine
Artist=Blood Feast
Album=Chopped, Sliced and Diced
Tracknumber=01
Year=2018-01-01
Genre=144

[/more]

Register
(24) AHBAnep, Balusina, boby9052, BugEyes, Darkness, Diflock, DTGB, fishish, gwar, iRonIC, jerrytodd, METALHUNTER, neoatheist, older68, Olethros, pichileon, postal67, Proteus_666, ripper33, Rosen, Samaritianin, slack, Tino, victorinox,
Nov 28 2018, 03:32:32 Blackfield - Open Mind: The Best Of Blackfield [compilation] (2018)


*Artist: Blackfield
*Album: Open Mind: The Best Of Blackfield [compilation]
*Year: 2018
*Genre: Progressive Rock
*Country: United Kingdom
*Format: mp3@VBR263kbps
*Size: 110MB

Tracklist:
1. Blackfield 4:27
2. Family Man 3:37
3. Open Mind 3:49
4. 1,000 People 3:54
5. Oxygen 3:00
6. Hello 3:09
7. Once 4:03
8. How Was Your Ride? 3:58
9. Waving 3:56
10. From 44 To 48 4:31
11. Pain 3:47
12. October 3:31
13. Faking 3:33
14. Dissolving With The Night 4:07
15. End Of The World 5:14
******************************
Total playing time: 58:36




[more=Technical info]
Input File: pain_30-Sec_sample.mp3
Channels : 2
Sample Rate : 44100
Precision : 16-bit
Duration : 00:00:30.07 = 1325911 samples = 2254.95 CDDA sectors
File Size : 998k
Bit Rate : 266k
Sample Encoding: MPEG audio (layer I, II or III)

[/more]

Register
(1) Olethros,
Nov 26 2018, 02:59:28 Porcupine Tree - Stupid Dream [Remastered 2006] (1999)
For those wanting the 5.1 surround sound of this, here it is. I ripped this using DVD Audio Extractor. Unfortunately, there's no logs like EAC or dBPA.

Here's a link to the release I have.

Porcupine Tree - Stupid Dream (5.1 mix/ 24-bit/ 48kHZ/ 6 ch/ 6912kbps)

Same tracklist except I forgot to rip the 2 bonus tracks which I included in a separate link. (*2 different formats from 2 different times.)

MEGA

Main album in ALAC - 998MB
Register


Bonus Tracks in FLAC - 321MB:

13) Ambulance Chasing (6:41)
14) Even Less (Full Length Version) (14:07)

Register

(1) Yarri,
Nov 29 2013, 06:41:54 Solar Powered People - The Scars We Own (2013)


*Artist: Solar Powered People
*Album: The Scars We Own
*Year: 2013
*Genre: Indie Rock/Shoegaze
*Country: United States
*Format: mp3@VBR271kbps
*Size: 109MB

Tracklist:
01. Just A Dream 3:57
02. Waking Up 6:01
03. Safe For Now 3:48
04. Save Souls 4:12
05. Power Has The Right To Us 3:22
06. Drenched 7:39
07. Suffer 5:12
08. We Are The One 5:01
09. Away, To Stay 5:14
10. Last Lust 4:26
11. Believe And Shudder 7:26
******************************
Total playing time: 56:18




[more=Extended info]From: Modesto, California

Members:
Tony Pennington
Ryan Coscia
Doug McKinnon
Dustin Morris[/more]

Register
(3) DarkYantar, Misanthrope@, randumbum,
Aug 7 2011, 02:59:28 Solar Powered People - Living Through The Low (2009)


*Artist: Solar Powered People
*Album: Living Through The Low
*Year: 2009
*Genre: Post-Rock/Shoegaze
*Country: United States
*Format: mp3@VBR274kbps
*Size: 87MB

Tracklist:
1. Melting Ice And Snow 3:29
2. Dark Disguise 3:50
3. Stars Don't Complain 4:05
4. Docile 1:01
5. Wash Out 4:12
6. You Were Right 5:50
7. Counting Down Days 6:04
8. Submarine 1:00
9. Out Of Time 8:31
******************************
Total playing time: 38:02



[more=Extended info]From: Modesto, California (United States)

Lineup:

-Singer/guitarist Tony Pennington
-Drummer Ryan Coscia
-Bassist Doug McKinnon
-Guitarist Dustin Morris

[/more]

VBR V0

Register


Lossless FLAC. RGhost.net

Register


Link renewed 8/21/12.
(5) bka, BlackArrow, Emhyr var Emreis, johnbutoff, ZloY_GreY,
Jun 24 2011, 01:55:48 Draconian - A Rose For The Apocalypse (2011)


*Artist: Draconian
*Album: A Rose For The Apocalypse
*Year: 2011
*Genre: Gothic/Doom Metal
*Country: Sweden
*Format: mp3@CBR320kbps
*Size: 141MB

Tracklist:
1. The Drowning Age 07:18
2. The Last Hour Of Ancient Sunlight 05:26
3. End Of The Rope 06:34
4. Elysian Night 07:52
5. Deadlight 06:32
6. Dead World Assembly 05:52
7. A Phantom Dissonance 05:39
8. The Quiet Storm 06:37
9. The Death Of Hours 07:48
10. Wall Of Sighs (Bonus Track) 05:14
******************************
Total playing time: 1:04:52


twitter.com
official homepage

[more=Extended info]From: Sweden (Säffle)

Members:

Vocals: Anders Jacobsson
Drums: Jerry Torstensson
Guitars: Johan Ericson
Female Vocals: Lisa Johansson
Guitars: Daniel Arvidsson
Bass: Fredrik Johansson[/more]

Register

Register
(185) -=Lion=-, 0x13, 6666666, ad73, aGoo, Akbarz, Alex Eagle, alexskev, AlivePhantom, Alpha_Prime, andreylogan, ANGELUSARCHDAEMON, Any-maL, aorta2, Aphrax, Aresson, Aries, Ash_1980, aufschwung, avather, Ballisargon, Behdad, Bercov, BioMax, bka, Blackner, Blindness, Bloodn Lord, Brutal, BRUTAL06, bykas, Caecus, Cartman223, CelticSPB, clublen, congyno, Coyote, crestfallen999, d0zer, Dark Kyro, Darth Alvasarra, defamer666, Dejjan, delgard, demether, DenisKov, DenRIIZ, DevilishSong, dgcviking, dimitriusk, e2_81, ElfinQueen, Emhyr var Emreis, emp8080, Empty, Estragon, Evjenne, fabeldyr, Fatalv, Fess, Fetus_In_Fetu, Fox Mulder, garml2, gbagrami, Geralder, ghaaran, Ghul, gotherion, H0l0D, Hedgehog666, Hell_Is_Here, Impaled, Indamage, InFestus, Infidel, ironyserg, IvaN_Fallout, John Beak, johnbutoff, Joukahainen, Jurmagund, KATAKLYSM, kettle, kipelov999, Kisser, kolar666, Koscheyushka, KVRT, lanius, libertine, light, logunarm, Ludwig Hagen, m00n1ight, Maria, MaXL, MAYH, mdmoroz, Mehran, metala, Metalass, metaljan, Molotov, Moonshtook, morrom, Mplast, msk1147, nannoblack, Nattfodd, nekrokilldozer, nikfo, Nocturn, nofate, nospeedlimit, nsk2008, nsmetalhead, Old Vyaine, Olrak, omidalfa, Orgasmik, otyk, Parfen81, Persian Gorgrinder, Polyah, popen13, raattent, Radek, ralyanov, Raven Gris, raytoyagami, RedSparrow, Reikjavik, Rhoads, ripper33, Rodriga, RUDACHUR, sadmannn, sanctum, SatanicPanzer, satanist666, Sathana, Scuns, senecazm, SilentKeeper, skidnik, Skogvaktar, Sky7Daemon, Slava, slawen, smes, Spikes, spiritualdecay666, spldead, Stark, StoneTemple, svartalf, sweetredka, Sycantrhope, tamerz, TeamatSE, threshold87, tomegatherion, Typhoid, Typhon88, umnaxtet, Un4given, v.v.m, VALERY, varnack, vasilisk, Vincent, Virgil, Vitaliano, Vlademir, Witchlord, woldemort, wp2, Xaphan, Xor, yuratroll, zaqxsw, zemlemer, zhuyao, Сатаник, Язва,
Feb 10 2011, 08:28:45 NightCreepers - Svingeheim (2009)


*Artist: NightCreepers
*Album: Svingeheim
*Year: 2009
*Genre: Folk Metal
*Country: France
*Format: mp3@VBR268kbps
*Size: 72MB

Tracklist:
1. Dawn 0:52
2. Set Sails 4:14
3. Battle Through The Wind 3:40
4. The Warcryer 5:57
5. Dusk 1:07
6. Siegfried The Dragonslayer 4:02
7. The Treasure Hunter 4:34
8. Leech The Pain 4:54
9. Pursuit Of The Wolf 3:46
10. Forest Of Whispers 4:00
******************************
Total playing time: 37:06



[more=Extended info]From: France (Conflans-Sainte-Honorine, Île-de-France)

Current line-up
Vincent "Haarath" Moretto - Guitar, Vocals (Cave Growl)
Cédric "Viken" Guillo - Drums
Hindrik - Guitar, Backing Vocals (Cave Growl)
Danth - Bass, Backing Vocals
Raphaelle "Evoken" Monvoisin - Keys
Tyrrael - Accordion

[/more]

Register
(31) AHBAnep, ALBIGON, artscald, aviacademy, bka, Buregon, Cartman223, dgcviking, Fess, garretje, gwynnbleid, kakha_k, karpenka, lary_veel, LightWizard, Mihalik, Mogozoz, neoatheist, norfin, Old Vyaine, oldvarg, Oskulum, PLamenism, RUDACHUR, SAPOGi, senecazm, Skogvaktar, Sleipnir, talismanFS, tt2008, zhuyao,
Feb 10 2011, 07:14:23 Illuminatus - Glasnost (2011)


*Artist: Illuminatus
*Album: Glasnost
*Year: 2011
*Genre: Psychedelic/Post-Metal
*Country: United Kingdom
*Format: mp3@VBR290kbps
*Size: 103MB

Tracklist:
1. Glasnost 3:10
2. Murdocracy 5:19
3. Division 4:58
4. Reconnect 4:20
5. Cave In 5:58
6. Keep Calm And Carry On 3:12
7. You'll Never Know What This Means 5:23
8. Red 6:39
9. Gosling 2:44
10. Clarity 6:08
11. Wolves! 4:05
******************************
Total playing time: 51:56



[more=Extended info]From: United Kingdom (Nottingham)

Current line-up
Julio Taylor - Vocals, Guitar
Jonathan Martin - Guitar
Leo Giovazzini - Bass
Felix Rullhusen - Drums[/more]

Register
(26) 0x13, Aenziferum, bka, Bloodn Lord, Buregon, drbutcher, e2_81, eternald, garretje, ivreactor, J0k3r, kjemiker, KVRT, MMMMM, Mo-Ha, Molotov, oldvarg, omidalfa, Rodriga, squall8fr, StabWound, svartalf, TheWretched, udokoe, VALERY, Veksha,
Feb 10 2011, 00:23:29 Evergrey - Glorious Collision (2011)


*Artist: Evergrey
*Album: Glorious Collision
*Year: 2011
*Genre: Progressive/Power Metal
*Country: Sweden
*Format: mp3@CBR320kbps
*Size: 136MB

Tracklist:
1. Leave It Behind Us 5:09
2. You 6:23
3. Wrong 5:14
4. Frozen 5:01
5. Restoring The Loss 4:46
6. To Fit The Mold 5:24
7. Out Of Reach 3:43
8. The Phantom Letters 5:31
9. The Disease... 4:13
10. It Comes From Within 4:25
11. Free 3:45
12. I'm Drowning Alone 4:17
13. ... And The Distance 3:47
******************************
Total playing time: 1:01:38




320k/bits

[more="Log"]Exact Audio Copy V0.99 prebeta 5 from 4. May 2009

EAC extraction logfile from 9. February 2011, 20:56

Evergrey / Glorious Collision

Used drive : HL-DT-STDVD+-RW GSA-H73N Adapter: 2 ID: 1

Read mode : Secure
Utilize accurate stream : Yes
Defeat audio cache : Yes
Make use of C2 pointers : No

Read offset correction : 102
Overread into Lead-In and Lead-Out : No
Fill up missing offset samples with silence : Yes
Delete leading and trailing silent blocks : No
Null samples used in CRC calculations : Yes
Used interface : Native Win32 interface for Win NT & 2000
Gap handling : Appended to previous track

Used output format : User Defined Encoder
Selected bitrate : 128 kBit/s
Quality : High
Add ID3 tag : No
Command line compressor : C:Program FilesLamelame.exe
Additional command line options : -b 320 -h --add-id3v2 --ignore-tag-errors --ta "%a" --tt "%t" --tg "%m" --tl "%g" --ty "%y" --tn "%n" %s %d


TOC of the extracted CD

Track | Start | Length | Start sector | End sector
---------------------------------------------------------
1 | 0:00.00 | 5:09.58 | 0 | 23232
2 | 5:09.58 | 6:23.57 | 23233 | 52014
3 | 11:33.40 | 5:14.27 | 52015 | 75591
4 | 16:47.67 | 5:00.73 | 75592 | 98164
5 | 21:48.65 | 4:46.51 | 98165 | 119665
6 | 26:35.41 | 5:24.42 | 119666 | 144007
7 | 32:00.08 | 3:43.09 | 144008 | 160741
8 | 35:43.17 | 5:31.56 | 160742 | 185622
9 | 41:14.73 | 4:13.02 | 185623 | 204599
10 | 45:28.00 | 4:25.30 | 204600 | 224504
11 | 49:53.30 | 3:45.39 | 224505 | 241418
12 | 53:38.69 | 4:17.33 | 241419 | 260726
13 | 57:56.27 | 3:47.44 | 260727 | 277795


Track 1

Filename C:eacripsEvergrey - 2011 - Glorious Collision [320]�1 - Leave It Behind Us.wav

Pre-gap length 0:00:02.00

Peak level 98.8 %
Track quality 100.0 %
Copy CRC AFA5ADC2
Track not present in AccurateRip database
Copy OK

Track 2

Filename C:eacripsEvergrey - 2011 - Glorious Collision [320]�2 - You.wav

Pre-gap length 0:00:00.77

Peak level 94.8 %
Track quality 100.0 %
Copy CRC D0D86EB6
Track not present in AccurateRip database
Copy OK

Track 3

Filename C:eacripsEvergrey - 2011 - Glorious Collision [320]�3 - Wrong.wav

Pre-gap length 0:00:00.01

Peak level 98.8 %
Track quality 100.0 %
Copy CRC 5A9B6DCB
Track not present in AccurateRip database
Copy OK

Track 4

Filename C:eacripsEvergrey - 2011 - Glorious Collision [320]�4 - Frozen.wav

Pre-gap length 0:00:06.88

Peak level 98.8 %
Track quality 100.0 %
Copy CRC AA86A24E
Track not present in AccurateRip database
Copy OK

Track 5

Filename C:eacripsEvergrey - 2011 - Glorious Collision [320]�5 - Restoring The Loss.wav

Pre-gap length 0:00:03.64

Peak level 98.8 %
Track quality 100.0 %
Copy CRC 9093F160
Track not present in AccurateRip database
Copy OK

Track 6

Filename C:eacripsEvergrey - 2011 - Glorious Collision [320]�6 - To Fit The Mold.wav

Pre-gap length 0:00:06.08

Peak level 98.8 %
Track quality 100.0 %
Copy CRC 574DE024
Track not present in AccurateRip database
Copy OK

Track 7

Filename C:eacripsEvergrey - 2011 - Glorious Collision [320]�7 - Out Of Reach.wav

Pre-gap length 0:00:04.17

Peak level 98.8 %
Track quality 100.0 %
Copy CRC FDB5AF09
Track not present in AccurateRip database
Copy OK

Track 8

Filename C:eacripsEvergrey - 2011 - Glorious Collision [320]�8 - The Phantom Letters.wav

Pre-gap length 0:00:02.78

Peak level 98.8 %
Track quality 99.9 %
Copy CRC 4A08FB12
Track not present in AccurateRip database
Copy OK

Track 9

Filename C:eacripsEvergrey - 2011 - Glorious Collision [320]�9 - The Disease.wav

Pre-gap length 0:00:00.17

Peak level 98.8 %
Track quality 99.9 %
Copy CRC 24B5D04B
Track not present in AccurateRip database
Copy OK

Track 10

Filename C:eacripsEvergrey - 2011 - Glorious Collision [320]10 - It Comes From Within.wav

Pre-gap length 0:00:02.86

Peak level 98.8 %
Track quality 100.0 %
Copy CRC D8E6821E
Track not present in AccurateRip database
Copy OK

Track 11

Filename C:eacripsEvergrey - 2011 - Glorious Collision [320]11 - Free.wav

Pre-gap length 0:00:03.28

Peak level 98.8 %
Track quality 100.0 %
Copy CRC 49101573
Track not present in AccurateRip database
Copy OK

Track 12

Filename C:eacripsEvergrey - 2011 - Glorious Collision [320]12 - I'm Drowning Alone.wav

Pre-gap length 0:00:03.01

Peak level 98.8 %
Track quality 100.0 %
Copy CRC 12BF2833
Track not present in AccurateRip database
Copy OK

Track 13

Filename C:eacripsEvergrey - 2011 - Glorious Collision [320]13 - ... And The Distance.wav

Pre-gap length 0:00:06.13

Peak level 98.8 %
Track quality 100.0 %
Copy CRC BF614911
Track not present in AccurateRip database
Copy OK


None of the tracks are present in the AccurateRip database

No errors occurred

End of status report[/more]

Register


FLAC +Tracks +.Cue +.Log

[more="Flac Log"]Exact Audio Copy V0.99 prebeta 5 from 4. May 2009

EAC extraction logfile from 9. February 2011, 20:24

Evergrey / Glorious Collision

Used drive : HL-DT-STDVD+-RW GSA-H73N Adapter: 2 ID: 1

Read mode : Secure
Utilize accurate stream : Yes
Defeat audio cache : Yes
Make use of C2 pointers : No

Read offset correction : 102
Overread into Lead-In and Lead-Out : No
Fill up missing offset samples with silence : Yes
Delete leading and trailing silent blocks : No
Null samples used in CRC calculations : Yes
Used interface : Native Win32 interface for Win NT & 2000
Gap handling : Appended to previous track

Used output format : User Defined Encoder
Selected bitrate : 128 kBit/s
Quality : High
Add ID3 tag : No
Command line compressor : C:\Program Files\Exact Audio Copy\Flac\flac.exe
Additional command line options : -V -8 -T "artist=%a" -T "title=%t" -T "album=%g" -T "date=%y" -T "tracknumber=%n" -T "genre=%m" %s


TOC of the extracted CD

Track | Start | Length | Start sector | End sector
---------------------------------------------------------
1 | 0:00.00 | 5:09.58 | 0 | 23232
2 | 5:09.58 | 6:23.57 | 23233 | 52014
3 | 11:33.40 | 5:14.27 | 52015 | 75591
4 | 16:47.67 | 5:00.73 | 75592 | 98164
5 | 21:48.65 | 4:46.51 | 98165 | 119665
6 | 26:35.41 | 5:24.42 | 119666 | 144007
7 | 32:00.08 | 3:43.09 | 144008 | 160741
8 | 35:43.17 | 5:31.56 | 160742 | 185622
9 | 41:14.73 | 4:13.02 | 185623 | 204599
10 | 45:28.00 | 4:25.30 | 204600 | 224504
11 | 49:53.30 | 3:45.39 | 224505 | 241418
12 | 53:38.69 | 4:17.33 | 241419 | 260726
13 | 57:56.27 | 3:47.44 | 260727 | 277795


Track 1

Filename C:\eacrips\Evergrey - 2011 - Glorious Collision [FLAC]1 - Leave It Behind Us.wav

Pre-gap length 0:00:02.00

Peak level 98.8 %
Track quality 100.0 %
Test CRC AFA5ADC2
Copy CRC AFA5ADC2
Track not present in AccurateRip database
Copy OK

Track 2

Filename C:\eacrips\Evergrey - 2011 - Glorious Collision [FLAC]2 - You.wav

Pre-gap length 0:00:00.77

Peak level 94.8 %
Track quality 100.0 %
Test CRC D0D86EB6
Copy CRC D0D86EB6
Track not present in AccurateRip database
Copy OK

Track 3

Filename C:\eacrips\Evergrey - 2011 - Glorious Collision [FLAC]3 - Wrong.wav

Pre-gap length 0:00:00.01

Peak level 98.8 %
Track quality 100.0 %
Test CRC 5A9B6DCB
Copy CRC 5A9B6DCB
Track not present in AccurateRip database
Copy OK

Track 4

Filename C:\eacrips\Evergrey - 2011 - Glorious Collision [FLAC]4 - Frozen.wav

Pre-gap length 0:00:06.88

Peak level 98.8 %
Track quality 100.0 %
Test CRC AA86A24E
Copy CRC AA86A24E
Track not present in AccurateRip database
Copy OK

Track 5

Filename C:\eacrips\Evergrey - 2011 - Glorious Collision [FLAC]5 - Restoring The Loss.wav

Pre-gap length 0:00:03.64

Peak level 98.8 %
Track quality 100.0 %
Test CRC 9093F160
Copy CRC 9093F160
Track not present in AccurateRip database
Copy OK

Track 6

Filename C:\eacrips\Evergrey - 2011 - Glorious Collision [FLAC]6 - To Fit The Mold.wav

Pre-gap length 0:00:06.08

Peak level 98.8 %
Track quality 100.0 %
Test CRC 574DE024
Copy CRC 574DE024
Track not present in AccurateRip database
Copy OK

Track 7

Filename C:\eacrips\Evergrey - 2011 - Glorious Collision [FLAC]7 - Out Of Reach.wav

Pre-gap length 0:00:04.17

Peak level 98.8 %
Track quality 100.0 %
Test CRC FDB5AF09
Copy CRC FDB5AF09
Track not present in AccurateRip database
Copy OK

Track 8

Filename C:\eacrips\Evergrey - 2011 - Glorious Collision [FLAC]8 - The Phantom Letters.wav

Pre-gap length 0:00:02.78

Peak level 98.8 %
Track quality 99.9 %
Test CRC 4A08FB12
Copy CRC 4A08FB12
Track not present in AccurateRip database
Copy OK

Track 9

Filename C:\eacrips\Evergrey - 2011 - Glorious Collision [FLAC]9 - The Disease.wav

Pre-gap length 0:00:00.17

Peak level 98.8 %
Track quality 99.9 %
Test CRC 24B5D04B
Copy CRC 24B5D04B
Track not present in AccurateRip database
Copy OK

Track 10

Filename C:\eacrips\Evergrey - 2011 - Glorious Collision [FLAC]\10 - It Comes From Within.wav

Pre-gap length 0:00:02.86

Peak level 98.8 %
Track quality 100.0 %
Test CRC D8E6821E
Copy CRC D8E6821E
Track not present in AccurateRip database
Copy OK

Track 11

Filename C:\eacrips\Evergrey - 2011 - Glorious Collision [FLAC]\11 - Free.wav

Pre-gap length 0:00:03.28

Peak level 98.8 %
Track quality 100.0 %
Test CRC 49101573
Copy CRC 49101573
Track not present in AccurateRip database
Copy OK

Track 12

Filename C:\eacrips\Evergrey - 2011 - Glorious Collision [FLAC]\12 - I'm Drowning Alone.wav

Pre-gap length 0:00:03.01

Peak level 98.8 %
Track quality 100.0 %
Test CRC 12BF2833
Copy CRC 12BF2833
Track not present in AccurateRip database
Copy OK

Track 13

Filename C:\eacrips\Evergrey - 2011 - Glorious Collision [FLAC]\13 - ... And The Distance.wav

Pre-gap length 0:00:06.13

Peak level 98.8 %
Track quality 100.0 %
Test CRC BF614911
Copy CRC BF614911
Track not present in AccurateRip database
Copy OK


None of the tracks are present in the AccurateRip database

No errors occurred

End of status report
[/more]

Register
(73) ace73pq, aGoo, Alex Eagle, andgrek28, Andrew, aorta2, Aresson, Artemida, AshenLight, avather, Barricade, Bercov, Bloodn Lord, BRUTAL06, Cartman223, dimitriusk, Doct, DrStein, DWar, e2_81, ElfinQueen, Emhyr var Emreis, Fatalv, Fess, Fetus_In_Fetu, flashback, garretje, gusto24191, hammer, Hater, Hector73, Hedgehog666, hofelia, Jurmagund, lawronchik, lio2zero, Lord_Hip, mdmoroz, metala, MetalAlex, Mogozoz, msk1147, MеtalHead, nikfo, Nomad, Nonconformist, nospeedlimit, oldvarg, Oskulum, Phlebotomized, psychoconductor, Psychostatusrem, qpMM, Redevil, RedSparrow, Rhoads, Rodriga, SAPOGi, savaman, senecazm, Shadowman, Slayer_uk, smes, StoneTemple, Tino, trankill, Tular, Typhoid, VALERY, varlam4, xska, Yarri, zerger,
Jan 19 2011, 06:48:27 Nuclear Wasteland - Sacrifice Of The Blessed [demo] (2010)


*Artist: Nuclear Wasteland
*Album: Sacrifice Of The Blessed [demo]
*Year: 2010
*Genre: Thrash Metal
*Country: United States
*Format: mp3@VBR238kbps
*Size: 21MB

Tracklist:
1. Here Come the Bombs! 1:28
2. Bastion Of Sin 1:58
3. Under The Berzerkers Blade 2:54
4. The Peacekeeper 3:24
5. Crush The Cross (Preview Of Brink Of Extinction) 2:17
******************************
Total playing time: 12:01



[more=Extended info]*Track 5 is a preview of their first full-length “Brink Of Extinction.”

From: United States of America (Vancouver, Washington)

Current line-up
Mackenzie - Vocals, Guitar (Undead Epidemic)
Braden - Guitar (Barad-Dur (USA), Black Chariot)
Tall Can Dan - Bass (Depths of Tartarus, Motorthrone)
Cameron - Drums (Spear Induced Carnage, Black Chariot)[/more]

Register
(5) Golfzilla, MeathookSeed, metala, Misotheist, satanas189,
Jan 19 2011, 05:45:50 Short Fuse - Shred The Dead (2010)


*Artist: Short Fuse
*Album: Shred The Dead
*Year: 2010
*Genre: Melodic Death Metal
*Country: United States
*Format: mp3@VBR240kbps
*Size: 85MB

Tracklist:
1. Death By Slaughter 3:25
2. Extinction: Mankind 3:09
3. Rape Your Sanity 3:28
4. Creature 5:28
5. Lifeless 4:20
6. Shred The Dead 2:50
7. Aggression 5:17
8. The Dying Breed 2:51
9. Diseased 5:08
10. Nail It To The Brain 3:18
11. Defeated 4:25
12. Fearful Hate 5:16
******************************
Total playing time: 48:55



[more=Extended info]From: United States of America (Redwood City, California)

Current line-up
Myke "Death" DiBattista - Vocals
Flick - Guitar
Scott "Beef" Chavez - Guitar
Tony X - Bass
Cardo Alvarez - Drums
Mar Tin Boy-N-Ton

[/more]

Register
(21) AHBAnep, Andrew, avather, Brooks, chon, Elfrey, Endymion, Fetus_In_Fetu, garretje, gwynnbleid, metaljan, Mihalik, MMMMM, oldvarg, respect, ShmiT, VALERY, Vincent, zhol, Дерсу Узала, Смусмумбрик,
Jan 19 2011, 05:24:30 My Fate - Room For Regret (2010)


*Artist: My Fate
*Album: Room For Regret
*Year: 2010
*Genre: Melodic Death/Thrash Metal
*Country: Finland
*Format: mp3@VBR242kbps
*Size: 71MB

Tracklist:
1. Unchained 4:31
2. Reptile 5:08
3. Fulfilth 4:40
4. Forgot The Sun 5:09
5. Run Dry, Drop Dead 6:46
6. Snap 2:17
7. Giant Collapse 4:02
8. Dead Shell 3:51
9. Won’t You Already Die 1:43
10. Outro 2:37
******************************
Total playing time: 40:44



[more=Extended info]From: Finland (Tampere)

Current line-up
Jukka Ruostila - Vocals
Jaakko Järvensivu - Guitar (Katra)
Mikko Lehtinen - Guitar
Roope Lehtinen - Bass
Vilho Rajala - Drums

[/more]

Register
(23) AHBAnep, andgrek28, Andrew, avather, chon, driver, Elfrey, Fetus_In_Fetu, garretje, green7272, gwynnbleid, in_black, metala, metaljan, nikfo, Old Vyaine, oldvarg, Pepper, Rodriga, sking, StoneTemple, VALERY, zhol,
Jan 19 2011, 03:14:29 Solar Powered People - Hibernation (2007)


*Artist: Solar Powered People
*Album: Hibernation
*Year: 2007
*Genre: Post-Rock/Shoegaze
*Country: United States
*Format: mp3@CBR320kbps
*Size: 62MB

Tracklist:
1. Dreams 1:14
2. They'll Never Say 4:04
3. Commercial Flight 3:55
4. Dilute 1:13
5. Awhile 4:27
6. Picture Fade 6:48
7. Turn Back 1:58
8. Start The Cycle 4:23
9. Exits Away 2:34
******************************
Total playing time: 30:36



[more=Extended info]From: United States (Central Valley, California)

Similar Artists: Fjord Rowboat, Highspire, 93 Million Miles From The Sun[/more]

Register
(8) 0x13, BioMax, bka, Emhyr var Emreis, eternald, kjemiker, Konst, KVRT,
Dec 18 2010, 08:20:58 Universum - Mortuss Machina (2010)
Melodies are better this go around but the "metalcore-ish" vocals kills it for me. I wish they would rid the clean vocals but it seems modern MDM has to incorporate that in....for whatever reason.
(1) ALBIGON,
Oct 23 2010, 05:52:27 Fjord Rowboat - Saved The Compliments For Morning (2007)


*Artist: Fjord Rowboat
*Album: Saved The Compliments For Morning
*Year: 2007
*Genre: Post-Rock/Shoegaze
*Country: Canada
*Format: mp3@VBR260kbps
*Size: 80MB

Tracklist:
1. Carried Away 3:51
2. Can't See The Sun 3:33
3. Shootin' The Breeze 5:24
4. Simply Stood 4:56
5. Paragon 4:31
6. Taking The Pass 3:34
7. Valuable Survive 4:24
8. Through The Morning Light 5:35
9. Turn The Mirror Around 4:06
10. Spin Cycle 2:50
******************************
Total playing time: 42:44

bandcamp.com


[more=Extended info]From: Toronto, Canada

Lineup:
Craig Gloster (vocals/keyboard)
Justin Grant (guitar)
Matt Collum (guitar)
Kevin McKay (bass)
Ian McKay (drums)

[/more]

Register
(4) 0x13, blackdeath, BRUTAL06, KVRT,
Aug 28 2010, 21:14:15 Oak Roots - The Branch Of Fate [demo] (2010)
VBR 218? 21.gif

http://www.freemetalalbums.com/

[more="IMG"][/more]


(1) Sleipnir,
Aug 27 2010, 20:32:09 Sonic Syndicate - We Rule The Night (2010)
Melodic Emocore! 13.gif 13.gif 13.gif

For fans of: Scary Kids Scaring Kids, Lovehatehero, My Chemical Romance, Fall Out Boy, Mindless Self Indulgence.

Sonic Syndicate fits perfectly with their sound and also the looks.

[more="See for yourself"]Sonic Syndicate



More gayness.





And you call Syndicate fucking metal?
[/more]
(10) -=Lion=-, aesteticvice, Blood13, darknessguide, Dismayer, Rajaat, squall8fr, Tular, vyrex, xenos,
Aug 23 2010, 03:53:51 Sonic Syndicate - We Rule The Night (2010)
Please label it right.

Melodic Emocore.

normal_Homerdisgust3.png
Aug 22 2010, 00:41:50 Vit - - (2010)


*Artist: Vit
*Album: -
*Year: 2010
*Genre: Experimental Black/Doom Metal
*Country: United States
*Format: mp3@CBR320kbps
*Size: 108MB

Tracklist:
1. The Ardour Of Saints 3:23
2. Swansylvania 6:58
3. Ascension Ritual 14:21
4. Perennial Collapse 9:39
5. Puritan Ossuary 5:36
6. - 9:08
******************************
Total playing time: 49:05



[more=Extended info]From: United States of America (Canal Winchester, Ohio)

Current line-up
Nate - Vocals
John - Drums
Zach - Guitar[/more]

Register
(37) 1nc0gn1t0, aorta2, BioMax, bka, Blackstorm, BRUTAL06, Buregon, drbutcher, Flipjack, Gal, garretje, GAS, GrindCrusher, Koscheyushka, kronos, Lcfiend, libertine, macchipazzi, meells, MMMMM, murian, Necrozzz, omidalfa, qpMM, Rattenkonig, satanscrotum, senecazm, ShmiT, simonitro, singrad, spiritualdecay666, Svarte666, The_Hound, VALERY, varlam4, vasiljev_sergej, Vincent,
Aug 17 2010, 21:19:14 Moon - Lucifer's Horns (2010)


*Artist: Moon
*Album: Lucifer's Horns
*Year: 2010
*Genre: Symphonic Black Metal
*Country: Poland
*Format: mp3@VBR211kbps
*Size: 64MB

Tracklist:
1. Summoning Of Natan 01:15
2. Lucifer's Horns 04:25
3. Torches Begin To Burn 03:44
4. Confined In Heaven 05:51
5. Zwiastowanie Ognia 04:31
6. The Book Of Fire 04:45
7. Night Of The Serpent 03:40
8. The Semen Of Ye Old One 04:55
9. Czarny Horyzont 04:10
10. Summoning Of Demons 03:09
11. Daemons Heart (Bonus Track) 01:59
******************************
Total playing time: 42:24



[more=Extended info]From: Poland (Olsztyn)

Current line-up
Cezar - Vocals, Guitar (1996- ) (Christ Agony, Union, Whispers (Pol), Nox Lunaris, Seth, Gilotyna)
Mscislaw - Bass, Vocal (2009- ) (Abusiveness, Deivos, Eclipse (Pol), Engraved (Pol) (Session), Profundis, Pripegal, Ulcer (Pol), Blaze of Perdition, Blasphemy Rites)
Wizun - Drums (2009- ) (Abusiveness, Deivos, Eclipse (Pol), Squash Bowels, Engraved (Pol) (Session), Christ Agony)
Gonthy - Lead Guitar (2009- ) (Abusiveness, Soul Snatcher, Twilight (Pol))

[/more]

Register

Register
(32) andrey010577, Angus3, artscald, AwaitingDawn, cadaveric666, Defunct, demonosz, DenRIIZ, dimmannius, Emhyr var Emreis, Extreme Brutal, GoldenDawn75, graham, lawronchik, lucifix, Ludwig Hagen, MMMMM, Mogozoz, Ondevron, Radek, Representer, Rodriga, satanist666, senecazm, shay666, spldead, Sycantrhope, Tino, Typhoid, VALERY, varlam4, vasiljev_sergej,
Aug 17 2010, 19:11:20 Vindicator - The Antique Witcheries (2010)


*Artist: Vindicator
*Album: The Antique Witcheries
*Year: 2010
*Genre: Old School Thrash Metal
*Country: United States
*Format: mp3@VBR219kbps
*Size: 62Mb

Tracklist:
1. Gates Of Inequity (Intro) 01:00
2. Beneath The Guillotine 04:05
3. Communal Decay 04:47
4. Quarry Rats 03:13
5. Fear Monger 02:50
6. The Antique Witcheries 03:04
7. Dead In The Water 04:46
8. Sewn To The Flesh 03:45
9. Raze The Dead 04:35
10. Pit Of The Shaggoths 01:44
11. Strange Aeons 05:13
******************************
Total playing time: 39:02



[more=Extended info]From: United States of America (South Amherst, Ohio)

Cd-Reviews:
metalassaultradio.com
braingell.com

Current line-up
Marshall Law - Vocals (Black Trinity (USA), Fallout)
Mick Mayer - Lead Guitar (Nuclear Decay)(2010-)
Vic Stown - Rhythm Guitar (Violent Night, Cryptic Stench (USA))
Kidd Chaos - Bass Guitar
Jesse Stown - Drums (Violent Night, Cryptic Stench (USA))

[/more]

Register
(36) agnosticj, AHBAnep, andreikun, Angus3, artscald, Barricade, Beazth, bifford, cadaveric666, Cristof25, DEATHnROLL, Dusk, emogirl, eyehategod, Fire_crow, Golfzilla, hallowed, Hater, killingod, KVRT, MeathookSeed, metala, metaljan, myrage, palankas, samokot, SAPOGi, satanas189, Scuns, terricide, Tino, Vombat, WhiTeSnaK, Wolftribes, ZA670, zaqxsw,
Aug 17 2010, 06:20:48 Darkness Inside - Страх (2010)
7. I Don't Wanna Be (Type Of Negative Cover) - 7. Type > O < Negative smile1.gif
Aug 17 2010, 06:10:36 Astriaal - Anatomy Of The Infinite (2010)


*Artist: Astriaal
*Album: Anatomy Of The Infinite
*Year: 2010
*Genre: Black Metal
*Country: Australia
*Format: mp3@VBR204kbps
*Size: 55MB

Tracklist:
1. Blessed Are The Dead 2:28
2. Visceral Incarnate 5:39
3. 'Neath The Bones Of Salvation 3:43
4. Ad Interim 1:29
5. The Scars Of Aberration 6:23
6. Foundations In Flesh 5:28
7. Relinquishment Of The Stars 3:25
8. For The Day Will Come 6:09
******************************
Total playing time: 34:44



[more=Extended info]From: Australia (Brisbane, Queensland)

Current line-up
Arzarkhel - Vocals (1998-) (Netherkin)
Baaruhl - Guitars
Helthor - Guitar (1998-) (Netherkin)
Gryphon - Drums (Carbon, Urgrund, session for Atomizer)


Live/Session Musician(s):
Cameron Grant - Bass (2010-) (Psycroptic)[/more]
Register
(41) 0x13, Blackstorm, cadaveric666, chu, Constantinus I, daemonn, Darth Alvasarra, Defunct, demether, demonosz, ENDSMOUTH, Eugenio, eyehategod, Felipe1986, Forrrrest, graham, imblackwizards, kim666, lawronchik, LiarOfAngmar, lucifix, MMMMM, Nerevar, nsmetalhead, qpMM, sandr666, satanas189, satanath, satanist666, Sathana, Scuns, senecazm, serg1349, ShadowHunter, ShmiT, smysl, toly1917, Tristram, VALERY, vasiljev_sergej, zargonath,
Aug 17 2010, 03:48:21 Amon Amarth - With Oden On Our Side (2006)
Amon Amarth - With Oden On Our Side

Exact Audio Copy [WAV Lossless ~ 1411.2 kbits/s ~ 337MB/Bonus Disc ~ 219MB]

[more="CD-Rip Log"]Exact Audio Copy V0.99 prebeta 5 from 4. May 2009

EAC extraction logfile from 16. August 2010, 18:49

Amon Amarth / With Oden On Our Side

Used drive : TSSTcorpDVD+-RW TS-L633B Adapter: 1 ID: 0

Read mode : Secure
Utilize accurate stream : Yes
Defeat audio cache : No
Make use of C2 pointers : No

Read offset correction : 6
Overread into Lead-In and Lead-Out : No
Fill up missing offset samples with silence : Yes
Delete leading and trailing silent blocks : No
Null samples used in CRC calculations : No
Used interface : Native Win32 interface for Win NT & 2000
Gap handling : Not detected, thus appended to previous track

Used output format : Internal WAV Routines
Sample format : 44.100 Hz; 16 Bit; Stereo


TOC of the extracted CD

Track | Start | Length | Start sector | End sector
---------------------------------------------------------
1 | 0:00.00 | 4:43.39 | 0 | 21263
2 | 4:43.39 | 4:32.52 | 21264 | 41715
3 | 9:16.16 | 3:04.05 | 41716 | 55520
4 | 12:20.21 | 4:40.37 | 55521 | 76557
5 | 17:00.58 | 6:02.28 | 76558 | 103735
6 | 23:03.11 | 4:34.43 | 103736 | 124328
7 | 27:37.54 | 3:49.58 | 124329 | 141561
8 | 31:27.37 | 4:17.25 | 141562 | 160861
9 | 35:44.62 | 6:38.40 | 160862 | 190751


Track 1

Filename C:\Users\MetalMike\Downloads\Valhall Awaits Me.wav

Peak level 100.0 %
Track quality 100.0 %
Copy CRC AD74D8C7
Accurately ripped (confidence 55) [4F5EDC02]
Copy OK

Track 2

Filename C:\Users\MetalMike\Downloads\Runes To My Memory.wav

Peak level 100.0 %
Track quality 100.0 %
Copy CRC B8BEF700
Accurately ripped (confidence 56) [DAA95077]
Copy OK

Track 3

Filename C:\Users\MetalMike\Downloads\Asator.wav

Peak level 100.0 %
Track quality 100.0 %
Copy CRC FC6AB3C1
Accurately ripped (confidence 56) [7E93125A]
Copy OK

Track 4

Filename C:\Users\MetalMike\Downloads\Hermod's Ride To Hel - Lokes Treachery Part 1.wav

Peak level 100.0 %
Track quality 100.0 %
Copy CRC 160223B3
Accurately ripped (confidence 56) [96A36FB7]
Copy OK

Track 5

Filename C:\Users\MetalMike\Downloads\Gods Of War Arise.wav

Peak level 100.0 %
Track quality 100.0 %
Copy CRC 57BCB29A
Accurately ripped (confidence 56) [A5199BA8]
Copy OK

Track 6

Filename C:\Users\MetalMike\Downloads\With Oden On Our Side.wav

Peak level 100.0 %
Track quality 100.0 %
Copy CRC 5B5EA744
Accurately ripped (confidence 56) [99096420]
Copy OK

Track 7

Filename C:\Users\MetalMike\Downloads\Cry Of The Black Birds.wav

Peak level 100.0 %
Track quality 99.9 %
Copy CRC 867441E5
Accurately ripped (confidence 56) [DAE199BC]
Copy OK

Track 8

Filename C:\Users\MetalMike\Downloads\Under The Northern Star.wav

Peak level 100.0 %
Track quality 99.9 %
Copy CRC 477179B8
Accurately ripped (confidence 56) [B34D5FB7]
Copy OK

Track 9

Filename C:\Users\MetalMike\Downloads\Prediction Of Warfare.wav

Peak level 100.0 %
Track quality 100.0 %
Copy CRC E9AB109F
Accurately ripped (confidence 56) [F60CE3D7]
Copy OK


All tracks accurately ripped

No errors occurred

End of status report
[/more]

[more="CD-Rip Bonus Disc Log"]Exact Audio Copy V0.99 prebeta 5 from 4. May 2009

EAC extraction logfile from 16. August 2010, 18:16

Amon Amarth / With Oden On Our Side (Bonus Disc)

Used drive : TSSTcorpDVD+-RW TS-L633B Adapter: 1 ID: 0

Read mode : Secure
Utilize accurate stream : Yes
Defeat audio cache : No
Make use of C2 pointers : No

Read offset correction : 6
Overread into Lead-In and Lead-Out : No
Fill up missing offset samples with silence : Yes
Delete leading and trailing silent blocks : No
Null samples used in CRC calculations : No
Used interface : Native Win32 interface for Win NT & 2000
Gap handling : Not detected, thus appended to previous track

Used output format : Internal WAV Routines
Sample format : 44.100 Hz; 16 Bit; Stereo


TOC of the extracted CD

Track | Start | Length | Start sector | End sector
---------------------------------------------------------
1 | 0:00.00 | 6:11.03 | 0 | 27827
2 | 6:11.03 | 4:55.54 | 27828 | 50006
3 | 11:06.57 | 4:32.48 | 50007 | 70454
4 | 15:39.30 | 4:49.00 | 70455 | 92129
5 | 20:28.30 | 4:03.59 | 92130 | 110413
6 | 24:32.14 | 3:34.04 | 110414 | 126467


Track 1

Filename C:\Users\MetalMike\Downloads\Where Silent Gods Stand Guard (Live At Wacken).wav

Peak level 99.7 %
Track quality 100.0 %
Copy CRC C35D44E0
Accurately ripped (confidence 30) [0A8414BE]
Copy OK

Track 2

Filename C:\Users\MetalMike\Downloads\Death In Fire (Live At Wacken).wav

Peak level 99.2 %
Track quality 100.0 %
Copy CRC C4A9C2D3
Accurately ripped (confidence 29) [86D1C49A]
Copy OK

Track 3

Filename C:\Users\MetalMike\Downloads\With Oden On Our Side (Demo).wav

Peak level 88.2 %
Track quality 100.0 %
Copy CRC A69857C4
Accurately ripped (confidence 29) [F5887C27]
Copy OK

Track 4

Filename C:\Users\MetalMike\Downloads\Hermond's Ride To Hel - Lokes Treachery Part 1 (Demo).wav

Peak level 97.0 %
Track quality 100.0 %
Copy CRC D4719149
Accurately ripped (confidence 29) [0E7CF791]
Copy OK

Track 5

Filename C:\Users\MetalMike\Downloads\Once Sent From The Golden Hall (Sunlight Studio - Spring 1997).wav

Peak level 95.5 %
Track quality 100.0 %
Copy CRC C8874333
Accurately ripped (confidence 29) [890466EC]
Copy OK

Track 6

Filename C:\Users\MetalMike\Downloads\Return Of The Gods (Sunlight Studio - Spring 1997).wav

Peak level 95.8 %
Track quality 100.0 %
Copy CRC 43F9FAE3
Accurately ripped (confidence 28) [B326DF53]
Copy OK


All tracks accurately ripped

No errors occurred

End of status report
[/more]

Register
(2) -=Lion=-, green7272,

28 Pages V   1 2 3 > » 
- Lo-Fi Version Support form
Copyrights and abuse reports form
Time is now: 19th September 2019 - 16:32:50