Welcome Guest ( Log In | Register )

История благодарностей участнику NachtWulf ::: Спасибо сказали: 13941 раз(а)
Дата поста: В теме: За сообщение: Спасибо сказали:
Aug 22 2020, 09:45:16 Slutet - Love & Beauty (2020)
mirror? pls
(2) infiltrator, ondrazevsi,
Jun 25 2020, 12:18:05 Aras (1) thenecromancer,
Jun 11 2020, 08:11:23 Aras (2) DarkHorde, thenecromancer,
Jun 8 2020, 10:33:35 Aras - Ascension Of Aras [single] (2020)


*Artist: Aras
*Album: Ascension Of Aras [single]
*Year: 2020
*Genre: Electro/Epic Ambient/Instrumental
*Country: Iran
*Format: mp3@CBR320kbps
*Size: 20MB

Tracklist:
01. Ascension of Aras 08:37
******************************
Total playing time: 8:37



[more=Technical info]
Input File: Aras - Ascension of Aras.mp3
Channels : 2
Sample Rate : 44100
Precision : 16-bit
Duration : 00:08:37.59 = 22825807 samples = 38819.4 CDDA sectors
File Size : 20.7M
Bit Rate : 320k
Sample Encoding: MPEG audio (layer I, II or III)
Comments :
Title=Ascension of Aras
Artist=Aras
Year=2020

[/more]

Register
(6) dermarsoran, goatkvlt, infiltrator, Lukittaz, Olethros, thenecromancer,
May 26 2020, 01:24:05 Sun Addicted Family - Solar Dreams (2020)


*Artist: Sun Addicted Family
*Album: Solar Dreams
*Year: 2020
*Genre: Atmospheric Black Metal
*Country: Iran
*Format: mp3@CBR320kbps
*Size: 89MB

Tracklist:
01. Solar
02. Signals
03. Orbit
04. Levitate
05. Luna
******************************
Total playing time: 38:57

[more=Technical info]
Input File: Sun Addicted Family - Solar Dreams - 01 Solar.mp3
Channels : 2
Sample Rate : 44100
Precision : 16-bit
Duration : 00:06:34.58 = 17400758 samples = 29593.1 CDDA sectors
File Size : 15.9M
Bit Rate : 321k
Sample Encoding: MPEG audio (layer I, II or III)
Comments :
Title=Solar
Artist=Sun Addicted Family
Album=Solar Dreams
Tracknumber=1
Year=2020

[/more]

Register
(29) 1968_janeart, AlexSmith, alikkon, cesar, deadwater, HMHamster, infiltrator, kim666, lestllk, Ludwig Hagen, Lunaris, metala, Moonlover, ondrazevsi, Ostinato, pahail, randumbum, robertho777, Rosen, senecazm, sergsazan, Shadechaser, SilentNidhogg, Strygaldwir, toly1917, VALERY, varlam4, vasiljev_sergej, wreak,
Jul 19 2018, 19:01:30 Sleep Dealer - Memories (2018)


*Artist: Sleep Dealer
*Album: Memories
*Year: 2018
*Genre: Post-Rock
*Country: Russian Federation
*Format: mp3@CBR320kbps
*Size: 109MB

Tracklist:
01. Breaking The Waves
02. Secret Fairway
03. Winter I
04. Winter II
05. Winter III
06. Black Desert
07. Into The Abyss
08. Memories
09. Sinner
10. Regrets
******************************
Total playing time: 48:09

[more=Technical info]
Input File: 05 - Winter III.mp3
Channels : 2
Sample Rate : 44100
Precision : 16-bit
Duration : 00:02:03.07 = 5427475 samples = 9230.4 CDDA sectors
File Size : 5.07M
Bit Rate : 329k
Sample Encoding: MPEG audio (layer I, II or III)
Comments :
Title=Winter III
Artist=Sleep Dealer
Album=Memories
Tracknumber=05/10
Year=2018
Genre=Post-Rock

[/more]

Register
(9) 6666666, BERZERK, Infidel, infiltrator, KVRT, nsmetalhead, Rodriga, SatanicPanzer, Un4given,
May 16 2018, 21:16:22 Witchbane - Incineration & Resurrection [demo] (2003)
Register
(3) boba, dermarsoran, satanist666,
May 14 2018, 17:25:21 Cruciamentum - Luctus Infinite [demo] (1993)
Register
(3) dermarsoran, satanist666, thenecromancer,
May 14 2018, 17:24:50 Embraced By Death - Demo Songs 1994-2004 [best of/compilation] (2005)
Register
(2) satanist666, Svafrlami,
May 14 2018, 17:24:06 Witchbane - Death, Darkness & Destruction [demo] (1997)
Register
(3) boba, satanist666, thenecromancer,
May 14 2018, 17:23:34 Altum Atramentum - Demo 2008 [demo] (2008)
Register
(3) LordHaart, morbidangelo, satanist666,
Mar 4 2018, 10:14:01 Bäume Statt Bürger - Demo 2006 [demo] (2006)
QUOTE(Winterhordes @ Feb 14 2018, 01:11:59) *
Could someone re upload this please?

Register
(3) kim666, satanist666, thenecromancer,
Jan 13 2018, 08:53:52 Halphas - Demo I [demo] (2015)


*Artist: Halphas
*Album: Demo I [demo]
*Year: 2015
*Genre: Black Metal
*Country: Germany
*Format: mp3@CBR128kbps
*Size: 14MB

Tracklist:
01. Night Servant
02. The Weak will Burn
03. Black Wolves Hunt
******************************
Total playing time: 15:36

Register
(10) 1968_janeart, artscald, Ildjarn, kim666, Rosen, satanist666, Skog1349, thenecromancer, varlam4, vasiljev_sergej,
Jan 8 2018, 15:47:38 Twilight - Valleys Of The Burning Visions [demo] (1993)
QUOTE(sumeriarising @ Jan 8 2018, 01:43:53) *
can someone please reup?

Register
(4) satanist666, sethurius, sumeriarising, Witchlord,
Dec 31 2017, 16:50:12 Dying Fullmoon - In Thy Dreams... [demo] (1994)
Register
(5) RUSP73, satanist666, Skog1349, thenecromancer, wendigo,
Dec 26 2017, 22:18:46 Aras - The Passion Of Aras [single] (2018)


*Artist: Aras
*Album: The Passion Of Aras [single]
*Year: 2018
*Genre: Ambient/Black Metal/Instrumental
*Country: Iran
*Format: mp3@CBR320kbps
*Size: 23MB

Tracklist:
01. The Passion of Aras 10:01
******************************
Total playing time: 10:01

[more=Technical info]
Input File: 01 - The Passion of Aras.mp3
Channels : 2
Sample Rate : 44100
Precision : 16-bit
Duration : 00:10:01.08 = 26507452 samples = 45080.7 CDDA sectors
File Size : 24.3M
Bit Rate : 324k
Sample Encoding: MPEG audio (layer I, II or III)
Comments :
Title=The Passion of Aras
Artist=Aras
Album=The Passion of Aras (Single)
Tracknumber=1
Year=2018
Genre=Ambient/Black Metal

[/more]

Register
(9) 1968_janeart, blacky66, princeshr, Rosen, satanist666, stone88, thenecromancer, varlam4, vasiljev_sergej,
Dec 20 2017, 11:02:42 Goatlust - A New Darkness (2005)
QUOTE(MortSathynr @ Dec 20 2017, 09:10:04) *
Please re-up!

pray.gif

Register
(3) dermarsoran, obituarydark, thenecromancer,
Dec 15 2017, 11:19:54 Morholt - L'Esprit De La Forêt [demo] (2007)
Register
(4) kim666, Olethros, thenecromancer, varlam4,
Dec 15 2017, 11:18:43 Thurisaz - Rehearsal [demo] (2001)
Register
(2) Skog1349, thenecromancer,
Dec 15 2017, 11:18:12 Nattkvad - Nattkvad [demo] (2006)
Register
(2) kim666, thenecromancer,
Dec 3 2017, 00:22:07 Creptum - ...Make This World Burn [demo] (2003)
QUOTE(Wail @ Nov 29 2017, 22:53:36) *
Mate this my 3rd time downloading this demo .unfortunately the same thing occured .the file corrupted. Sorry if I'm bothering u
Could you once again thanks

Register
(2) obituarydark, satanist666,
Nov 19 2017, 05:13:08 Octagon - Eretica [demo] (1999)
QUOTE(Dead666 @ Nov 18 2017, 00:12:52) *
Hello guy, This link does not work, could you send me another link ?

Register
(4) artscald, Dead666, dermarsoran, satanist666,
Nov 10 2017, 14:46:20 Khurdhost - Under The Oath Of The Old Oak [demo] (2005)
Register
(1) kim666,
Nov 10 2017, 14:46:00 Pluribus Impar - Üksinduse Kuningriiki... [demo] (2000)
Register
(2) Borderline1991, lawronchik,
Oct 12 2017, 00:29:00 Haimad - The Horned Moon [ep] (1997)
QUOTE(James817 @ Oct 10 2017, 20:09:19) *
Could someone reupload this black metal tape? Thanks in advance.

Register
(7) artscald, helvetesrike, James817, Ostinato, RunningWild_AT, satanist666, VECTOR,

61 Pages V   1 2 3 > » 
- Lo-Fi Version Support form
Copyrights and abuse reports form
Time is now: 26th September 2020 - 10:07:09