Welcome Guest ( Log In | Register )

История благодарностей участнику theblackpost ::: Спасибо сказали: 135 раз(а)
Дата поста: В теме: За сообщение: Спасибо сказали:
Apr 26 2019, 08:12:35 Ihsahn - Àmr (2018)
Мне вот по душе последний концерт Пугачевой. Может сплит с Ihsahn будет? Было бы здорово!
(1) BleedingSun,
Jan 15 2019, 17:39:04 Strange Bar - Sounds Of Restless Soul [ep] (2019)


*Artist: Strange Bar
*Album: Sounds Of Restless Soul [ep]
*Year: 2019
*Genre: Hard Rock
*Country: Russian Federation
*Format: mp3@CBR320kbps
*Size: 55MB

Tracklist:
And The Soul Flew to Heaven 04:53
Rock My World 04:03
Whiskey... And a Powerful Engine 03:54
Whore, Be Afraid of a Stranger 03:42
Sounds of Restless Soul 03:20
The Park 03:33
******************************
Total playing time: 23:25

[more=Extended info]This is an old American story of one guy ... Let everyone find his piece of restless soul in this music without words.
credits
released January 13, 2019

Line-up:

Andrey Polyakov - music, all guitars, bass

Special thanx:
Gennadiy Shershov - drums and support
Michael Korneev - mastering
Anastasiya Pankova - layout design[/more]

[more=Technical info]
Input File: Strange Bar - Sounds of Restless Soul - 02 Rock My World.mp3
Channels : 2
Sample Rate : 44100
Precision : 16-bit
Duration : 00:04:04.05 = 10762561 samples = 18303.7 CDDA sectors
File Size : 9.86M
Bit Rate : 323k
Sample Encoding: MPEG audio (layer I, II or III)
Comments :
Title=Rock My World
Artist=Strange Bar
Album=Sounds of Restless Soul
Tracknumber=2
Year=2019

[/more]

Register
(3) avkruchinin, Diflock, Olethros,
Dec 11 2018, 08:08:32 Mayhem - The Grand Declaration Of War (2000)
Закидывайте какахами, но альбом действительно лучший у них, имхо. И приятно послушать в переиздании.
(1) Ghostb,
Nov 29 2018, 13:39:25 Ethereal Shade - Veritas (2018)
Google Drive
Register
(1) vyacheslav,
Nov 27 2018, 17:19:09 Ethereal Shade - Veritas (2018)


*Artist: Ethereal Shade
*Album: Veritas
*Year: 2018
*Genre: Blackened Death Metal
*Country: Russian Federation
*Format: mp3@CBR320kbps
*Size: 97MB

Tracklist:
1.Inexpensive Pride (part I) 05:01
2.Brainwashing Machine (part II) 04:44
3.The Simulation Of Life (part III) 06:09
4.Veritas 06:30
5.The Chrysalis 04:30
6.Unfair Game 03:03
7.Another Color Of The Skies 05:09
8.Konung 04:52
******************************
Total playing time: 39:58



[more=Technical info]
Input File: 06. .mp3
Channels : 2
Sample Rate : 32000
Precision : 16-bit
Duration : 00:03:04.00 = 5887872 samples ~ 13799.7 CDDA sectors
File Size : 7.36M
Bit Rate : 320k
Sample Encoding: MPEG audio (layer I, II or III)
Comment : 'Tracknumber=6'

[/more]

Register
(15) artscald, Foneg, KVRT, metala, MMMMM, morbidangelo, oldvarg, Olethros, Ostinato, Rosen, satanist666, scorn33, Shadechaser, TeamatSE, VALERY,
Dec 9 2017, 12:40:02 Nocturnal Wrath - Creeping Chaos Of Azathoth [demo] (2004)
(2) kimkayoung, thenecromancer,
Dec 9 2017, 12:39:14 Nocturnal Wrath - Superiority (2006)


(1) kimkayoung,
Oct 27 2017, 21:15:37 Moonspell - 1755 (2017)
Register
(9) A.L.Rapsod, dagger666, dimitriusk, fabriziomagno, infiltrator, legion01, MAYH, MеtalHead, ProffesorVarg,
May 24 2017, 21:57:12 Misanthropic Breath - Burnout [single] (2017)


*Artist: Misanthropic Breath
*Album: Burnout [single]
*Year: 2017
*Genre: Experimental Doom/Death Metal
*Country: Russian Federation
*Format: mp3@CBR320kbps
*Size: 11MB

Tracklist:
01. Burnout 05:01
******************************
Total playing time: 5:01



[more=Technical info]
Input File: 01 - Burnout.mp3
Channels : 2
Sample Rate : 44100
Precision : 16-bit
Duration : 00:05:01.56 = 13298620 samples = 22616.7 CDDA sectors
File Size : 12.1M
Bit Rate : 320k
Sample Encoding: MPEG audio (layer I, II or III)
[/more]

Register
(3) artscald, Hell_Is_Here, Rosen,
Oct 29 2016, 14:28:10 Misanthropic Breath - Légeléoht (2016)
(free)
(1) aserius,
Oct 28 2016, 17:20:09 Misanthropic Breath - Légeléoht (2016)


*Artist: Misanthropic Breath
*Album: Légeléoht
*Year: 2016
*Genre: Industrial Black/Doom/Death Metal/Ambient
*Country: Russian Federation
*Format: mp3@CBR320kbps
*Size: 133MB

Tracklist:
1. Min Cyningdōm 03:51
2. Feorh Sie Lyge 04:15
3. Read þyrs 03:07
4. Lēogere 03:35
5. Lufian a Beag Neorxenawang 03:27
6. Min Cynecynn 05:15
7. Hearm 05:11
8. Feþe þurh Lic 04:49
9. Solitari Rynet 01:41
10. Ábéodan heaðufýr eorðe 01:31
11. Ond Limbo Ah Becuman Oð Me 05:15
12. Gesihð 03:56
13. Hwyrftweg 10:15
******************************
Total playing time: 56:08

[more=Extended info]Album сontains old english prose and poetry. Based on Michael Hirst's novel "Vikings". Also album contains voice insertions of Michael Hirst's "Vikings".

Staff:
Lustmord - all music, lyrics, vocals

Guest staff:
Shinfico - female voice on Lēogere and Lufian a Beag Neorxenawang
George Fisher - additional vocals on Lēogere and Feþe þurh Lic
credits
releases October 31, 2016

The more complicated a person is, the more interesting he is. But at the same time, the more dangerous he is.[/more]

[more=Technical info]
Input File: Misanthropic Breath - L?gel?oht - 04 L?ogere.mp3
Channels : 2
Sample Rate : 44100
Precision : 16-bit
Duration : 00:03:35.95 = 9523439 samples = 16196.3 CDDA sectors
File Size : 8.67M
Bit Rate : 321k
Sample Encoding: MPEG audio (layer I, II or III)
Comments :
Title=LД“ogere
Artist=Misanthropic Breath
Album=LГ©gelГ©oht
Tracknumber=4
Year=2016
Genre=Metal
Discnumber=6

[/more]

Register
(6) metala, Rosen, Sanc, VALERY, varg-38ru, varlam4,
Apr 10 2016, 11:47:19 Ihsahn - Arktis (2016)
Шикарный альбом! Ишан - король северного прогрессива. Ожидания оправданы даже более чем.
Great Ihsann is best!
(4) BleedingSun, DeRon, Ghostb, infiltrator,
Mar 20 2016, 13:40:23 Nocturnal Wrath - Misery [ep] (2008)


*Artist: Nocturnal Wrath
*Album: Misery [ep]
*Year: 2008
*Genre: Industrial Death Metal
*Country: Russian Federation
*Format: mp3@CBR320kbps
*Size: 72MB

Tracklist:
1. Get Down (on yo knees) 06:50
2. Slave 07:37
3. Eternal move 05:04
4. Outside Of It All (Astral Final version) 06:05
5. A 05:03
******************************
Total playing time: 30:39



[more=Technical info]
Input File: Nocturnal Wrath - Misery EP - 01 Get Down (on yo knees).mp3
Channels : 2
Sample Rate : 44100
Precision : 16-bit
Duration : 00:06:50.63 = 18108827 samples = 30797.3 CDDA sectors
File Size : 16.5M
Bit Rate : 322k
Sample Encoding: MPEG audio (layer I, II or III)
Comments :
Title=Get Down (on yo knees)
Artist=Nocturnal Wrath
Album=Misery EP
Tracknumber=1
Year=2008[/more]

Register
(6) Corpuscul, Hell_Is_Here, morbidangelo, Rosen, varlam4, wreak,
Mar 20 2016, 13:31:48 Nocturnal Wrath - Industrial Innosence [ep] (2007) (1) varg-38ru,
May 31 2015, 08:58:46 Marilyn Manson - The Pale Emperor (2015)
ЦИТАТА(Варонъ @ Mar 19 2015, 13:18:40) *
он сменил свои яркие боевые раскрасы на более строгие и выдержанные, а концепции которые Брайан проповедовал остались те же.


Абсолютно аналогичное мнение. Но не хватает скрима))
(1) Варонъ,
May 31 2015, 08:40:17 Paradise Lost - The Plague Within (2015)
Зеркало с бонусами (mp3 320) ya.disk
Register
(15) akym, AndreFrancis, annamai, corpsereviver, CRUNCH, durimaar, Radiosilence, randyhermit, ripper33, Saalingurth, savaman, vader69, vadik, WillyWonka, Язва,
Mar 17 2015, 18:00:04 Nightwish - Endless Forms Most Beautiful (2015)
Ну а я уж думал не будет обсуждений))) Ха) "Найтвиш уже не тот","Без Тарьи это не найтвиш, отписываюсь" всегда найдутся.
Флор Янсен умняха, отличный вокал ещё со времен After Forever. Альбом отличный, не похожий на другие. За что спасибо!
(1) Metropolis,
Jan 17 2015, 17:09:55 Misanthropic Breath - The Error (2008)


*Artist: Misanthropic Breath
*Album: The Error
*Year: 2008
*Genre: Industrial/Experimental Metal
*Country: Russian Federation
*Format: mp3@VBR258kbps
*Size: 77MB

Tracklist:
1. CountDown A.D. 02:45
2. The Error 03:04
3. Coal-black 04:48
4. 13 Parties of the Life 06:10
5. Clouds Of Dust 03:20
6. This Time 04:45
7. Fluid Life's Misery 03:39
8. A.D. Generation 05:48
9. Time Changes 01:53
10. Erupsed 09:45
******************************
Total playing time: 45:57

Register
(1) varlam4,
Jan 17 2015, 17:02:13 Misanthropic Breath - DevilDom (2006)


*Artist: Misanthropic Breath
*Album: DevilDom
*Year: 2006
*Genre: Industrial/Ambient/Experimental
*Country: Russian Federation
*Format: mp3@CBR224kbps
*Size: 70MB

Tracklist:
1. Statical Death 01:52
2. Is4ez@aet vse 04:04
3. Day Of Revenge 01:15
4. Too Lav Fru Yo Payn 03:41
5. Gypsy 02:20
6. Angel's Whore 04:34
7. Omenus 01:04
8. Indecency 02:47
9. Nontimed 02:49
10. Heresy (NIN casts) 03:52
11. Deoxyadenosine monophosphate 04:37
12. Exit is our way to the death 01:48
13. Never Say Die 06:16
14. Black Star (Carcass casts) 03:33
******************************
Total playing time: 44:32

Register
(1) varlam4,
Jan 17 2015, 16:54:15 Misanthropic Breath - Shadows Of Horror (2005)


*Artist: Misanthropic Breath
*Album: Shadows Of Horror
*Year: 2005
*Genre: Industrial/Ambient/Experimental
*Country: Russian Federation
*Format: mp3@CBR224kbps
*Size: 70MB

Tracklist:
1. All in The World 02:45
2. Seventh Heaven 01:13
3. Illusions Of Sadness 02:52
4. In Loneliness of Two Hearts 02:47
5. Whisper Of Nothing 05:30
6. As Pure Nightfall 02:15
7. Doomed... 01:55
8. The Same Darkened Time Of Night After Life 02:47
9. The ReCreation 02:42
10. Corridors Of Despair 03:32
11. Black Masses For Emperor 05:49
12. Infinity Of Emptiness 02:00
13. Burned Sun 01:19
14. The Grey Rain 00:31
15. As One On The Rope 04:21
16. Madness of this days 00:18
17. Illusions Are Broken 01:31
******************************
Total playing time: 44:07

Register
(1) varlam4,
Jan 11 2015, 14:20:38 Marduk - Frontschwein (2015)
Ничего альбом, но больно похож на это
(1) Луч,
Dec 20 2014, 21:43:13 Marilyn Manson - The Pale Emperor (2015)
Register


 ! 

[HIDE]
 
(5) avkruchinin, fabriziomagno, NachtWulf, SatanicPanzer, VALERY,
Dec 20 2014, 14:55:29 Marilyn Manson - The Pale Emperor (2015)


*Artist: Marilyn Manson
*Album: The Pale Emperor
*Year: 2015
*Genre: Alternative Rock
*Country: United States
*Format: mp3@CBR192kbps
*Size: 94MB

Tracklist:
01. Killing Strangers 5:36
02. Deep Six 5:02
03. Third Day Of A Seven Day Binge 4:26
04. The Mephistopheles Of Los Angeles 4:57
05. Warship My Wreck 5:57
06. Slave Only Dreams To Be King 5:20
07. The Devil Beneath My Feet 4:16
08. Birds Of Hell Awaiting 5:05
09. Cupid Carries A Gun 4:59
10. Odds Of Even
11. Day 3 4:11
12. Fated, Fateful, Fatal 4:41
13. Fall Of The House Of Death 4:30
******************************
Total playing time: 59:00

[more=Extended info]The Pale Emperor — девятый студийный альбом американской рок-группы Marilyn Manson. Продажи дисков должны начаться 19 января 2015 в Великобритании и 20 января 2015 в США. Альбом состоит из 10 треков и будет выпущен в стандартной, ограниченной и делюкс-версии на компакт-диске и на грампластинке. Альбом был слит в сеть 15 декабря 2014 года, за месяц до релиза.

Мэрилин Мэнсон (Marilyn Manson) — вокал, текст, гитара, клавишные, создание музыкальных композиций, продюсирование
Твигги Рамирез (Twiggy Ramirez) — гитара, бас-гитара, клавишные, бэк-вокал, создание музыкальных композиций
Тайлер Бейтс (Tyler Bates) — гитара, клавишные, продюсирование
Гил Шэрон (Gil Sharone) — ударные
Шутер Дженнингс (Shooter Jennings) — гитара[/more]

Register
(39) 380672702486, avkruchinin, Battaleon, BeerBear, bka, Chasm, current, Darkwood, DenisKov, Devildance, djsema4, durimaar, Filther, Infidel, Jurmagund, Kaphiel, KATAKLYSM, kig, Lcfiend, leviathanticus, Lord Noctua, Lord_Djaspam, mdmoroz, Metropolis, neoatheist, Old Vyaine, Orgasmik, paganheart, Phlebotomized, princeshr, rabindranad, Razorbladeswaltz, ShmiT, v.v.m, varnack, xska, ZarK, ZloY_GreY, zolotoiskatel,
Nov 16 2014, 11:22:59 Bloodbath - Grand Morbid Funeral (2014)
Отличный вокал! Nick Holmes на уровне! Да и альбом на уровне.. А вам скучным по каннибалам только ходить)))
(1) Metalass,
Feb 4 2013, 17:16:34 Nocturnal Wrath - Superiority (2006)
(1) necroscum,

2 Pages V   1 2 >
- Lo-Fi Version Support form
Copyrights and abuse reports form
Time is now: 24th February 2020 - 12:49:47