Welcome Guest ( Log In | Register )

История благодарностей участнику GloomyDeath ::: Спасибо сказали: 5591 раз(а)
Дата поста: В теме: За сообщение: Спасибо сказали:
Mar 2 2019, 18:39:17 Lords Of Chaos - Властелины Хаоса [Художественный Фильм] (2018)


*Title: Lords Of Chaos - Властелины Хаоса
*Type: Художественный Фильм
*Year: 2018
*Genre: Драма / Биография / Криминал / Музыка
*Country: Sweden / England

*Режиссер: Йонас Окерлунд
*Сценарий: Деннис Магнуссон, Йонас Окерлунд, Michael Moynihan, ...
*Продюсер: Джек Арбутнотт, Джим Чарнеки, Квеси Диксон, ...
*Оператор: Пер М. Экберг
*Композитор: Сигюр Роус
*Художник: Эмма Фэйрли, Чаба Лоди, Сьюзи Култхард, ...
*Монтаж: Рикард Крантц
*В ролях: Рори Калкин, Эмори Коэн, Джек Килмер, Скай Феррейра, Вальтер Скарсгард, Энтони Де Ла Торре, Джонатан Барнвелл, Сэм Коулман, Уилсон Оксенкнехт, Люсиан Чарльз Колье

*Audio: ac3@192kbps
*Video: xvid@1453kbps
*Resolution: 720x384
*Size: 1360MB
******************************
*Length: 01:58:11



Register
(4) nikolay81, Ostinato, recber, Rosen,
Feb 10 2019, 20:40:18 Ecliptica - Resiliens [ep] (2010)


*Artist: Ecliptica
*Album: Resiliens [ep]
*Year: 2010
*Genre: Heavy/Power Metal
*Country: Uruguay
*Format: mp3@CBR320kbps
*Size: 50MB

Tracklist:
1. Ab Initio Ad Eternum
2. Abismo
3. Enfrentando El Destino
4. Reflexion
5. Mas Alla De Los Sueños
6. Oscura Agonía
******************************
Total playing time: 22:45

[more=Technical info]
Input File: 03 Enfrentando El Destino.mp3
Channels : 2
Sample Rate : 44100
Precision : 16-bit
Duration : 00:04:42.63 = 12463807 samples = 21197 CDDA sectors
File Size : 11.3M
Bit Rate : 320k
Sample Encoding: MPEG audio (layer I, II or III)
Comments :
Title=Enfrentando El Destino
Artist=Ecliptica
Album=Resiliens EP
Tracknumber=3
Year=2010
Genre=Heavy Metal

[/more]

Register
(2) gwar, Rosen,
Jan 20 2019, 09:34:30 Rockbitch - Bitchcraft [concert] (1997)


*Performer: Rockbitch
*Title: Bitchcraft
*Type: Concert
*Year: 1997
*Genre: Avant-Garde Metal/Heavy Metal/Rock
*Country: United Kingdom

*Audio: mp3@128kbps
*Video: divx@1157kbps
*Resolution: 592x464
*Size: 702MB
******************************
*Length: 01:15:53

[more=Extended info]1-Introduction
2-Cindy
3-Kill
4-The Gloden Condom Award
5-Exploring Amsterdam
6-Lucifer
7-Bitter Rose
8-Fist Fuck (Part I)
9-France
10-Whore Of Statan
11-Kalima
12-Up & Down
13-Fist Fuck (Part II)
14-The Sex MAniac Ball
15-Sex Slut Interlude
16-Pissdrippingfurburger


http://www.rockbitch.com[/more]

Register
(4) gwar, morbidangelo, Rosen, ZarK,
Jan 20 2019, 08:28:44 Águila Negra - Nativo (2016)


*Artist: Águila Negra
*Album: Nativo
*Year: 2016
*Genre: Heavy/Power Metal
*Country: Chile
*Format: mp3@CBR320kbps
*Size: 109MB

Tracklist:
1. La Última Frontera
2. Águila Negra
3. Hijos De La Tierra
4. Líbranos Del Mal
5. Voces Del Pasado
6. Ellos Sangran (Labali)
7. Huella Y Pasado
8. In Nomine
9. Nativo
******************************
Total playing time: 51:49

[more=Technical info]
Input File: 03. Hijos de la Tierra.mp3
Channels : 2
Sample Rate : 44100
Precision : 16-bit
Duration : 00:07:14.70 = 19170446 samples = 32602.8 CDDA sectors
File Size : 17.5M
Bit Rate : 322k
Sample Encoding: MPEG audio (layer I, II or III)
Comments :
Title=Hijos de la Tierra
Artist=Águila Negra
Album=Nativo
Tracknumber=3
Year=2018
Discnumber=1

[/more]

Register
(7) artscald, aviacademy, Herrant, Olethros, pichileon, Rosen, varlam4,
Mar 8 2018, 05:56:40 Judas Priest - Firepower (2018)
люди, внатуре крутой альбом, из первых нот взял,

крутезна.....
(3) DMIYUR, infiltrator, smes,
Feb 1 2018, 10:52:50 GerbeЯ & Vaginal Cadaver - Split [split] (2017)


*Artist: GerbeЯ & Vaginal Cadaver
*Album: Split [split]
*Year: 2017
*Genre: Goregrind | Porngrind
*Country: Russian Federation | Germany
*Format: mp3@CBR320kbps
*Size: 42MB

Tracklist:
GerbeЯ
1. Pus Serum
2. Vein Travel
3. Acariasis
4. Supermassive Gangrene
5. Oedema
6. Exsudo Purulentum
7. DxAx

Vaginal Cadaver
8. Exploding Cumshot
9. Tasty Mayonaise
10. Anal Empire
11. Your Stomach Is My Semen Reservoir
12. Period Blood Girl
13. Rainwater Enema
14. Share My Cock With Your Friend
******************************
Total playing time: 18:51

[more=Technical info]
Input File: 1. Pus Serum.mp3
Channels : 2
Sample Rate : 44100
Precision : 16-bit
Duration : 00:00:34.51 = 1521891 samples = 2588.25 CDDA sectors
File Size : 1.38M
Bit Rate : 321k
Sample Encoding: MPEG audio (layer I, II or III)
Comments :
Title=Pus Serum
Artist=GerbeГџ
Album=Split
Tracknumber=1
Year=2017
Genre=Goregrind

[/more]

Register
(3) morbidangelo, Rosen, varlam4,
Feb 1 2018, 10:37:11 Nightbreed - Beyond Inferno (2018)


*Artist: Nightbreed
*Album: Beyond Inferno
*Year: 2018
*Genre: Old School Thrash Metal
*Country: Greece
*Format: mp3@CBR128kbps
*Size: 34MB

Tracklist:
1. Chained To The Nightmare
2. Beyond Inferno
3. Psychotic Crime
4. Graves Below
5. Ripped By Chains
6. Coven Of The Soulless
7. Infinite Space... Infinite Terror
8. Prowling Evil
9. The Lynching
10. Human Sacrifice
******************************
Total playing time: 36:25



Register
(4) metala, poeira, sta1081, Visitor,
Feb 1 2018, 10:33:02 Artificial Construct - Lurker (2018)


*Artist: Artificial Construct
*Album: Lurker
*Year: 2018
*Genre: Progressive Metal/Djent/Experimental
*Country: United States
*Format: mp3@CBR320kbps
*Size: 72MB

Tracklist:
1. Lurker
2. Acclaim
3. The Sight, The Sound (Feat. Andrew Zink)
4. Glass
5. There Is No Other Option (Feat. Logan Adams)
6. Shadow King
7. Wither; Wilt (Feat. Wilt & Andrew Patterson)
8. The Earth And I
******************************
Total playing time: 34:16

[more=Technical info]
Input File: 5 There Is No Other Option (feat. Logan Adams).mp3
Channels : 2
Sample Rate : 44100
Precision : 16-bit
Duration : 00:03:54.94 = 10361030 samples = 17620.8 CDDA sectors
File Size : 9.52M
Bit Rate : 324k
Sample Encoding: MPEG audio (layer I, II or III)
Comments :
Title=There Is No Other Option (feat. Logan Adams)
Artist=Artificial Construct
Album=Lurker
Tracknumber=5/8
Year=2018
Genre=Progressive Metal
Discnumber=1/1

[/more]

Register
(9) andraks, artscald, infiltrator, maochen, metala, Rosen, sadmannn, SymbyoticEntity, varlam4,
Feb 1 2018, 09:28:32 W.A.S.P. - ReIdolized (The Soundtrack To The Crimson Idol) (2018)


*Artist: W.A.S.P.
*Album: ReIdolized (The Soundtrack To The Crimson Idol)
*Year: 2018
*Genre: Heavy Metal
*Country: United States
*Format: mp3@CBR320kbps
*Size: 183MB

Tracklist:
CD 1:
1. The Titanic Overture
2. The Invisible Boy
3. Arena Of Pleasure
4. Chainsaw Charlie (Murders In The New Morgue)
5. The Gypsy Meets The Boy
6. Michael’s Song
7. Miss You
8. Doctor Rockter

CD 2:
1. I Am One
2. The Idol
3. Hold On To My Heart
4. Hey Mama
5. The Lost Boy
6. The Peace
7. Show Time
8. The Great Misconceptions Of Me
******************************
Total playing time: 1:20:09

[more=Technical info]
Input File: 01 - The Titanic Overture.mp3
Channels : 2
Sample Rate : 44100
Precision : 16-bit
Duration : 00:03:19.52 = 8798788 samples = 14963.9 CDDA sectors
File Size : 8.57M
Bit Rate : 343k
Sample Encoding: MPEG audio (layer I, II or III)
Comments :
Title=The Titanic Overture
Artist=W.A.S.P.
Album=Re-Idolized (The Soundtrack To The Crimson Idol)
Tracknumber=01
Year=2018
Genre=Heavy Metal

[/more]

Register
(10) Diflock, Golodomor, infozahist, Lord Noctua, Mplast, MеtalHead, Old Vyaine, recber, syntexid, TeamatSE,
Oct 24 2017, 21:05:04 Astral Space - Phase 04 (2017)


*Artist: Astral Space
*Album: Phase 04
*Year: 2017
*Genre: Progressive Death Metal/Deathcore
*Country: United States
*Format: mp3@CBR320kbps
*Size: 60MB

Tracklist:
1. Intro (We Own The Night)
2. United In Blood
3. Stepping Stones To Damnation
4. On The Event Horizon (Sample)
5. Evolution Fallacy
6. Interlude (Isolation)
7. Alive?
8. Cursed
9. Possession Session
10. Playing With Fire
******************************
Total playing time: 25:18



[more=Technical info]
Input File: 04 - On the Event Horizon (Sample).mp3
Channels : 2
Sample Rate : 44100
Precision : 16-bit
Duration : 00:00:33.73 = 1487493 samples = 2529.75 CDDA sectors
File Size : 1.48M
Bit Rate : 351k
Sample Encoding: MPEG audio (layer I, II or III)
Comments :
Title=On the Event Horizon (Sample)
Artist=Astral Space
Album=Phase 04
Tracknumber=4/10
Year=2017
Genre=Metal

[/more]

Register
(4) infozahist, kimkayoung, Rosen, SymbyoticEntity,
Mar 31 2017, 14:22:27 Antica Arcana - Awaken (2012)


*Artist: Antica Arcana
*Album: Awaken
*Year: 2012
*Genre: Experimental Black Metal
*Country: United States
*Format: mp3@CBR192kbps
*Size: 52MB

Tracklist:
1. Antica Arcana 04:34
2. Hibernation 06:18
3. A Social Inquiry 02:06
4. Lost Dayze 04:03
5. Vacillation Forest 05:02
6. Revere and Exaltation to the Dawn 01:05
7. Awake 04:59
8. In Paranoiac Silence 05:11
9. Within an Ageless Existence 04:46
******************************
Total playing time: 38:04

Register
(7) Buregon, metala, Rosen, stub888, VALERY, yuratroll, Спектр,
Feb 25 2017, 11:59:36 Suicide Silence - Suicide Silence (2017)


*Artist: Suicide Silence
*Album: Suicide Silence
*Year: 2017
*Genre: Deathcore/Nu-Metal
*Country: United States
*Format: mp3@CBR320kbps
*Size: 101MB

Tracklist:
01. Doris
02. Silence
03. Listen
04. Dying In A Red Room
05. Hold Me Up, Hold Me Down
06. Run
07. The Zero
08. Conformity
09. Don't Be Careful You Might Hurt Yourself
******************************
Total playing time: 44:11

[more=Technical info]
Input File: 05. Hold Me up, Hold Me Down.mp3
Channels : 2
Sample Rate : 44100
Precision : 16-bit
Duration : 00:05:18.13 = 14029357 samples = 23859.5 CDDA sectors
File Size : 12.7M
Bit Rate : 320k
Sample Encoding: MPEG audio (layer I, II or III)
Comments :
Title=Hold Me up, Hold Me Down
Artist=Suicide Silence
Album=Suicide Silence
Tracknumber=5/9
Year=2017
Discnumber=1/1

[/more]

Register
(14) 6666666, BRUTAL06, DenisKov, LEGION69, leviathanticus, Metalass, Ostinato, princeshr, RedSparrow, Rosen, SymbyoticEntity, varlam4, zerger, Смусмумбрик,
Dec 24 2016, 20:52:41 Mayhem - De Mysteriis Dom Sathanas Alive [concert] (2016)


*Performer: Mayhem
*Title: De Mysteriis Dom Sathanas Alive
*Type: Concert
*Year: 2016
*Genre: Black Metal
*Country: Norway

*Audio: aac@125kbps
*Video: h.264@421kbps
*Resolution: 854x470
*Size: 232MB
******************************
*Length: 00:59:22

Register
(20) BeasT_Umulamahri, Bergthron, DarkHorde, deadterror, heinz88, killingod, morbidangelo, nikolay81, Panxoth, Pinhead666, princeshr, recber, Rosen, RUSP73, Scuns, sperminator, uk82, vov7609, wtk.412, Смусмумбрик,
Jul 16 2016, 19:37:33 Remembrance - Fall, Obsidian Night (2010)
Register
(1) marilin,
May 31 2016, 19:00:39 Dark Funeral - Unchain My Soul [studio clip] (2016)


*Performer: Dark Funeral
*Title: Unchain My Soul
*Type: Studio Clip
*Album: Where Shadows Forever Reign
*Year: 2016
*Genre: Black Metal
*Country: Sweden

*Audio: mp4a@125kbps
*Video: h.264@1600kbps
*Resolution: 1280x720
*Size: 62MB
******************************
*Length: 00:05:19

[more=Extended info][youtube]Qmk_PXtem4E[/youtube][/more]

Register
(17) -=Lion=-, Fess, heinz88, infiltrator, Kaiser, killingod, morbidangelo, Necromayhem, Pinhead666, Rosen, RUSP73, Saalingurth, satanist666, Scuns, tranquillit, VALERY, vo140182fav,
Sep 11 2015, 18:22:15 Slayer - Repentless [studio clip] (2015)


*Performer: Slayer
*Title: Repentless
*Type: Studio Clip
*Album: Repentless
*Year: 2015
*Genre: Thrash Metal
*Country: United States

*Audio: aac@191kbps
*Video: h.264@2500kbps
*Resolution: 1280x720
*Size: 89MB
******************************
*Length: 00:04:36

Register

Register
(17) -=Lion=-, AlexStorm, BlindAvatar, Diflock, fticek, gwar, infiltrator, killingod, metalboll, nekrokilldozer, neoatheist, Rosen, Scuns, SyncestrA, wtk.412, xxdarkmanxx, ZarK,
Mar 1 2015, 10:22:30 Rahvira - Իմ Սիրտը Լեռներում [studio video] (2015)


*Performer: Rahvira
*Title: Իմ Սիրտը Լեռներում
*Type: Studio Video
*Year: 2015
*Genre: Pagan Black Metal
*Country: Armenia

*Audio: aac@252kbps
*Video: h.264@4900kbps
*Resolution: 1920x1080
*Size: 192MB
******************************
*Length: 00:05:07

[more=Extended info][youtube]http://youtu.be/B6pzldf9aAs[/youtube]
[youtube]http://youtu.be/OOyhx_9Qd-w[/youtube][/more]

Register
(5) gwar, neoatheist, Rosen, Saalingurth, wreak,
Jan 10 2015, 15:56:29 Arbor Mortis - Prophet (2015)
ЦИТАТА(DarkHorde @ Jan 10 2015, 12:36:07) *
Ошибка в ссылке, автора поста просьба поправить.
(При заливке на медийный огонь желательно не допускать пробелов в названии архива, лучше их заменять символами, например _ или - )

исправил smile3.gif
(1) DarkHorde,
Jan 9 2015, 18:18:32 Arbor Mortis - Prophet (2015)


*Artist: Arbor Mortis
*Album: Prophet
*Year: 2015
*Genre: Atmospheric Black Metal
*Country: Armenia
*Format: mp3@CBR320kbps
*Size: 79MB

Tracklist:
1. The Black Light Of The Sun
2. Till Jeg Ikke Har Dшd
3. Ov Forgotten Times
4. Spoken Word
5. In The Eyes Of Broken Man
6. Asylum
7. Ego Sum Deus
8. Vakhanalia
9. Somewhere In Hell
******************************
Total playing time: 41:16




[more=Technical info]
Input File: 1. The Black Light of The Sun.mp3
Channels : 2
Sample Rate : 44100
Precision : 16-bit
Duration : 00:02:09.94 = 5730178 samples = 9745.2 CDDA sectors
File Size : 5.39M
Bit Rate : 332k
Sample Encoding: MPEG audio (layer I, II or III)
Comments :
Title=The Black Light of The Sun
Artist=Arbor Mortis
Album=Prophet
Tracknumber=1
Year=2015
Genre=Black metal

[/more]

Register
(19) 1968_janeart, Blut aus Nord, DarkHorde, Deathbringer, Happy666Satan, kim666, KorvinTru, MMMMM, morbidangelo, NachtWulf, oldvarg, randumbum, Rosen, satanist666, tont, VALERY, varlam4, vasiljev_sergej, Victim of fate,
Dec 28 2014, 21:35:36 Anger On Anger - Beyond A Man (1996)
мощность как у спартанцев THIS_IS_SPARTA_v2_0_by_DoooM.gif
(1) Anger,
Dec 26 2014, 09:48:34 Circle Of Beings - Circle Of Beings (2014)


*Artist: Circle Of Beings
*Album: Circle Of Beings
*Year: 2014
*Genre: Raw Black Metal
*Country: United States
*Format: mp3@CBR128kbps
*Size: 42MB

Tracklist:
1. Intro
2. Ceugant
3. A Celestial Fire
4. Abred
5. The Watchful Marrow
6. Newgrange
7. Gweynfyd
8. The Sea Of Consciousness
9. The Crystal Caves
10. Daghdha
11. Ashes In The Wind
******************************
Total playing time: 45:34

Register
(3) goregrindexx, tont, vasiljev_sergej,
Dec 26 2014, 09:12:24 Astral Odyssey - Into The Eternal Realm Of Night [demo] (2014)


*Artist: Astral Odyssey
*Album: Into The Eternal Realm Of Night [demo]
*Year: 2014
*Genre: Atmospheric Black/Instrumental
*Country: United States
*Format: mp3@CBR320kbps
*Size: 26MB

Tracklist:
1. Celestial Lights
2. Into The Eternal Realm Of Night
3. The Forgotten Realm
******************************
Total playing time: 11:23




[more=Technical info]
Input File: 01 - Celestial Lights.mp3
Channels : 2
Sample Rate : 44100
Precision : 16-bit
Duration : 00:02:36.33 = 6894329 samples = 11725 CDDA sectors
File Size : 6.25M
Bit Rate : 320k
Sample Encoding: MPEG audio (layer I, II or III)
Comments :
Title=Celestial Lights
Artist=Astral Odyssey
Album=Into The Eternal Realm Of Night (Demo)
Tracknumber=01
Year=2014

[/more]

Register
(10) 0x13, Darkthronefoad, randumbum, Rosen, stub888, tont, varlam4, wreak, zargonath, Госпромнадзор,
Dec 25 2014, 14:21:02 Death Omang - Garehon [demo] (2014)


*Artist: Death Omang
*Album: Garehon [demo]
*Year: 2014
*Genre: Death Metal/Grindcore
*Country: Indonesia
*Format: mp3@CBR320kbps
*Size: 14MB

Tracklist:
1. 2x3x3x2
2. Aox-Aox Dulanx
3. Kalindih/SolihinxFuckers
bonus track:
4. Victim Of The Eagle
******************************
Total playing time: 5:22

[more=Technical info]
Input File: 01 - 2x3x3x2.mp3
Channels : 2
Sample Rate : 44100
Precision : 16-bit
Duration : 00:02:06.16 = 5563612 samples = 9461.93 CDDA sectors
File Size : 5.05M
Bit Rate : 320k
Sample Encoding: MPEG audio (layer I, II or III)
Comments :
Title=2x3x3x2
Artist=Death Omang
Album=Garehon (Demo 2014)
Tracknumber=1
Year=2014
Genre=Tech Death Grind

[/more]

Register
(5) morbidangelo, Rosen, varlam4, wreak, Герб,
Dec 18 2014, 14:13:59 Occulus - Salvation [ep] (2014)


*Artist: Occulus
*Album: Salvation [ep]
*Year: 2014
*Genre: Deathcore/Hardcore
*Country: United Kingdom
*Format: mp3@CBR128kbps
*Size: 19MB

Tracklist:
1. Let's Get Violent
2. Burt Fuckin' Reynolds
3. Counterpart
4. Wartorn
5. Salvation
******************************
Total playing time: 19:08

Register
(1) Rosen,
Dec 1 2014, 12:36:47 Rahvira - Կար Ժամանակ... (Once Upon A Time... ) [single] (2014)
neoatheist эта песня про наших "друзей" которые больше не с нами, (предали нам,........., в разные времена)
и по лирике и по музыкальной конструкцие она отличается с остальных. поэтому мы решили издавать как сингл
а в предыдущем сингле я с вокалистом Рахвира поём дует. в жёстком bлеке... и песенка одна, ну и получился тоже сингл
(2) infiltrator, neoatheist,

36 Pages V   1 2 3 > » 
- Lo-Fi Version Support form
Copyrights and abuse reports form
Time is now: 14th October 2019 - 12:53:13