Welcome Guest ( Log In | Register )

История благодарностей участнику grobator ::: Спасибо сказали: 2396 раз(а)
Дата поста: В теме: За сообщение: Спасибо сказали:
Jan 9 2021, 06:52:48 Alta Reign - Mother's Day (2021)
[youtube]PGMMO3D8zt8[/youtube]
(2) ace73pq, infiltrator,
Dec 6 2020, 11:39:49 Release The Blackness - Tragedy (2020)
[youtube]V0rwCjgnaSo[/youtube]
(2) Foneg, realexxx75,
Sep 13 2020, 09:12:20 Nebula Orionis - To Keep The Flame Burning (2019)


*Artist: Nebula Orionis
*Album: To Keep The Flame Burning
*Year: 2019
*Genre: Atmospheric/Post-Black Metal/Ambient
*Country: Russian Federation
*Format: flac
*Size: 193MB

Tracklist:
1. Arrival 02:32
2. To Keep the Flame Burning 06:47
3. Brave Conquerors 03:14
4. The Core 04:29
5. Wayfarers 08:50
6. Transmission 04:35
******************************
Total playing time: 30:27



Register
(10) Boozer, ctulhudagon, Femto, infiltrator, kim666, Mencae77, Olethros, Rosen, vasiljev_sergej, wreak,
Jan 1 2020, 12:47:25 Infectious Disease - Savagery [ep] (2019)


*Artist: Infectious Disease
*Album: Savagery [ep]
*Year: 2019
*Genre: Brutal Death Metal
*Country: Indonesia
*Format: mp3@CBR128kbps
*Size: 13MB

Tracklist:
1.Death Without Witnesses 02:36
2.Savagery 03:54
3.Exceptional Algorithmic Complexity 04:04
4.Increasing Inflammatory Disease 03:23
******************************
Total playing time: 13:57



[more=Technical info]
Input File: 02. Savagery.mp3
Channels : 2
Sample Rate : 44100
Precision : 16-bit
Duration : 00:03:54.58 = 10345110 samples = 17593.7 CDDA sectors
File Size : 4.57M
Bit Rate : 156k
Sample Encoding: MPEG audio (layer I, II or III)
Comments :
Title=Savagery
Artist=Infectious Disease
Album=Savagery
Tracknumber=02/04
Year=2019
Genre=Brutal Death Metal

[/more]

Register
(6) Brutello, GorAtheist, lordsloth, morbidangelo, Olethros, Rosen,
Aug 24 2019, 06:16:06 Nekkrofuneral - Pillars Of Hellish Fire [ep] (2019)


*Artist: Nekkrofuneral
*Album: Pillars Of Hellish Fire [ep]
*Year: 2019
*Genre: Blackened Death Metal
*Country: Brazil
*Format: mp3@CBR320kbps
*Size: 33MB

Tracklist:
1.Shall Lucifer Ascend (IX) 03:07
2.Alpha 001 03:09
3.Pillars Of Hellish Fire 02:40
4.The Demise Of A False Messiah 02:34
5.Omega (XVIII) 01:55
******************************
Total playing time: 13:25



[more=Technical info]
Input File: 01. Shall Lucifer Ascend (IX).mp3
Channels : 2
Sample Rate : 44100
Precision : 16-bit
Duration : 00:03:07.91 = 8286787 samples = 14093.2 CDDA sectors
File Size : 7.61M
Bit Rate : 324k
Sample Encoding: MPEG audio (layer I, II or III)
Comments :
Title=Shall Lucifer Ascend (IX)
Artist=Nekkrofuneral
Album=Pillars Of Hellish Fire
Tracknumber=01/05
Year=2019
Genre=Death Metal

[/more]

Register
(10) artscald, fallen, FlammenTod666, infiltrator, Olethros, Rosen, vasiljev_sergej, vyacheslav, wgs73, wreak,
Aug 3 2019, 07:57:59 Consummation - The Fires Of Calcination [compilation] (2019)
Essentially, this is a re-release of the 2012 S/T demo and the 2017 "Ritual Severance" EP in a single collection
(1) Occultas,
Apr 13 2019, 05:22:50 Ruined Mind - At Heart (2019)


*Artist: Ruined Mind
*Album: At Heart
*Year: 2019
*Genre: Atmospheric/Post-Black Metal
*Country: Russian Federation
*Format: mp3@CBR320kbps
*Size: 104MB

Tracklist:
1. Born in Sin 06:04
2. Religion of Lies 05:26
3. God Does Not Hear You 05:42
4. At Herat 10:09
5. There's Nothing Ahea 05:06
6. Rotting World (Inside) 07:55
7. We're All Going to Hell 05:17
******************************
Total playing time: 45:39



[more=Technical info]
Input File: 02. Religion Of Lies.mp3
Channels : 2
Sample Rate : 44100
Precision : 16-bit
Duration : 00:05:26.08 = 14380172 samples = 24456.1 CDDA sectors
File Size : 13.2M
Bit Rate : 324k
Sample Encoding: MPEG audio (layer I, II or III)
Comments :
Title=Religion Of Lies
Artist=Ruined Mind
Album=At Heart
Tracknumber=02/07
Year=2019
Genre=Atmospheric /Post-Black

[/more]

Register
(15) 0x13, blacky66, infiltrator, kim666, Maximvs, Olethros, Orgasmik, PierreDL, robertho777, Rosen, Shadechaser, tOmV, VALERY, varlam4, vasiljev_sergej,
Mar 17 2019, 06:15:26 Heinous - Apprehended Dead [ep] (2019)


*Artist: Heinous
*Album: Apprehended Dead [ep]
*Year: 2019
*Genre: Goregrind/Death Metal
*Country: United States
*Format: mp3@CBR320kbps
*Size: 23MB

Tracklist:
1.Corpse Disposal 01:21
2.Violator 01:09
3.Disembowlment 01:31
4.Mutilated 01:12
5.Juggernaut 01:46
6.Deboned 00:49
7.Decapitator 01:02
******************************
Total playing time: 8:50



[more=Technical info]
Input File: 2. Violator.mp3
Channels : 2
Sample Rate : 44100
Precision : 16-bit
Duration : 00:01:09.62 = 3070242 samples = 5221.5 CDDA sectors
File Size : 2.94M
Bit Rate : 338k
Sample Encoding: MPEG audio (layer I, II or III)
Comments :
Title=Violator
Artist=Heinous
Album=Apprehended Dead
Tracknumber=02/07
Year=2019
Genre=Death Metal/Goregrind

[/more]

Register
(10) artscald, carnegrinder, je5uck, METALHUNTER, morbidangelo, Olethros, Rosen, satanist666, wreak, Герб,
Mar 17 2019, 06:02:26 Animals Killing People & Gorepot - Maleficis De Saltu [split] (2019)


*Artist: Animals Killing People & Gorepot
*Album: Maleficis De Saltu [split]
*Year: 2019
*Genre: Brutal Death Metal/Grindcore | Brutal Death Metal/Grindcore
*Country: United States | Taiwan
*Format: mp3@CBR320kbps
*Size: 57MB

Tracklist:
1. Animals Killing People - Wizardry of Animal Shapeshifting 06:10
2. Animals Killing People - Cysticercosis Brain Invasion 02:58
3. Animals Killing People - Arthropod Eating Flesh Necrosis 04:31
4. Animals Killing People - If the Truth Be Known (Napalm Death cover) 04:06
5. Gorepot - Bushy Bong 01:38
6. Gorepot - British Crotch Activity 01:38
7. Gorepot - Stop Mething Around 01:57
8. Gorepot - Couples Who Don't Work Out Their Relationships Don't Work Out 01:37
******************************
Total playing time: 24:35




[more=Technical info]
Input File: 2. Animals Killing People - Cysticercosis Brain Invasion.mp3
Channels : 2
Sample Rate : 44100
Precision : 16-bit
Duration : 00:02:58.22 = 7859502 samples = 13366.5 CDDA sectors
File Size : 7.27M
Bit Rate : 326k
Sample Encoding: MPEG audio (layer I, II or III)
Comments :
Title=Cysticercosis Brain Invasion
Artist=Animals Killing People
Album=Maleficis De Saltu
Tracknumber=02/08
Year=2019
Genre=Brutal Death Metal/Goregrind

[/more]

Register
(8) artscald, carnegrinder, Lanceatum, Rosen, satanist666, vyacheslav, wreak, Герб,
Mar 2 2019, 18:45:05 Mellow Vocals - X (2019)
[youtube]5q9kh_iA59o[/youtube]
(1) AHBAnep,
Mar 2 2019, 18:43:52 Alcotopia - It Hits The Spot (2019)
[youtube]UgZ3KSIYW04[/youtube]
(3) AHBAnep, boby9052, Samaritianin,
Feb 18 2019, 17:31:01 Underule - Into Dust (2019)
[youtube]hFvyywXhR7Y[/youtube]
(2) infiltrator, MMMMM,
Feb 18 2019, 17:29:10 Ophicvs - Steel Horned Gasmasked Metalhead (2018)
[youtube]Fkkrwcm9UHM[/youtube]
(1) boby9052,
Feb 16 2019, 21:33:06 Obturate - The Bleeding Mask Of Dread (2019)
[youtube]RkMHtN4od_I[/youtube]
(1) Occultas,
Feb 16 2019, 21:28:32 Them Furious Days - Ii (2019)
[youtube]8520rcl9q5c[/youtube]
(1) DenisKov,
Feb 16 2019, 21:24:29 Feticide - Psychaos/Organic God Syndrome [compilation] (2017)
[youtube]e1UDOO-T50c[/youtube]
(1) AHBAnep,
Feb 16 2019, 21:20:59 Despised Cruelty - Łez Padół (2019)
[youtube]HU5hQNbV31M[/youtube]
(1) vovenom,
Sep 23 2018, 08:48:52 Infernal Antarctica - From The Depths Of The Earth (2017)
[youtube]JBVqdWsUdC4[/youtube]
(1) Paatddal,
Sep 23 2018, 08:32:19 Coughdust - Coughdust [ep] (2018)
[youtube]oT49U5DIr7E[/youtube]
(1) Leshiy666,
Nov 6 2017, 09:39:00 Recrucide - The Cycle (2017)


*Artist: Recrucide
*Album: The Cycle
*Year: 2017
*Genre: Death/Thrash Metal
*Country: Chile
*Format: mp3@CBR320kbps
*Size: 96MB

Tracklist:
1. Disowned
2. Spiral
3. Illumination
4. Time
5. Insane
6. Ira
7. Labyrinth
8. Zero
9. The Guilty
10. Stay Away
11. Candelabrvm
******************************
Total playing time: 42:05



[more=Extended info][youtube]YRiNz6aYduE[/youtube]
[youtube]m69qfWWHjhk[/youtube][/more]

[more=Technical info]
Input File: 03 - Illumination.mp3
Channels : 2
Sample Rate : 44100
Precision : 16-bit
Duration : 00:05:02.37 = 13334385 samples = 22677.5 CDDA sectors
File Size : 12.1M
Bit Rate : 320k
Sample Encoding: MPEG audio (layer I, II or III)
Comments :
Title=Illumination
Artist=Recrucide
Album=The Cycle
Tracknumber=03/11
Year=2017
Genre=Death/Thrash Metal

[/more]

Register
(15) AHBAnep, Buregon, cesar, killingod, lawronchik, metala, METALHUNTER, realexxx75, Rosen, SymbyoticEntity, SyncestrA, varlam4, vyacheslav, wanderer73, wgs73,
Nov 6 2017, 09:19:21 Nocrul - Eye Of Terror (2017)
(2) Ostinato, serg1349,
Nov 6 2017, 06:43:49 Nocrul - Eye Of Terror (2017)


*Artist: Nocrul
*Album: Eye Of Terror
*Year: 2017
*Genre: Black Metal
*Country: Hungary
*Format: mp3@CBR320kbps
*Size: 86MB

Tracklist:
1. Let the Ground Be the Grave Marker of the Heroes 04:58
2. 13th Black Crusade 04:59
3. The Great Shame Lives On 04:10
4. Dark Purpose of Madness 04:13
5. Destroy the Golden Throne 05:24
6. Hadex Anomaly 04:37
7. Forces of Chaos 05:04
8. Atom and Evil 04:11
******************************
Total playing time: 37:36



[more=Extended info][youtube]uGwM1nAramg[/youtube][/more]

[more=Technical info]
Input File: 03. The Great Shame Lives On.mp3
Channels : 2
Sample Rate : 44100
Precision : 16-bit
Duration : 00:04:10.75 = 11058031 samples = 18806.2 CDDA sectors
File Size : 10.2M
Bit Rate : 324k
Sample Encoding: MPEG audio (layer I, II or III)
Comments :
Title=The Great Shame Lives On
Artist=Nocrul
Album=Eye Of Terror
Tracknumber=03/08
Year=2017

[/more]

Register
(18) 1968_janeart, An226, Buregon, Ildjarn, kim666, Ostinato, Rosen, RUSP73, satanist666, SilentNidhogg, stub888, syntexid, thenecromancer, v.v.m, VALERY, varlam4, vasiljev_sergej, zotyo1975,
Nov 5 2017, 10:08:24 Demoniah - Demoniahlizer (2017)


*Artist: Demoniah
*Album: Demoniahlizer
*Year: 2017
*Genre: Death 'n' Roll
*Country: Brazil
*Format: mp3@CBR320kbps
*Size: 91MB

Tracklist:
1. Demoniahlizer I 00:18
2. Scorn 05:00
3. Devils Inside 05:51
4. Sweet Little Hell 04:21
5. Demoniahlizer II 00:46
6. Monster 04:19
7. His Bloody Eyes 05:41
8. Before Your Lies 04:39
9. The Man Who Thinks He Is God 07:32
10. Demoniahlizer III 01:18
******************************
Total playing time: 39:45




[more=Technical info]
Input File: 03 - Devils Inside.mp3
Channels : 2
Sample Rate : 44100
Precision : 16-bit
Duration : 00:05:50.59 = 15461063 samples = 26294.3 CDDA sectors
File Size : 14.1M
Bit Rate : 321k
Sample Encoding: MPEG audio (layer I, II or III)
Comments :
Title=Devils Inside
Artist=Demoniah
Album=Demoniahlizer
Tracknumber=03/10
Year=2017
Genre=Death 'n' Roll

[/more]

Register
(8) Buregon, jollo, Mogozoz, Ostinato, Rosen, varlam4, wgs73, Wolftribes,
Nov 5 2017, 09:54:36 Toxic Crypt - Where Dead Trees Grow (2017)


*Artist: Toxic Crypt
*Album: Where Dead Trees Grow
*Year: 2017
*Genre: Death Metal
*Country: Sweden
*Format: mp3@CBR320kbps
*Size: 72MB

Tracklist:
1. March of the Mongrels
2. Where Dead Trees Grow
3. Chaos Unleashed
4. To Kill a Man
5. From Within
6. Blood (For Your Redemption)
7. End of Days
******************************
Total playing time: 30:49



[more=Technical info]
Input File: 02 - Where Dead Trees Grow.mp3
Channels : 2
Sample Rate : 44100
Precision : 16-bit
Duration : 00:03:38.49 = 9635585 samples = 16387 CDDA sectors
File Size : 8.97M
Bit Rate : 328k
Sample Encoding: MPEG audio (layer I, II or III)
Comments :
Title=Where Dead Trees Grow
Artist=Toxic Crypt
Album=Where Dead Trees Grow
Tracknumber=02/07
Year=2017
Genre=Death Metal

[/more]

Register
(24) An225, andreikun, Buregon, Damien666, Emhyr var Emreis, infozahist, jollo, KeeLs, KVRT, metala, MMMMM, older68, oldvarg, Proteus_666, Rosen, Shure, sperminator, StoneTemple, SymbyoticEntity, Tino, VALERY, varlam4, vov7609, vyacheslav,
Nov 5 2017, 09:36:45 Dakota Westbrook - When The Snow Falls (2016)


*Artist: Dakota Westbrook
*Album: When The Snow Falls
*Year: 2016
*Genre: Atmospheric Black Metal
*Country: United States
*Format: mp3@CBR320kbps
*Size: 119MB

Tracklist:
1. Eternal Ice Filled Hybernation 11:00
2. Silver Dressed Tinder 06:41
3. See Across the Frozen Sea 06:29
4. Blood on the Ice 05:11
5. The Faith Fades with the Dream 06:00
6. The Cycles of a Cold Life 04:45
******************************
Total playing time: 40:06



[more=Technical info]
Input File: 02. Silver Dressed Tinder.mp3
Channels : 2
Sample Rate : 44100
Precision : 16-bit
Duration : 00:06:42.01 = 17728773 samples = 30151 CDDA sectors
File Size : 16.3M
Bit Rate : 325k
Sample Encoding: MPEG audio (layer I, II or III)
Comments :
Title=Silver Dressed Tinder
Artist=Dakota Westbrook
Album=When The Snow Falls
Tracknumber=02/07
Year=2016
Genre=Atmospheric Black Metal

[/more]

Register
(9) 1968_janeart, artscald, Doooomed, kim666, metala, Rosen, satanist666, varlam4, vasiljev_sergej,

20 Pages V   1 2 3 > » 
- Lo-Fi Version Support form
Copyrights and abuse reports form
Time is now: 4th March 2021 - 22:45:23