Welcome Guest ( Log In | Register )

История благодарностей участнику squall8fr ::: Спасибо сказали: 566 раз(а)
Дата поста: В теме: За сообщение: Спасибо сказали:
Feb 4 2020, 18:49:33 Serpent Of A Black Horizon - A Funeral Dirge For The Living (2020) (4) infiltrator, kauyumari, Occultas, VLADISLAV_V_K,
Feb 4 2020, 18:34:34 Ygg - The Last Scald (2020)
Awesome, they're back ! pray.gif


Full album on Bandcamp :
(7) d0zer, dermarsoran, Eldarmoon, infiltrator, RMS, russ777, sethurius,
Jan 28 2020, 18:15:20 Mulla - مَوْلَى (2020)
QUOTE
نحن لسنا جماعة إرهابية أو متعصبين دينيين لقد حاولنا فقط أن نعطيكم شعورا موسيقيا للجو المخيف للشرق الأوسط هذه الأيام ، مع كل القوالب النمطية الحديثة. إذا شعرت به ، ثم فعلنا كل شيء الحق
We are not a terrorist group or religious fanatics. We have just tried to give you a musical feel for the frightening atmosphere of the Middle East these days, with all the modern stereotypes. If it felt like it, then we did it all right


(1) StabWound,
Jan 6 2020, 17:59:39 Whoredom Rife Emissary - Vinternatt [ep] (2019)
For those who wonder :
QUOTE
.:Whoredom Rife Emissary:.

Today is winter solstice, the darkest night of the year.
We appropriately present Emissary, a sub-project under the banner of Whoredom Rife.
The aim is to display a more low-key side to the band, and to appeal to the listener in a different way. The idea is that both projects can interact with eachother, yet stand on their own.
As the name suggests, Emissary is a solo project on behalf of Whoredom Rife, but with the same names and ideas involved.

So without further ado, let's celebrate reality and the return of the sun.

V.
(3) Daale, infiltrator, Occultas,
Dec 27 2019, 02:52:40 Thanatomania - Resignation (2018)


*Artist: Thanatomania
*Album: Resignation
*Year: 2018
*Genre: Black Metal
*Country: Germany
*Format: mp3@CBR320kbps
*Size: 76MB

Tracklist:
1. Resignation I 01:45
2. Resignation II 06:46
3. Resignation III 05:08
4. Resignation IV 05:13
5. Resignation V 06:35
6. Resignation VI 07:33
******************************
Total playing time: 33:00




[more=Extended info]Metal-Archives[/more]

[more=Technical info]
Input File: 01 - Resignation I.mp3
Channels : 2
Sample Rate : 44100
Precision : 16-bit
Duration : 00:01:45.07 = 4633719 samples = 7880.47 CDDA sectors
File Size : 4.32M
Bit Rate : 329k
Sample Encoding: MPEG audio (layer I, II or III)
Comments :
Title=Resignation I
Artist=Thanatomania
Album=Resignation
Tracknumber=01
Year=2018

[/more]

Register
(24) 1968_janeart, ASkyThatBurns, atavist, craP_cillA, Daale, El_Chibo, Hell_Is_Here, Ildjarn, infiltrator, kim666, kimkayoung, lestllk, LordOvDarkness, multizwilling, Olethros, rimfrost, Rosen, russ777, SilentNidhogg, stub888, VALERY, vasiljev_sergej, Авел, дивин,
Dec 16 2019, 18:33:18 Ordo Sanguinis Noctis - Chthonic Blood Mysteries (2019) (1) atavist,
Dec 6 2019, 18:37:39 Agarwaen - Dottore I (2019)
Symphonic Black Metal ?
(1) nsk2008,
Nov 28 2019, 18:25:07 Massemord - Luciferi Imperium (2019)
QUOTE(babanguida @ Nov 27 2019, 20:53:57) *
You are saying that because you are angry.


Well maybe a bit when that happened, but I'm also trying to be constructive ! hmm.gif
(1) babanguida,
Nov 21 2019, 19:47:52 Sweet Smoke - Just A Poke (1970)
Great album indeed ! 20.gif
(2) Borderline1991, infiltrator,
Sep 2 2019, 18:42:41 Rimruna & Thanatomania - Nexus [split] (2019)


*Artist: Rimruna & Thanatomania
*Album: Nexus [split]
*Year: 2019
*Genre: Black Metal | Black Metal
*Country: Germany | Germany
*Format: mp3@VBR273kbps
*Size: 24MB

Tracklist:
Rimruna:
01 Schlummernd' Quell 06:56
Thanatomania:
02 Eskapismus 05:08
******************************
Total playing time: 12:04



[more=Extended info]V0 From Bandcamp <br /https://www.metal-archives.com/albums/Rimruna/Nexus/778920[/more]

[more=Technical info]
Input File: 02 - Thanatomania - Eskapismus.mp3
Channels : 2
Sample Rate : 44100
Precision : 16-bit
Duration : 00:05:08.95 = 13624695 samples = 23171.2 CDDA sectors
File Size : 10.5M
Bit Rate : 271k
Sample Encoding: MPEG audio (layer I, II or III)
Comments :
Title=Thanatomania - Eskapismus
Artist=Rimruna
Album=Nexus (Split Rimruna & Thanatomania)
Tracknumber=02
Year=2019

[/more]

Register
(5) 1968_janeart, artscald, craP_cillA, kim666, MetalAreola,
Aug 4 2019, 16:45:55 Movetöt - Небеса черны [demo] (2019)
[youtube]e2DDtIRSlWg[/youtube]
(2) infiltrator, rickzammuto,
Jun 1 2019, 09:00:04 Avslut - Förslavad [ep] (2019) (1) zargonath,
May 18 2019, 17:01:31 Grisi Siknis - Fièvres Sépulcrales [ep] (2019) (1) rickzammuto,
Apr 28 2019, 11:53:51 Elegiac - Thirst For Vengeance (2019)


*Artist: Elegiac
*Album: Thirst For Vengeance
*Year: 2019
*Genre: Black Metal
*Country: United States
*Format: mp3@CBR320kbps
*Size: 105MB

Tracklist:
01 - Onward To Nordland 06:12
02 - Thirst For Vengeance 05:10
03 - Óðinn 02:49
04 - Roads To Hel 07:02
05 - Wheel Of Sun 05:44
06 - Endless Coiled Serpent 04:28
07 - Into The Halls Of Valhalla 07:49
08 - Crypt Of Stone 06:18
******************************
Total playing time: 45:32



[more=Technical info]
Input File: 03 - Óðinn.mp3
Channels : 2
Sample Rate : 44100
Precision : 16-bit
Duration : 00:02:49.08 = 7456296 samples = 12680.8 CDDA sectors
File Size : 6.92M
Bit Rate : 328k
Sample Encoding: MPEG audio (layer I, II or III)
Comments :
Title=Óðinn
Artist=Elegiac
Album=Thirst For Vengeance
Tracknumber=03
Year=2019

[/more]

Register
(20) 1968_janeart, artscald, burzum1983, Indamage, kim666, KNessJM, lestllk, Olethros, Ostinato, Razorbladeswaltz, robertho777, Rosen, SilentNidhogg, stub888, toly1917, VALERY, varg-38ru, vasiljev_sergej, Wail, zotyo1975,
Mar 31 2019, 16:24:32 Kalt - Pest Ketzer (2019) (1) rickzammuto,
Mar 10 2019, 17:06:45 Möhrkvlth - A-Dreñv Ar Vrumenn (2018)


*Artist: Möhrkvlth
*Album: A-Dreñv Ar Vrumenn
*Year: 2018
*Genre: Black Metal
*Country: France
*Format: mp3@CBR320kbps
*Size: 95MB

Tracklist:
01 - Bardo Thodol Part I (YAR - GIY - ZANG - THAL - CHEN - PO) 06:39
02 - Goulou Yen Un Heol Skuizh 05:51
03 - Kan An Anaon 04:58
04 - Disheol 07:20
05 - C'hwezn Ar Gwad 06:33
06 - A-Dreñv Brumenn An Istor 06:08
07 - Klozadur 04:19
******************************
Total playing time: 41:48




[more=Extended info]https://www.metal-archives.com/bands/M%C3%B6hrkvlth/3540413363%20[/more]

[more=Technical info]
Input File: 07 - Klozadur.mp3
Channels : 2
Sample Rate : 44100
Precision : 16-bit
Duration : 00:04:19.73 = 11453917 samples = 19479.5 CDDA sectors
File Size : 10.4M
Bit Rate : 322k
Sample Encoding: MPEG audio (layer I, II or III)
Comments :
Title=Klozadur
Artist=Möhrkvlth
Album=A-Dreñv Ar Vrumenn
Tracknumber=07
Year=2018

[/more]

Register
(18) 1968_janeart, artscald, Ildjarn, isvili, kim666, lestllk, Olethros, Ostinato, Rosen, RUDACHUR, satanist666, SilentNidhogg, stub888, VALERY, Vardlokkur, vasiljev_sergej, wreak, Авел,
Mar 5 2019, 18:56:06 Nekrokrist SS - Neljän Käärmeen Veljeskunta (2018) (1) WarmasterChorus,
Jan 26 2019, 19:03:05 Grusig - Dr Ahfang Vor Misäärä (2018)


*Artist: Grusig
*Album: Dr Ahfang Vor Misäärä
*Year: 2018
*Genre: Black Metal
*Country: Switzerland
*Format: mp3@CBR320kbps
*Size: 115MB

Tracklist:
1. Dr Ahfang Vor Misäärä 05:40
2. Schtadtbrand 1405 06:24
3. Meitschibei 05:30
4. Ds Fautschä Paradies 07:01
5. Was Ewig Währt 07:24
6. Denn, Wenn Dr Wind Di Tod Besingt 10:40
7. Schüchi Liäbälei 07:44
******************************
Total playing time: 50:23




[more=Technical info]
Input File: 01 - Dr Ahfang Vor Misäärä.mp3
Channels : 2
Sample Rate : 44100
Precision : 16-bit
Duration : 00:05:40.35 = 15009215 samples = 25525.9 CDDA sectors
File Size : 13.7M
Bit Rate : 322k
Sample Encoding: MPEG audio (layer I, II or III)
Comments :
Title=Dr Ahfang Vor Misäärä
Artist=Grusig
Album=Dr Ahfang Vor Misäärä
Tracknumber=01
Year=2018

[/more]

Register
(26) 1968_janeart, Alexis The Best, artscald, Emhyr var Emreis, kim666, Korpse, lestllk, morbidangelo, murian, NachtWulf, Olethros, Orkkh, Ostinato, rimfrost, robertho777, Rosen, sandr666, satanist666, SilentNidhogg, stub888, toly1917, VALERY, Vardlokkur, varlam4, vasiljev_sergej, vovenom,
Dec 21 2018, 23:32:11 Gjaldur - Unterm Totenbanner (2018) (1) IndeXR,
Sep 29 2018, 16:16:18 Elegiac - Pagan Storm (2018)


*Artist: Elegiac
*Album: Pagan Storm
*Year: 2018
*Genre: Black Metal
*Country: United States
*Format: mp3@CBR320kbps
*Size: 143MB

Tracklist:
01 Rituals Of War 08:17
02 Allegiance And Honor 05:06
03 Somber Morning 10:20
04 Through Ancient Eyes 07:33
05 Purity Of Winter 07:02
06 Golden Fires of Victory 06:48
07 Pagan Storm 07:15
08 Ancient Spirit 09:41
******************************
Total playing time: 1:02:02



[more=Extended info]https://www.metal-archives.com/albums/Elegi...an_Storm/729191[/more]

[more=Technical info]
Input File: 02 - Allegiance And Honor.mp3
Channels : 2
Sample Rate : 44100
Precision : 16-bit
Duration : 00:05:06.78 = 13528822 samples = 23008.2 CDDA sectors
File Size : 12.5M
Bit Rate : 325k
Sample Encoding: MPEG audio (layer I, II or III)
Comments :
Title=Allegiance And Honor
Artist=Elegiac
Album=Pagan Storm
Tracknumber=02
Year=2018

[/more]

Register
(16) 1968_janeart, aesteticvice, artscald, kauyumari, kim666, Korpse, Moonshtook, nemx, Ostinato, Razorbladeswaltz, Rosen, satanist666, stub888, VALERY, varg-38ru, vasiljev_sergej,
Aug 26 2018, 16:13:48 Aversion To Mankind - Ways To Non-Existence (2016)


*Artist: Aversion To Mankind
*Album: Ways To Non-Existence
*Year: 2016
*Genre: Atmospheric/Depressive Black Metal
*Country: Spain
*Format: mp3@CBR320kbps
*Size: 76MB

Tracklist:
01 - Ways To Non-Existence 13:11
02 - Anhedonia 12:54
03 - Suicide Mantra 07:04
******************************
Total playing time: 33:09



[more=Technical info]
Input File: 03 - Suicide Mantra.mp3
Channels : 2
Sample Rate : 44100
Precision : 16-bit
Duration : 00:07:04.49 = 18720009 samples = 31836.8 CDDA sectors
File Size : 17.1M
Bit Rate : 323k
Sample Encoding: MPEG audio (layer I, II or III)
Comments :
Title=Suicide Mantra
Artist=Aversion To Mankind
Album=Ways To Non-Existence
Tracknumber=03
Year=2016

[/more]

Register
(11) 1968_janeart, infiltrator, kim666, Ostinato, Rosen, satanist666, stub888, valera2010, VALERY, varg-38ru, vasiljev_sergej,
Aug 26 2018, 16:03:23 Aversion To Mankind - Aversion & Hopelessness [ep] (2017)


*Artist: Aversion To Mankind
*Album: Aversion & Hopelessness [ep]
*Year: 2017
*Genre: Atmospheric/Depressive Black Metal
*Country: Spain
*Format: mp3@CBR320kbps
*Size: 46MB

Tracklist:
01 - Aversion & Hopelessness I 05:46
02 - Aversion & Hopelessness II 03:38
03 - Aversion & Hopelessness III 04:32
04 - Aversion & Hopelessness IV 04:55
05 - Aversion & Hopelessness V 04:02
******************************
Total playing time: 22:53



[more=Technical info]
Input File: 02 - Aversion & Hopelessness II.mp3
Channels : 2
Sample Rate : 44100
Precision : 16-bit
Duration : 00:03:38.28 = 9626236 samples = 16371.1 CDDA sectors
File Size : 8.73M
Bit Rate : 320k
Sample Encoding: MPEG audio (layer I, II or III)
Comments :
Title=Aversion & Hopelessness II
Artist=Aversion To Mankind
Album=Aversion & Hopelessness (EP)
Tracknumber=02
Year=2017
Genre=Dark Folk

[/more]

Register
(11) 1968_janeart, infiltrator, kim666, Ostinato, Rosen, satanist666, stor, stub888, valera2010, VALERY, vasiljev_sergej,
Jul 20 2018, 18:05:29 Myrd - Negativeism (2018) (2) Brann, Storky,
Jul 7 2018, 12:18:18 Moonfrost - III (2018)
(1) rickzammuto,
Jun 3 2018, 02:06:17 Elegiac - Ascension [ep] (2018)


*Artist: Elegiac
*Album: Ascension [ep]
*Year: 2018
*Genre: Black Metal
*Country: United States
*Format: mp3@CBR320kbps
*Size: 53MB

Tracklist:
01. Northern Sky 06:54
02. Ascension 06:29
03. Horns of Triumph 04:41
04. From Hateful Visions (Judas Iscariot cover) 05:02
******************************
Total playing time: 23:06



[more=Extended info]If you like it, buy it ! smile1.gif

Merch : [/more]

[more=Technical info]
Input File: 04 - From Hateful Visions (Judas Iscariot Cover).mp3
Channels : 2
Sample Rate : 44100
Precision : 16-bit
Duration : 00:05:02.09 = 13321949 samples = 22656.4 CDDA sectors
File Size : 12.2M
Bit Rate : 324k
Sample Encoding: MPEG audio (layer I, II or III)
Comments :
Title=From Hateful Visions (Judas Iscariot Cover)
Artist=Elegiac
Album=Ascension (EP)
Tracknumber=04
Year=2018

[/more]

Register
(12) 1968_janeart, artscald, Daale, Goatrex, kim666, Moonshtook, Rosen, satanist666, SilentNidhogg, stub888, VALERY, vasiljev_sergej,

5 Pages V   1 2 3 > » 
- Lo-Fi Version Support form
Copyrights and abuse reports form
Time is now: 27th February 2020 - 07:51:21