Welcome Guest ( Log In | Register )

История благодарностей участнику Grimmsberg ::: Спасибо сказали: 4112 раз(а)
Дата поста: В теме: За сообщение: Спасибо сказали:
Feb 21 2021, 11:27:11 Beheritvras - Goat Worshipping Blasphemic Metal (2018)
FLAC

Register
(1) Olethros,
Feb 19 2021, 10:41:22 Harakiri For The Sky - Mære (2021)
Нравится
(1) MeatWolf,
Feb 19 2021, 10:26:06 Satanist Terrorist - The Black Pest Of Evil [ep] (2020)
Ну, почему толстый, всё достаточно наглядно понятно (я так понял, это отсылка к этому интервью) где в каментах все угарали с его внешнего вида и называли Satanic Foodmaster и в этом же духе

Почему трус? Наверное, потому, что это самое интервью оказалось через какое-то время заблюрено по его же просьбе. А интервью, между прочим, собрало аж 130к просмотров. Что весьма впечатляюще для андеграунда

[youtube]Gj1Trcp66vE[/youtube]

А может там какая-то другая история с его трусостью имеется ввиду. У этих всяких Сатаник Вармастеров и Джудас Искариотов много их. Это они только на фотках в лесу такие крутые и бесстрашные "воины северной тьмы"
(1) Orkkh,
Feb 18 2021, 08:42:05 Beheritvras - Goat Worshipping Blasphemic Metal (2018)


*Artist: Beheritvras
*Album: Goat Worshipping Blasphemic Metal
*Year: 2018
*Genre: Raw Black Metal
*Country: Belgium
*Format: mp3@CBR320kbps
*Size: 71MB

Tracklist:
1.Intro 00:45
2.Grave Desecrating Beast of Damnation 03:48
3.He Arose From Oblivion 01:40
4.Goat Worshipping Blasphemic Metal 04:25
5.Nocturnal Rites Of Evil 03:36
6.The Age of Slaughtered Mankind 03:51
7.Agony and Perversion 05:52
8.Of Anger And Darkness 04:01
9.Angel Spirits We Ride (Rehearsal Improvisation) 02:45
******************************
Total playing time: 30:43




[more=Extended info]Metalarea exclusive!

Такие лоуфайные спектры - особенность записи![/more]

[more=Technical info]
Input File: Beheritvras - 04 Goat Worshipping Blasphemic Metal.mp3
Channels : 2
Sample Rate : 44100
Precision : 16-bit
Duration : 00:04:25.86 = 11724514 samples = 19939.6 CDDA sectors
File Size : 10.7M
Bit Rate : 323k
Sample Encoding: MPEG audio (layer I, II or III)
Comments :
Title=Goat Worshipping Blasphemic Metal
Artist=Beheritvras
Album=STAR008: Beheritvras - Goat Worshipping Blasphemic Metal
Tracknumber=4
Year=2018

[/more]

Register
(12) artscald, dermarsoran, infiltrator, kim666, mizantrophist, Olethros, randumbum, SilentNidhogg, VALERY, varlam4, vasiljev_sergej, wreak,
Feb 15 2021, 15:17:51 Vanhelga - Enfin Morte [ep] (2021)


*Artist: Vanhelga
*Album: Enfin Morte [ep]
*Year: 2021
*Genre: Post-Black Metal/Depressive Rock
*Country: Sweden
*Format: mp3@CBR320kbps
*Size: 50MB

Tracklist:
01.Sjuklig Samhörighet 03:43
02.Totalt Jävla Urspårad 02:18
03.Dagar Som Denna 05:43
04.Time Is Cancer 06:02
05.Finally Dead 04:28
******************************
Total playing time: 22:14


Preview 2

[more=Technical info]
Input File: 04. Time Is Cancer.mp3
Channels : 2
Sample Rate : 44100
Precision : 16-bit
Duration : 00:06:02.44 = 15983692 samples = 27183.1 CDDA sectors
File Size : 14.6M
Bit Rate : 322k
Sample Encoding: MPEG audio (layer I, II or III)
Comments :
Title=Time Is Cancer
Artist=Vanhelga
Album=Enfin Morte (ep)
Tracknumber=04/05
Year=2021
Genre=Depressive Rock

[/more]

Register
(8) andersonj8, dermarsoran, fylopaloma, infiltrator, Olethros, Sjelekval, smysl, yuratroll,
Feb 12 2021, 11:14:11 Strigaskór Nr. 42 - Blót (1994)
ЦИТАТА(as71 @ Feb 12 2021, 10:55:23) *
Да я уж теперь, после разговоров про авангардный блэк, опасаюсь этот тэг куда попало добавлять, а то скажут потом, что ни фига не авангард.


Да не важно, что говорят, с уважением ко всем участникам той дискусии, но фиг меня кто переубедит, что это не авангард. Для меня здесь как раз тот самый авангардный метал, который я люблю (а люблю я его во всех его формах). Экспериментала вот здесь совсем немного, обычно авангард это и есть уход в эксперименты, а именно эксперименталом я бы назвал что-то совсем другое по структуре и форме, но всё-таки и этот тег сюда подходит, некоторые части в некоторых трэках вполне можно было бы и так обозначить. Ещё однозначно могу сказать, это не блэк, вдруг кто-то захочет его здесь искать, а именно авангардный метал. На этом пожалуй остановимся и не будем дальше в субъективное углубляться, иначе это будет уже каким-то совсем уж махровым тэго-задротством. Я за упрощение


ЦИТАТА(as71 @ Feb 12 2021, 10:55:23) *
Интересно, что кассета с этим альбом имела хождение в нашей тусовке еще в середине девяностых и о нем у меня остались какие-то мутные впечатления - тогда на фоне более традиционных форм музицирования он мне не понравился, но оставил ощущение чего-то недопонятого. А название в памяти сохранилось, и когда появилась возможность его в цифре скачать, я это сделал.
П.С. Вчера искал какую-нибудь инфу на на русском, наткнулся на объявление о продаже диска в хорошем состоянии - почти в 35 тыс. деревянных обойдется.
Strigaskor Nr. 42 - Blot


Если бы та кассета была оригинальной и каким-то чудом у тебя могла сохраниться - она бы сейчас очень прилично стоила. Хотя судя по имеющейся инфе и времени, когда она циркулировала, это очень маловероятно. А на счёт стоимости оригинального компакта, тут совсем нечему удивляться, первое и единственное издание. Такие вещи всегда будут дорого стоить, более-менее. Вот посмотри цены на этот альбом на Дискогсе: https://www.discogs.com/ru/Strigask%C3%B3r-...release/3587658 Начинаются от 250€, а также одна копия была продана за 300€. Вполне достойно!

Да, и спасибо за релиз этой редкости!
(1) as71,
Feb 8 2021, 04:30:35 Unholy Desolation - The Age Of Lost Souls (2018)
Обновлённая ссылка на 320

320

Register


+

FLAC

Register
(1) Alexis The Best,
Feb 8 2021, 04:10:51 Unholy Desolation - Strength By Nature (2021)
FLAC

Register


[youtube]tAhYWW6yW1w[/youtube]
(4) Alexis The Best, infiltrator, Olethros, wreak,
Feb 8 2021, 03:37:33 Unholy Desolation - Strength By Nature (2021)


*Artist: Unholy Desolation
*Album: Strength By Nature
*Year: 2021
*Genre: Raw Black Metal
*Country: Belgium
*Format: mp3@CBR320kbps
*Size: 69MB

Tracklist:
1. We March (Intro) 00:17
2. Boars 02:35
3. The Phantom World 02:10
4. Merkteken Des Doods 02:48
5. Unnamed Darkness 03:18
6. One With The Moon 05:17
7. Evil Lurking 04:21
8. Bezeten Door Demonen 03:44
9. Of Depravity And Pain 04:44
10. Devastated Lands (Bonus Track) 03:09
11. I Crave Your Pain (Bonus Track) 03:14
******************************
Total playing time: 35:37




[more=Extended info]Metalarea exclusive![/more]

[more=Technical info]
Input File: 9. Of Depravity and Pain.mp3
Channels : 2
Sample Rate : 44100
Precision : 16-bit
Duration : 00:04:45.00 = 12568676 samples = 21375.3 CDDA sectors
File Size : 11.4M
Bit Rate : 320k
Sample Encoding: MPEG audio (layer I, II or III)
Comments :
Artist=Unholy Desolation
Album=Of Depravity And Pain
Year=2020
Genre=12

[/more]

Register
(16) AlexSmith, alikkon, infiltrator, kim666, Moonshtook, Olethros, randumbum, Rosen, SilentNidhogg, smysl, Taakeferd, thenecromancer, VALERY, varlam4, vasiljev_sergej, wreak,
Jan 14 2021, 01:11:55 Gjendød - Skygger Fra Dødsriket [compilation] (2018)
FLAC CD RIP

Register


[youtube]esiPVfsDprU[/youtube]
(1) Arkwulf,
Jan 10 2021, 19:18:01 Various Artists - Root Of Ultimate Evil: A Tribute To Sabbat [compilation] (2018)
FLAC CD RIP

Register


[youtube]fzFYlRlE-BA[/youtube]
(1) spiritualdecay666,
Jan 10 2021, 19:16:52 Anti-Flesh - With Knowledge And 1000 Needles [ep] (2015)
FLAC CD RIP

Register
(5) infiltrator, Olethros, spiritualdecay666, vasiljev_sergej, wreak,
Jan 10 2021, 01:30:22 Anti-Flesh - With Knowledge And 1000 Needles [ep] (2015)


*Artist: Anti-Flesh
*Album: With Knowledge And 1000 Needles [ep]
*Year: 2015
*Genre: Black Metal
*Country: Greece
*Format: mp3@CBR320kbps
*Size: 38MB

Tracklist:
1. Bleeding Mouths 03:09
2. Asylum 03:45
3. 1000 Needles 05:04
4. Starving for Void 02:58
5. Words of Angels That Faded 03:28
******************************
Total playing time: 18:24



[more=Extended info]Metalarea exclusive!

CD-RIP[/more]

[more=Technical info]
Input File: 03. 1000 Needles.mp3
Channels : 2
Sample Rate : 44100
Precision : 16-bit
Duration : 00:05:03.57 = 13387569 samples = 22768 CDDA sectors
File Size : 12.1M
Bit Rate : 320k
Sample Encoding: MPEG audio (layer I, II or III)
Comments :
Title=??????? 3
Artist=??????????? ???????????
Album=??????????? ?????? (07.01.2021 20:02:08)
Tracknumber=3
Genre=??????????? ????

[/more]

Register
(18) caro, foreverisforgotten, Hell_Is_Here, Ildjarn, infiltrator, kim666, Olethros, rimfrost, Rosen, satanist666, SilentNidhogg, smysl, spiritualdecay666, Taakeferd, VALERY, varlam4, Wail, wreak,
Jan 10 2021, 01:10:32 Various Artists - Root Of Ultimate Evil: A Tribute To Sabbat [compilation] (2018)


*Artist: Various Artists
*Album: Root Of Ultimate Evil: A Tribute To Sabbat [compilation]
*Year: 2018
*Genre: Black/Death/Thrash Metal
*Country: Russian Federation
*Format: mp3@CBR320kbps
*Size: 97MB

Tracklist:
1.Cist - Sacrifice of Angel 03:08
2.Tiran - Witchflight 04:00
3.Pyre - Satan Bless You 03:38
4.Dig Me No Grave - Samurai Zombies 05:48
5.Survival - Black Metal Scythe 04:30
6.Tanator - Envenom in the Witch's Hole 04:52
7.School of Rock - Bloody Countess 05:13
8.Speedwhore - Bird of Ill Omen 02:39
9.Tzantza - Darkness and Evil 03:27
10.Corpsehammer - Niebla (Jumu) 06:29
11.Astarium - Devil Worship 04:50
******************************
Total playing time: 48:34



[more=Extended info]Metalarea exclusive!

CD-RIP[/more]

[more=Technical info]
Input File: 10. Corpsehammer - Niebla (Jumu).mp3
Channels : 2
Sample Rate : 44100
Precision : 16-bit
Duration : 00:06:29.32 = 17169012 samples = 29199 CDDA sectors
File Size : 15.6M
Bit Rate : 320k
Sample Encoding: MPEG audio (layer I, II or III)
Comments :
Title=??????? 10
Artist=??????????? ???????????
Album=??????????? ?????? (07.01.2021 19:41:55)
Tracknumber=10
Genre=??????????? ????

[/more]

Register
(22) Ambercandle, Boozer, Bregon, caro, DarkHorde, foreverisforgotten, Hell_Is_Here, infiltrator, KKK1488, Olethros, robertho777, Rosen, spiritualdecay666, Taakeferd, thenecromancer, varlam4, vasiljev_sergej, Wail, wanderer73, Wilczygniew Strzygoń, wreak, Xutun,
Jan 9 2021, 20:44:32 Sarkrista & Sad - Fury Of The Doomsday Apostles [split] (2015)
FLAC first press CD RIP

Register
(7) Lucju, Marek, Piob, rickzammuto, system36, varg-38ru, varlam4,
Jan 9 2021, 20:39:00 Sargeist - Death Veneration [ep] (2019)
Перезалив

FLAC

Register

(1) KKK1488,
Jan 9 2021, 20:10:48 Expenzer - Kill The Conductor (2015)
FLAC CD RIP

Register
(1) wanderer73,
Dec 24 2020, 13:14:59 Droÿs - And If... (1998)
CD RIP FLAC

Register
(1) thenecromancer,
Oct 23 2019, 18:24:07 Reido - Anātman (2019)
Отличная работа. Явно заметен прогресс по сравнению с предыдущими альбомами (хотя каждый из них по-своему хорош для своего времени). У этой записи более мелодичное и отполированное звучание. Уровень работы со звуком и качество самого материала также на высоте. Не зря столько лет ждал их новый альбом
(1) Samaritianin,
Sep 11 2019, 23:48:58 Vetrarmyrkur - Ensomhed Af Den Glemte Liv [compilation] (2016)


*Artist: Vetrarmyrkur
*Album: Ensomhed Af Den Glemte Liv [compilation]
*Year: 2016
*Genre: Raw Black Metal
*Country: Faroe Islands
*Format: mp3@CBR320kbps
*Size: 115MB

Tracklist:
1. Death Dreams 02:57
2. A Misanthropic Vision 02:36
3. Memories From A Certain Death 02:37
4. Funeral Winds 03:07
5. Blackened Might 03:29
6. In Eternal Night 03:37
7. Burning Wrath 03:28
8. Nocturnal Funeral 02:56
9. Death Dreams (Remastered) 02:57
10. A Misanthropic Vision (Remastered) 02:36
11. Memories From A Certain Death (Remastered) 02:37
12. Funeral Winds (Remastered) 03:07
13. Blackened Might (Remastered) 03:29
14. In Eternal Night (Remastered) 03:37
15. Burning Wrath (Remastered) 03:28
16. Nocturnal Funeral (Remastered) 02:56
******************************
Total playing time: 49:34





[more=Extended info]Metalarea exclusive!

Компиляция сырого блэк метала с Фарерских островов. Компиляция 2-х кассетных демо проекта. Первая часть компиляции - оригинальные трэки, рипнутые с кассет. Вторая часть компиляции - их ремастированная версия

Спектры - особенность релиза. Это честные 320 из флака[/more]

[more=Technical info]
Input File: Vetrarmyrkur - 08 Nocturnal Funeral.mp3
Channels : 2
Sample Rate : 44100
Precision : 16-bit
Duration : 00:02:56.99 = 7805215 samples = 13274.2 CDDA sectors
File Size : 7.16M
Bit Rate : 324k
Sample Encoding: MPEG audio (layer I, II or III)
Comments :
Title=Nocturnal Funeral
Artist=Vetrarmyrkur
Album=STAR001: Vetrarmyrkur ‎– Ensomhed Af Den Glemte Liv
Tracknumber=8
Year=2016

[/more]

Register
(13) artscald, Carcharoth, dermarsoran, infiltrator, kim666, Olethros, Rosen, SilentNidhogg, stub888, VALERY, vasiljev_sergej, wreak, zhol,
Jul 7 2019, 21:11:11 Новости Black-направления
Traumatic Voyage - Gedankenglut

8-й полноформатный альбом немецкого Avant-Garde Black Metal проекта (первый вышел в 1992-м)

For the fans of: Bethlehem, Ad Hominem, Manes



[youtube]kYuqyq4rRjA[/youtube]

(5) infiltrator, mirotvorets, Moonshtook, MorsPulchra, yuratroll,
Jun 27 2019, 01:59:52 Babilonish - Hatred Against The Gods Of Life (2019)
[youtube]GJNK68nbAUg[/youtube]
(2) infiltrator, Sanctus,
Jun 27 2019, 00:18:02 Babilonish - Hatred Against The Gods Of Life (2019)


*Artist: Babilonish
*Album: Hatred Against The Gods Of Life
*Year: 2019
*Genre: Black/Death Metal
*Country: Italy
*Format: mp3@CBR320kbps
*Size: 95MB

Tracklist:
1. Intro + Black Carnivorous Lotus 03:31
2. Compulsive Profanator 02:35
3. Cursing Pharisaical Black Metal 02:18
4. Abandoning the Esbath 02:48
5. Scatophagist Souls 03:06
6. Sect of Corpses 02:36
7. Unholy Agony (Outro) 01:17
8. Radiation Sickness (Repulsion) 02:05
9. Cursed by Tainted Blood 03:51
10. Flock of Worms 03:50
11. Hail the Opposite Ones (Dualistic Dogma) 02:25
12. Impure Molestor 02:14
13. Into the Doompit 03:34
14. Martyr of Satan 03:07
15. Satanas (Sarcofago) 02:06
******************************
Total playing time: 41:23



[more=Technical info]
Input File: BABILONISH - Hatred Against the Gods of Life - 09 Cursed by Tainted Blood.mp3
Channels : 2
Sample Rate : 44100
Precision : 16-bit
Duration : 00:03:51.07 = 10189967 samples = 17329.9 CDDA sectors
File Size : 9.34M
Bit Rate : 323k
Sample Encoding: MPEG audio (layer I, II or III)
Comments :
Title=Cursed by Tainted Blood
Artist=P.C.Odio
Album=BABILONISH - Hatred Against the Gods of Life
Tracknumber=9
Year=2019

[/more]

Register
(13) artscald, GorAtheist, infiltrator, lunaraurora, makarytch, Olethros, Rosen, Sanctus, SilentNidhogg, VALERY, vasiljev_sergej, Wail, wreak,
Jun 26 2019, 23:41:54 Los Llanos - Los Llanos (2016)


*Artist: Los Llanos
*Album: Los Llanos
*Year: 2016
*Genre: Instrumental Post Rock
*Country: Argentina
*Format: mp3@CBR320kbps
*Size: 90MB

Tracklist:
1. Conexión 10:21
2. Amanecer 10:55
3. Decero 04:21
4. Cecilia 04:41
5. Acuario 08:53
******************************
Total playing time: 39:11

Preview 1

[more=Technical info]
Input File: LOS LLANOS - LOS LLANOS - 02 Amanecer.mp3
Channels : 2
Sample Rate : 44100
Precision : 16-bit
Duration : 00:10:55.61 = 28912181 samples = 49170.4 CDDA sectors
File Size : 26.4M
Bit Rate : 323k
Sample Encoding: MPEG audio (layer I, II or III)
Comments :
Title=Amanecer
Artist=LOS LLANOS
Album=LOS LLANOS
Tracknumber=2
Year=2016

[/more]

Register
(2) artscald, Olethros,
Jun 22 2019, 01:47:06 Hatyrkan - Demo II [demo] (2019)


*Artist: Hatyrkan
*Album: Demo II [demo]
*Year: 2019
*Genre: Raw Black Metal
*Country: Belgium
*Format: mp3@CBR320kbps
*Size: 29MB

Tracklist:
1. Intro 00:33
2. Pestilential Rats 01:43
3. Infected By Plague 04:09
4. The Stench of Death 02:08
5. Poisoned Air 03:06
6. Annihilate Them All 03:00
7. Outro 00:12
******************************
Total playing time: 14:51



[more=Technical info]
Input File: 003 Hatyrkan - 3. Infected By Plague.mp3
Channels : 2
Sample Rate : 44100
Precision : 16-bit
Duration : 00:04:09.24 = 10991528 samples = 18693.1 CDDA sectors
File Size : 9.97M
Bit Rate : 320k
Sample Encoding: MPEG audio (layer I, II or III)
Comments :
Artist=Hatyrkan
Album=Infected By Plague
Genre=12

[/more]

Register
(10) 1968_janeart, artscald, kim666, nemx, Olethros, Rosen, SilentNidhogg, stub888, vasiljev_sergej, wreak,

31 Pages V   1 2 3 > » 
- Lo-Fi Version Support form
Copyrights and abuse reports form
Time is now: 16th October 2021 - 18:19:37