Welcome Guest ( Log In | Register )

История благодарностей участнику Grimmsberg ::: Спасибо сказали: 3966 раз(а)
Дата поста: В теме: За сообщение: Спасибо сказали:
Oct 23 2019, 18:24:07 Reido - Anātman (2019)
Отличная работа. Явно заметен прогресс по сравнению с предыдущими альбомами (хотя каждый из них по-своему хорош для своего времени). У этой записи более мелодичное и отполированное звучание. Уровень работы со звуком и качество самого материала также на высоте. Не зря столько лет ждал их новый альбом
(1) Samaritianin,
Sep 11 2019, 23:48:58 Vetrarmyrkur - Ensomhed Af Den Glemte Liv [compilation] (2016)


*Artist: Vetrarmyrkur
*Album: Ensomhed Af Den Glemte Liv [compilation]
*Year: 2016
*Genre: Raw Black Metal
*Country: Faroe Islands
*Format: mp3@CBR320kbps
*Size: 115MB

Tracklist:
1. Death Dreams 02:57
2. A Misanthropic Vision 02:36
3. Memories From A Certain Death 02:37
4. Funeral Winds 03:07
5. Blackened Might 03:29
6. In Eternal Night 03:37
7. Burning Wrath 03:28
8. Nocturnal Funeral 02:56
9. Death Dreams (Remastered) 02:57
10. A Misanthropic Vision (Remastered) 02:36
11. Memories From A Certain Death (Remastered) 02:37
12. Funeral Winds (Remastered) 03:07
13. Blackened Might (Remastered) 03:29
14. In Eternal Night (Remastered) 03:37
15. Burning Wrath (Remastered) 03:28
16. Nocturnal Funeral (Remastered) 02:56
******************************
Total playing time: 49:34





[more=Extended info]Metalarea exclusive!

Компиляция сырого блэк метала с Фарерских островов. Компиляция 2-х кассетных демо проекта. Первая часть компиляции - оригинальные трэки, рипнутые с кассет. Вторая часть компиляции - их ремастированная версия

Спектры - особенность релиза. Это честные 320 из флака[/more]

[more=Technical info]
Input File: Vetrarmyrkur - 08 Nocturnal Funeral.mp3
Channels : 2
Sample Rate : 44100
Precision : 16-bit
Duration : 00:02:56.99 = 7805215 samples = 13274.2 CDDA sectors
File Size : 7.16M
Bit Rate : 324k
Sample Encoding: MPEG audio (layer I, II or III)
Comments :
Title=Nocturnal Funeral
Artist=Vetrarmyrkur
Album=STAR001: Vetrarmyrkur ‎– Ensomhed Af Den Glemte Liv
Tracknumber=8
Year=2016

[/more]

Register
(12) artscald, craP_cillA, infiltrator, kim666, Olethros, Rosen, SilentNidhogg, stub888, VALERY, vasiljev_sergej, wreak, zhol,
Jul 7 2019, 21:11:11 Новости Black-направления
Traumatic Voyage - Gedankenglut

8-й полноформатный альбом немецкого Avant-Garde Black Metal проекта (первый вышел в 1992-м)

For the fans of: Bethlehem, Ad Hominem, Manes



[youtube]1XAmCKJwV0g[/youtube]

(4) infiltrator, mirotvorets, Moonshtook, yuratroll,
Jun 27 2019, 01:59:52 Babilonish - Hatred Against The Gods Of Life (2019)
[youtube]Fzisl6SRNBM[/youtube]
(2) infiltrator, Sanctus,
Jun 27 2019, 00:18:02 Babilonish - Hatred Against The Gods Of Life (2019)


*Artist: Babilonish
*Album: Hatred Against The Gods Of Life
*Year: 2019
*Genre: Black/Death Metal
*Country: Italy
*Format: mp3@CBR320kbps
*Size: 95MB

Tracklist:
1. Intro + Black Carnivorous Lotus 03:31
2. Compulsive Profanator 02:35
3. Cursing Pharisaical Black Metal 02:18
4. Abandoning the Esbath 02:48
5. Scatophagist Souls 03:06
6. Sect of Corpses 02:36
7. Unholy Agony (Outro) 01:17
8. Radiation Sickness (Repulsion) 02:05
9. Cursed by Tainted Blood 03:51
10. Flock of Worms 03:50
11. Hail the Opposite Ones (Dualistic Dogma) 02:25
12. Impure Molestor 02:14
13. Into the Doompit 03:34
14. Martyr of Satan 03:07
15. Satanas (Sarcofago) 02:06
******************************
Total playing time: 41:23

Preview 1

[more=Technical info]
Input File: BABILONISH - Hatred Against the Gods of Life - 09 Cursed by Tainted Blood.mp3
Channels : 2
Sample Rate : 44100
Precision : 16-bit
Duration : 00:03:51.07 = 10189967 samples = 17329.9 CDDA sectors
File Size : 9.34M
Bit Rate : 323k
Sample Encoding: MPEG audio (layer I, II or III)
Comments :
Title=Cursed by Tainted Blood
Artist=P.C.Odio
Album=BABILONISH - Hatred Against the Gods of Life
Tracknumber=9
Year=2019

[/more]

Register
(13) artscald, GorAtheist, infiltrator, lunaraurora, makarytch, Olethros, Rosen, Sanctus, SilentNidhogg, VALERY, vasiljev_sergej, Wail, wreak,
Jun 26 2019, 23:41:54 Los Llanos - Los Llanos (2016)


*Artist: Los Llanos
*Album: Los Llanos
*Year: 2016
*Genre: Instrumental Post Rock
*Country: Argentina
*Format: mp3@CBR320kbps
*Size: 90MB

Tracklist:
1. Conexión 10:21
2. Amanecer 10:55
3. Decero 04:21
4. Cecilia 04:41
5. Acuario 08:53
******************************
Total playing time: 39:11

Preview 1

[more=Technical info]
Input File: LOS LLANOS - LOS LLANOS - 02 Amanecer.mp3
Channels : 2
Sample Rate : 44100
Precision : 16-bit
Duration : 00:10:55.61 = 28912181 samples = 49170.4 CDDA sectors
File Size : 26.4M
Bit Rate : 323k
Sample Encoding: MPEG audio (layer I, II or III)
Comments :
Title=Amanecer
Artist=LOS LLANOS
Album=LOS LLANOS
Tracknumber=2
Year=2016

[/more]

Register
(2) artscald, Olethros,
Jun 22 2019, 01:47:06 Hatyrkan - Demo II [demo] (2019)


*Artist: Hatyrkan
*Album: Demo II [demo]
*Year: 2019
*Genre: Raw Black Metal
*Country: Belgium
*Format: mp3@CBR320kbps
*Size: 29MB

Tracklist:
1. Intro 00:33
2. Pestilential Rats 01:43
3. Infected By Plague 04:09
4. The Stench of Death 02:08
5. Poisoned Air 03:06
6. Annihilate Them All 03:00
7. Outro 00:12
******************************
Total playing time: 14:51



[more=Technical info]
Input File: 003 Hatyrkan - 3. Infected By Plague.mp3
Channels : 2
Sample Rate : 44100
Precision : 16-bit
Duration : 00:04:09.24 = 10991528 samples = 18693.1 CDDA sectors
File Size : 9.97M
Bit Rate : 320k
Sample Encoding: MPEG audio (layer I, II or III)
Comments :
Artist=Hatyrkan
Album=Infected By Plague
Genre=12

[/more]

Register
(10) 1968_janeart, artscald, kim666, nemx, Olethros, Rosen, SilentNidhogg, stub888, vasiljev_sergej, wreak,
Jun 22 2019, 01:33:01 Hatyrkan - Demo I [demo] (2019)


*Artist: Hatyrkan
*Album: Demo I [demo]
*Year: 2019
*Genre: Raw Black Metal
*Country: Belgium
*Format: mp3@CBR320kbps
*Size: 32MB

Tracklist:
1. Worship The Master 01:24
2. Marching To The Front 02:51
3. Burning Corpses 01:49
4. Nächtliches Gassen 03:31
5. Unearthly Voices 04:14
******************************
Total playing time: 13:49



[more=Technical info]
Input File: Hatyrkan - Demo I - 04 Nächtliches Gassen.mp3
Channels : 2
Sample Rate : 44100
Precision : 16-bit
Duration : 00:03:31.63 = 9332839 samples = 15872.2 CDDA sectors
File Size : 8.62M
Bit Rate : 326k
Sample Encoding: MPEG audio (layer I, II or III)
Comments :
Title=Nächtliches Gassen
Artist=Hatyrkan
Album=Demo I
Tracknumber=4
Year=2019

[/more]

Register
(9) 1968_janeart, artscald, kim666, Olethros, Rosen, SilentNidhogg, stub888, vasiljev_sergej, wreak,
Feb 3 2017, 18:43:34 Urskumug - The Throne For My Ego [ep] (2017)
Офигеть,эти унылые латвийцы ещё живы как музыкальная формация

[youtube]kya4AnmCMI4[/youtube]
(1) morbidangelo,
Aug 10 2016, 14:54:57 Раньше юзеров было больше?
Скажу за себя - форум этот люблю (комфортно находиться,сила привычки в ежедневном посещении) и уважаю, он за всё время моего пребывания здесь принёс мне много новых полезных знакомств,а также много новой интересной музыки.

Некоторое время заходил и читал под гостем, а когда появился более-менее нормальный интернет,чтобы я мог качать отсюда, и зарегистрировался. Так что официально я здесь уже 7 лет, а неофициально будет и все 8.

Вопрос,который поднял автор темы,я и сам отмечал раньше - снижение активности на форуме значительно заметно. Пишут и релизят в основном одни и те же люди. Сам релизы я рипать и заливать перестал (иногда было что-то интересное или вообще эксклюзивное) потому, что уже не интересно. 20 условных спасибок не стоят часа потраченного времени, чтобы диск рипнуть, всё оформить, залить и т.д. За этот час я успею сделать гораздо больше полезного конкретно для себя.

Захожу качаю и ставлю спасибки,но очень-очень редко. Следить за новинками здесь достаточно неудобно (хотя часто здесь появляется какой-то редкий альбом или неожиданно попадается интересный релиз,который,не будь МА,обязательно пропустил и не узнал бы о нём вообще),достаточно подписаться на 4-5 больших тематических пабликов и всегда быть в курсе новинок. Слушать онлайн гораздо удобнее. С появлением нормального интернета надобность качать что-либо вообще отпала. Я всё делаю онлайн и не понимаю,зачем сейчас качать что-то

Пишу на форуме теперь и того реже, чем качаю. Не интересно. Срачи и кормление троллей - это занятие мне абсолютно не интересно,а писать по теме альбома - я лучше реальным друзьям (из жизни) в соц.сети напишу и мы этот альбом обсудим,чем тут с рандомными и левыми юзерами общаться (без обид,не все здесь для меня такие,но большинство,мне это тоже не интересно). Опять же, с очень низкой форумной активностью смысл в комментировании даже чего-то важного/того,что зацепило отпадает. Нужен фидбэк,а фидбэк в 3 ответных коммента мне опять же не интересен

Так что получается МА осталась в силу ностальгии и привычки с небольшой долей полезности. Соц.сети и вообще всемирная сеть с гораздо большей скоростью получения информации форум заменили. Конечно, форумы останутся,как и ЖЖшка,но они давно уже потеряли свои ведущие позиции
(2) Genuine Thrashiac, Lucifer,
Jul 11 2016, 19:24:32 Новости Black-направления
Today Stilla streams the title track from their upcoming album "Skuggflock"

[youtube]b8nCIhuQY2E[/youtube]
(4) hpc, infiltrator, rom666, zolotoiskatel,
Jun 23 2016, 21:12:04 Gloomy Grim - The Age Of Aquarius (2016)
Альбом мне вполне понравился. Творчество группы нравится весьма выборочно,ранние альбомы более интересны чем поздние. А учитывая какой перерыв был между этим и предыдущим полноформатом можно считать, что возвращение удалось. Нужное настроение и атмосфера присутствуют.

Register
(17) dimitriusk, Evilded, infiltrator, Korpse, Mirddin, Moonshtook, Nerevar, rabindranad, recber, ripper33, Sanc, toly1917, vasilisk, vasiljev_sergej, vosmidesijatye, Witchlord, Абигор,
Jun 23 2016, 18:54:06 Gloomy Grim - The Age Of Aquarius (2016)


*Artist: Gloomy Grim
*Album: The Age Of Aquarius
*Year: 2016
*Genre: Symphonic Black Metal
*Country: Finland
*Format: mp3@CBR320kbps
*Size: 86MB

Tracklist:
1. The Rise of the Great Beast 04:54
2. Germination 02:53
3. A Lady in White 03:23
4. Beyond the Hate 04:46
5. One Night I Heard a Scream 05:33
6. The Shameful Kiss 03:05
7. The Mist 05:01
8. Time 04:21
9. Light of Lucifer Shine on Me 06:17
10. Trapped in Eternal Darkness 04:05
******************************
Total playing time: 44:18



[more=Extended info]Эксклюзивно для портала

CD-Rip

[youtube]YfG9gTuBtxA[/youtube][/more]

[more=Technical info]
Input File: 02 Germination.mp3
Channels : 2
Sample Rate : 44100
Precision : 16-bit
Duration : 00:02:53.36 = 7645176 samples = 13002 CDDA sectors
File Size : 6.93M
Bit Rate : 320k
Sample Encoding: MPEG audio (layer I, II or III)
Comments :
Title=Germination
Artist=Gloomy Grim
Album=The Age of Aquarius
Tracknumber=2
Genre=Unknown genre

[/more]

Register
(58) 0x13, 1968_janeart, artscald, avather, Ballisargon, BERZERK, Buregon, cancer1974, craP_cillA, d0zer, ddarkthrone, DenisKov, dromord, Evjenne, Femto, Glioma, GoatFucker, Hell_Is_Here, Igor Filth, Ildjarn, Infidel, infiltrator, ironyserg, judaz, Jurmagund, Kasper969, kim666, lestllk, Lux, metala, MMMMM, Mogozoz, morbidangelo, NachtWulf, neoatheist, Nerevar, nikolay81, oldvarg, Ostinato, recber, rom666, Rosen, RUSP73, Sanc, satanist666, sperminator, TeamatSE, Tino, tont, VALERY, varg-38ru, varlam4, Victim of fate, vosmidesijatye, vov7609, Zenial, Абигор, Козлотролль,
Apr 24 2016, 11:07:54 Darkestrah & Al-Namrood - Akyr Zaman/Tajer Al Punqia [split] (2016)
Не Киргизстан и Саудовская Аравия, а Германия/Великобритания хехе

Давайте будем объективными
(1) Kazoth,
Apr 4 2016, 15:11:29 Totalselfhatred, Raventale, Kaosophia, Victim Patch 14.05.2016


14 мая финские депрессивщики Totalselfhatred (Atmospheric Black Metal) впервые выступят в Минске

Музыканты разделят сцену с украинцами Raventale (Atmospheric Blackened Metal), Kaosophia (Black Metal) и вернувшимися в обновлённом составе после двухлетнего молчания минчанами Victim Path (Depressive Dark Metal)

Встреча вконтакте: https://vk.com/tshinminsk
Встреча фэйсбук:

Стоимость билетов:
280 000 бел.рублей - промо-цена
320 000 бел.рублей - предпродажа

паб "Брюгге" (г. Минск, Партизанский проспект, 6а)

Инфолиния:+ 375 29 277 75 22, +375 29 656 04 53


(1) bka,
Mar 29 2016, 16:18:00 Moonsorrow - Jumalten Aika (2016)
Всегда нравились, альбом был действительно долгожданным и ни капли не разочаровал

Всё, за что любят Мунсорроу на альбоме присутствует в полной мере

Осталось стянуть битрейт повыше и уже на полную насладиться альбомом в хорошем качестве
(1) vosmidesijatye,
Jan 12 2016, 13:52:52 Abbath - Abbath (2016)
Скучно и однообразно

Да ещё и вокал слишком далеко задвинут
(3) BERZERK, Shadowman, vosmidesijatye,
May 1 2015, 15:16:55 Six Feet Under - Crypt Of The Devil (2015)
Абсолютно пустой релиз, как и всё от СФУ
(2) Old Vyaine, postED,
Apr 19 2015, 12:02:31 Mallevs Maleficarvm Experience - Promo 2012 [demo] (2012)


*Artist: Mallevs Maleficarvm Experience
*Album: Promo 2012 [demo]
*Year: 2012
*Genre: Blackened Death Metal
*Country: Barbados
*Format: mp3@CBR320kbps
*Size: 29MB

Tracklist:
1. I 08:30
2. II 03:39
******************************
Total playing time: 12:09

[more=Technical info]
Input File: Mallevs Maleficarvm Experience - Promo 2012 - 02 II.mp3
Channels : 2
Sample Rate : 44100
Precision : 16-bit
Duration : 00:03:39.14 = 9663854 samples = 16435.1 CDDA sectors
File Size : 8.83M
Bit Rate : 323k
Sample Encoding: MPEG audio (layer I, II or III)
Comments :
Title=II
Artist=Mallevs Maleficarvm Experience
Album=Promo 2012
Tracknumber=2
Year=2012

[/more]

Register
(8) Darkthronefoad, morbidangelo, randumbum, rom666, Rosen, varlam4, wreak, Герб,
Apr 14 2015, 17:10:06 Shining - IX – Everyone, Everything, Everywhere, Ends (2015)
Вот это ты порадовал, Динозавр!!
(2) necroscum, vosmidesijatye,
Apr 4 2015, 13:05:34 Nattesorg - A Tree Is Known By Its Fruit (2011)
Nattesorg & Vinterfrost
(1) DarkHorde,
Feb 1 2015, 12:36:38 Neolith - Izi.Im.Kurnu-Ki (2015)


*Artist: Neolith
*Album: Izi.Im.Kurnu-Ki
*Year: 2015
*Genre: Death/Black Metal
*Country: Poland
*Format: mp3@CBR320kbps
*Size: 77MB

Tracklist:
1. Hear Our Calling 01:48
2. Of The Angel and His Orison 04:14
3. Chariots of the Gods 04:24
4. E.A. Firebringer 03:35
5. Enlil 05:12
6. Ire Thru Fire 04:22
7. Inferludium 01:24
8. One in the Truth and the Truth Is One 04:18
9. Are We the Lost Ones? 04:27
10. Khufu Arise! 05:18
******************************
Total playing time: 39:02



[more=Technical info]
Input File: 04 E.A. Firebringer.mp3
Channels : 2
Sample Rate : 44100
Precision : 16-bit
Duration : 00:03:34.69 = 9467961 samples = 16102 CDDA sectors
File Size : 8.58M
Bit Rate : 320k
Sample Encoding: MPEG audio (layer I, II or III)
Comments :
Title=Neolith
Album=Izi.Im.Kurnu-Ki
Tracknumber=4

[/more]

Register
(31) ALEXSATHANAS, andreikun, blacky66, Buregon, Darkthronefoad, Evilded, GoatFucker, Hell_Is_Here, Indamage, infiltrator, jollo, Kehl05, Korpse, MikkeFFF, MMMMM, neoatheist, paganheart, princeshr, Rosen, RUDACHUR, Saalingurth, Stringer, Tino, toly1917, VALERY, varg-38ru, varlam4, vov7609, vyacheslav, wtk.412, yuratroll,
Jan 22 2015, 23:36:36 Marduk - Frontschwein (2015)
ЦИТАТА(Old Vyaine @ 22nd January 2015 - 11:01:42) *
Т.е. не далее, чем по 42 год? В чем иначе прикол воспевать тех, кто соснул по девятой усиленной? В том числе из-за безграмотного командования и отсутствия готовности умирать за фатерлянд?


ну да, это не совки, которые не жалели пушечного мяса, пущенного в расход. ведь любой вражеский дзот можно было заткнуть бравым советским воякой, готовым умереть #зародинузасталина

-----------------------------

p.s. А поздний Сатирикон - всё же лучше, что...и далее по тексту
(3) Goatrex, neoatheist, добрыйКот,
Jan 18 2015, 01:33:52 Sotajumala - Raunioissa (2015)
Чуть не пропустил, ждал выхода альбома после того, как клип увидел

[youtube]imUUv64TWIY[/youtube]
(2) crackedbrain, Rosen,
Jan 18 2015, 01:31:00 Ivil's Pandemonium Carnival - Unholy Man (2014)
Обложку по-ходу в пэйнте рисовали
(1) zolotoiskatel,

30 Pages V   1 2 3 > » 
- Lo-Fi Version Support form
Copyrights and abuse reports form
Time is now: 17th November 2019 - 07:49:48