Welcome Guest ( Log In | Register )

История благодарностей участнику SLAYER88 ::: Спасибо сказали: 110 раз(а)
Дата поста: В теме: За сообщение: Спасибо сказали:
Aug 7 2013, 14:00:21 Electric Wizard
ЦИТАТА(Mahmud_1 @ 7th August 2013 - 01:49:00) *
Он как будто марочку заглатывает.)

или его глючит, что он куник кому-то делает
Jul 23 2013, 19:34:58 Новости DOOM Metal
ЦИТАТА(Un4given @ 22nd July 2013 - 21:00:35) *
Wijlen Wij представили новый трек с альбома "Coronachs of the Ω", выход которого ожидается в конце 2013 года.

С дебютным альбомом рядом не валялся.
(1) sorgnatt,
Jul 23 2013, 17:01:15 Black Metal сегодня. Углубленное обсуждение
ЦИТАТА(Haunting @ 23rd July 2013 - 19:47:20) *
Как будто это плохо.

Плохо-неплохо, но это факт. Особенно, если ещё учесть культовость и раскрученность брэнда Helvete.
(1) vosmidesijatye,
Jun 28 2013, 19:32:19 Новости Black-направления
На Turanian Honour Productions вышла семёрка Bilskirnir / Marblebog

(3) infiltrator, lordbathor, некрософ,
Jun 9 2013, 14:00:22 BlazeBirth Hall
BlazeBirth Hall в ближайшее время выпускают альбом BRANIKALD - Тингов наслаждаясь распрей. Как и все самостоятельно сделанные BlazeBirth Hall переиздания, данный альбом будет выпущен в формате digipack.
(1) Абигор,
Jun 9 2013, 13:59:26 Новости Black-направления
BlazeBirth Hall в ближайшее время выпускают альбом BRANIKALD - Тингов наслаждаясь распрей. Как и все самостоятельно сделанные BlazeBirth Hall переиздания, данный альбом будет выпущен в формате digipack.
(5) Goatrex, Hswhhh, infiltrator, Nachtmahr, Vrolok,
May 25 2013, 19:40:35 Marblebog
На сплите будут старые неизданные работы обоих проектов. Треклиста пока нигде не видел, а вот облога уже в сети.
[more="обложка"][/more]
(1) lordbathor,
May 11 2013, 12:16:55 Новости Black-направления
ЦИТАТА(Vrolok @ May 10 2013, 16:55:07) *
[youtube]ZYTz6dW53LA[/youtube]

Какое отношение ЭТО имеет к блэку? Всё, Burzum больше не блэк.
(1) lordbathor,
May 7 2013, 15:56:20 Raven Dark - В Луче Последнем (Ruler's Age) [compilation] (2004)
Кассетная версия без косяков в лосе
Register

пароль тот же
(11) acerbus, Andr, Borderline1991, Goatrex, Hswhhh, Nachtmahr, Patrick, Ruen, sethurius, UlvhedinGrom, varlam4,
Apr 30 2013, 16:36:55 Новости Black-направления
ЦИТАТА(T.H.U.L.E. @ Apr 29 2013, 12:38:50) *
BILSKIRNIR (Ger) / MARBLEBOG (Hun) - Split 7" EP can be pre-ordered now !
Limited to 300 handnumbered copies and the first 100 in pale red clear vinyl & 200 in black vinyl.
Also 13 handnumbered test-press will be available with different cover.
http://turanian-honour.blogspot.com/
http://s020.radikal.ru/i705/1304/55/4dd338bba313.jpg

Одни из моих любимых проектов. Ещё они этот сплит на CD или кассете издали бы, и было бы воовще шикарно.
(1) некрософ,
Apr 28 2013, 15:47:31 Summoning
К своему стыду, открыл для себя Summoning совсем недавно. И это действительно было для меня открытием! Summoning - KVLT!!! pray.gif pray.gif pray.gif
Apr 28 2013, 08:21:30 Новости Black-направления
Прощай, BURZUM! Лично меня никогда не радовал эмбиент в исполнении Варга.
(1) vosmidesijatye,
Apr 27 2013, 11:38:20 Paysage D'Hiver - Das Tor [demo] (2013)
ЦИТАТА(frost192 @ 27th April 2013 - 13:51:03) *
Ты продаешь что ли?
Я бы взял...

Неа, у меня нет его ещё. Хочу как-нибудь раскошелиться и купить себе все доступные релизы, очень уж меня радует этот проект. Насколько мне известно, у нас дистрибьюцией занимается Kunsthauch, кто знает, может быть и этот диск у него скоро появится.
Apr 27 2013, 10:50:07 Paysage D'Hiver - Das Tor [demo] (2013)
Уже доступна для заказа CD-версия, ожидаемая 10 мая сего года.
Apr 27 2013, 10:47:34 Новости Black-направления
С 10 мая доступна CD-версия Paysage d'Hiver - Das Tor

(6) Dmitry1977, Foghuman, HA7tur, Hswhhh, kim666, T.H.U.L.E.,
Mar 11 2013, 16:38:17 Paysage D'Hiver - Das Tor [demo] (2013)
ЦИТАТА(recber @ 4th March 2013 - 19:15:24) *
Интересно нет информации он не собирается его на СД выпускать ?

собирается
(1) recber,
Dec 18 2012, 18:11:42 Instinct - The Black Wound (2012)


*Artist: Instinct
*Album: The Black Wound
*Year: 2012
*Genre: Depressive Black Metal
*Country: United Kingdom
*Format: mp3@CBR320kbps
*Size: 136MB

Tracklist:
01. Thunor Hycgh 18:22
02. Chamber Dark 05:59
03. The Black Wound 35:17
******************************
Total playing time: 59:38

[more=Extended info]...I lay on ancient mounds, in silence
the elusive energy returns to her,
lost within, frozen lunar illumination
where hot blood and cold soil unite,
black manifestation immerses
through abstruse terror comes clarity...

Limited to 300, first 100 numbered in blood.


Input File: 02 - Chamber Dark.mp3
Channels : 2
Sample Rate : 44100
Precision : 16-bit
Duration : 00:05:58.99 = 15831239 samples = 26923.9 CDDA sectors
File Size : 14.4M
Bit Rate : 320k
Sample Encoding: MPEG audio (layer I, II or III)
Comments :
Title=Chamber Dark
Artist=Instinct
Album=The Black Wound
Tracknumber=2/3
Year=2012
Genre=Other

[/more]

Register


Мой первый релиз на арее! smile1.gif
(36) 0x13, 1984, artscald, Buregon, Constantinus I, GAS, Hadelik, kefka, kim666, lestllk, libertine, marilin, Nadja, Naxah, QoroXx, redp, RUDACHUR, SAEIDPARVANEH, sandr666, satanist666, Sathana, Scuns, serg1349, SIAVASH, stub888, tont, VALERY, varg-38ru, varlam4, vasiljev_sergej, ZambuL, Абигор, Госпромнадзор, добрыйКот, некрософ, Шанкара,
Dec 17 2012, 14:31:05 Make A Change... Kill Yourself - Fri (2012)
ИМХО, первый альбом - вершина творчества и один из лучших в depressive bm вообще. Тянет на отлично. 2-й альбом - четыре с плюсом, ну а этот - слааабенькая четвёрочка. Но, в общем, тоже неплох.
(4) CultMetalSerge, smes, sorgnatt, vosmidesijatye,
Dec 17 2012, 10:50:25 Angantyr - Forvist (2012)
Держите лося, кому надо!
Register


 i 

Не забывай подачу, под [HIDE] прятать smile3.gif
 
(1) northerking,
Dec 15 2012, 20:59:28 Bilskirnir & Hunok Project - Untitled (2002)
Если ещё кому-нибудь интересно, то держите mp3 320 CBR:

(2) Goatrex, добрыйКот,
Dec 14 2012, 16:24:41 Esoteric Black Metal
кэп ,,
(1) thrashes,
Nov 15 2012, 19:09:43 Новости Black-направления
Кстати, Darker Than Black планируют также переиздать на CD обе демки Kaevum и отдельно их же полноформатник.
(2) infiltrator, Unforg1ven,
Oct 14 2012, 06:39:00 The Pagan Front (1) добрыйКот,
Aug 24 2012, 14:48:39 Новости Black-направления
Пришло письмецо от Gabor из Tanhu Records.
Почти полностью записан новый альбом Hunok. Осталось записать только вокал. Это будет полностью блэковый (в отличие от предыдущих эмбиентных) альбом в духе песни Hadъr, которую можно найти на сборнике Night and Fog 3. Альбом планируется выпустить в первую очередь на виниле, а также на CD и кассетах. Есть надежда, что релиз будет издан уже в конце этого года.
Флаер:
(6) D.S.Embassy, HA7tur, Hswhhh, infiltrator, Лед, некрософ,
Aug 19 2012, 19:44:08 Чего не хватает нашим бандам
pray.gif BlazeBirth Hall true_black.gif
(1) Chasm,

2 Pages V   1 2 >
- Lo-Fi Version Support form
Copyrights and abuse reports form
Time is now: 1st December 2020 - 18:28:23