Welcome Guest ( Log In | Register )

История благодарностей участнику ironman2002 ::: Спасибо сказали: 127 раз(а)
Дата поста: В теме: За сообщение: Спасибо сказали:
Jul 29 2013, 18:12:40 Sarcofagus - Cycle Of Life (1980)


*Artist: Sarcofagus
*Album: Cycle Of Life
*Year: 1980
*Genre: Heavy Metal
*Country: Finland
*Format: mp3@CBR320kbps
*Size: 103MB

Tracklist:
1. Subconscious Penetrating
2. Back to Black
3. Here I Am
4. Astral Flyer
5. Go to Hell / Incarnation / Cycle Closes
6. Clairvoyant
7. Eternal Silence
8. Feed Me
9. Hermit
10. You're Talkin' Too Much
******************************
Total playing time: 38:00

[more=Technical info]
Input File: 01. Subconscious Penetrating.mp3
Channels : 2
Sample Rate : 44100
Precision : 16-bit
Duration : 00:04:23.11 = 11603019 samples = 19733 CDDA sectors
File Size : 10.5M
Bit Rate : 320k
Sample Encoding: MPEG audio (layer I, II or III)
Comments :
Title=Subconscious Penetrating
Artist=Sarcofagus
Album=Cycle Of Life
Tracknumber=1
Genre=(9)

[/more]

Register
(6) AHBAnep, aorta2, CaptianGoreGrind, marilin, Rosen, wreak,
Jul 28 2013, 19:14:56 Nekromantheon - Divinity Of Death (2010)
flac-rip (320):
Register
(3) fishish, metalfanatic666, smes,
Jul 28 2013, 17:34:34 Whipstriker - Crude Rock 'N' Roll (2010)
flac-rip (320):
Register
(1) marilin,
Jul 28 2013, 16:49:02 Deathhammer - Phantom Knights (2010)
flac-rip (320) + scans:
Register
(1) artscald,
Jul 25 2013, 16:12:17 Darkthrone - The Underground Resistance (2013)
сканы
Register
(3) apo1, ssturm88, unas.slayer.of.gods,
Jul 13 2013, 09:45:10 Umoral - Umoral [ep] (2007)
Вместо мертвого линка:
Register
(3) VALERY, vasiljev_sergej, yuratroll,
Oct 5 2011, 06:48:01 Taake - Noregs Vaapen (2011)
Отличный альбом, походу одним из лучших бм релизов этого года станет.
(1) CelticSPB,
Oct 3 2011, 09:54:56 Ария - Феникс (2011)
Довольно неплохо даже если сравнивать с прежними опусами. Вокалист оказался приятным сюрпризом. Советую послушать всем любителям Арии послеКипелычного периода.
P.S. Зацепила песня по книге Брэдбери.
(1) BlackDjek,
Sep 2 2011, 17:07:21 Opeth - Heritage (2011)
Чувствую будет тошнотворно, но заценить нужно полюбак.
(2) 2012, Anarion,
Jan 29 2011, 09:03:34 Lost Breed - The Evil In You And Me (1993)
Register
(1) VALERY,
Jan 29 2011, 08:49:02 Spirit Caravan - Elusive Truth (2001)
Register
(4) elefant, molly666, Naamakala, stakanoff,
Jan 29 2011, 08:38:40 Spirit Caravan - Jug Fulla Sun (1999)
Register
(4) elefant, molly666, satanath, Дерсу Узала,
Jan 29 2011, 08:22:55 The Obsessed - The Church Within (1994)
Register
(1) Galactus,
Jan 29 2011, 07:55:08 Place Of Skulls - As A Dog Returns (2010)
Register
(6) AHBAnep, AngelSlayerSoul, bka, lawronchik, Luka, stakanoff,
Jan 28 2011, 22:31:19 The Obsessed - Lunar Womb (1991)
Register
(2) infiltrator, VALERY,
Dec 27 2010, 10:27:59 Skyforger - Latviešu Strēlnieki (2000)
320kbps:
Register
(2) Orkkh, sonofsabbath,
Nov 23 2010, 19:48:07 Arch Enemy - Dead Eyes See No Future [ep] (2004)
320KBPS - > Ifolder
Register
(1) gammi707,
Nov 8 2010, 21:38:31 Krieg - The Isolationist (2010)
320kbps:
Register
(11) acerbus, AHBAnep, Constantinus I, fticek, garml2, Ghul, satanist666, Sgrebrd, shay666, Veksha, vov7609,
Nov 8 2010, 08:31:49 Troll
Альбомы глючат, поэтому выкладываю здесь:
Register
(2) fenriz666, Stark,
Sep 27 2010, 10:16:19 Saint Vitus - C.o.d. (children Of Doom) (1993)
CBR@320
Register
(6) AngelSlayerSoul, Brann, green7272, Mo-Ha, thate_topa, VALERY,
Sep 27 2010, 09:33:04 Saint Vitus - Hallow's Victim (1985)
CBR@320:
Register
(1) thate_topa,
Sep 26 2010, 13:22:32 Saint Vitus - Saint Vitus (1984)
CBR@320:
Register
(8) AngelSlayerSoul, kronos, LadyLamia, PachakaKuraka, PoohCunt, thate_topa, Дерсу Узала, Язва,
Feb 13 2010, 18:30:37 Megadeth - Rust In Peace (1990)
QUOTE(andreikun @ Aug 29 2009, 01:32:18) *
что внутри - ремастер - не ремастер, не знаю, оттуда не качал.

Внутри оригинальная версия 90-го года.
Вот дополнительный ресурс на такую же:
Register
(2) infiltrator, thate_topa,
Feb 9 2010, 14:35:16 Hypocrisy - Maximum Abduction [ep] (1996)


*Artist: Hypocrisy
*Album: Maximum Abduction [ep]
*Year: 1996
*Genre: Death Metal
*Country: Sweden
*Format: mp3@CBR320kbps
*Size: 38MB

Tracklist:
1. Roswell 47 03:49
2. Carved Up 03:20
3. Request Denied (EP Version) 04:41
4. Strange Ways (Kiss cover) 03:24
******************************
Total playing time: 15:14

Register
(13) -=Lion=-, Aresson, Golfzilla, Graf Suvoroff, Hater, Koscheyushka, Lord Noctua, Mist13Signifier, philipanathema, Prisoner, Sky7Daemon, sperminator, Zahrim,
Feb 7 2010, 22:16:12 Children Of Bodom - Tokyo Warhearts [live] (1999)
Ссылки все мертвы. Так что:
Register


ENJOY!
(3) AHBAnep, Xaphan, ZA670,

2 Pages V   1 2 >
- Lo-Fi Version Support form
Copyrights and abuse reports form
Time is now: 9th December 2019 - 09:01:07