Welcome Guest ( Log In | Register )

История благодарностей участнику uroboros ::: Спасибо сказали: 691 раз(а)
Дата поста: В теме: За сообщение: Спасибо сказали:
Nov 28 2012, 13:24:58 Rahvira - Misht Hay [studio clip] (2011)
ЦИТАТА(Vishapakahr @ Nov 28 2012, 13:37:14) *
Освобаждали (с помощью местного населения) , но это было империалистическая експансия а не помощь + было такая же ига как у мусульман , с отличием лишь религиозных притеснении так что благодарить мы не должны.
ну да,ну да сами вы освобождались.меня очень забавляют антирусские вопли представителей "братских народов",предки которых с разорваной жoпой прибежали к русскому Ваньке прося о помощи.
а по поводу империалистической экспансии - вы реально думаете что кто-то должен вас освобождать за красивые глазки?если вы о чем-то просите,то уж не обессудьте,если у вас возьмут что-то взамен.
(2) H8man, nbhfy,
Oct 19 2012, 09:49:19 Gergovia - Silence! (2010)
ЦИТАТА(AbsolutOmega @ Oct 19 2012, 12:18:53) *
Так хорошо что сильные мира сего еще аж целую неделю не будут славить говно и по детски протестовать в годных темах. Благодать.

сильные мира сего могут заниматся этим и с двух других своих аккаунтов.но там хотя-бы в тексте пробелы ставятся там где надо,а не посредине слова,и капслок не используется в соответствии с рэндомным алгоритмом.
Oct 16 2012, 17:09:23 Anaal Nathrakh - Vanitas (2012)
ЦИТАТА(Daale @ Oct 16 2012, 19:45:41) *
А тебе, посоветую для начала с факом Толмацкого познакомится
фак Толмацкого это истина в последней инстанции типа?чего вы с ним носитесь?

з.ы.альбом гoвно,кстати.
(1) SAPOGi,
Oct 16 2012, 10:16:20 Baphomet - Death In The Beginning [best of/compilation] (2012)
ЦИТАТА(aesteticvice @ Oct 16 2012, 12:50:22) *
это тестовое демо дебютного альбома 91 года с двумя концертными бонусами, по сути демо The Dead Shall Inherit, помню у меня было два варианта из польши, еще удивлялись почему один с одной картинокой 91 года, а второй с другой 92 года 1488.gif , где-то в дебрях моих хардов лежат обе версии


Baphomet - Inherit The Dead (Test Pressing) (1991)
(1) galder11,
Oct 12 2012, 13:09:41 Dissection - Live Rebirth [live] (2010)
ЦИТАТА(zombiek78 @ Oct 12 2012, 15:46:49) *
Неужели ты думаешь,что убить чёрного,отсидеть семь лет(хоть и в шведской тюрьме),выйти и продолжить Dissection практически заново,это всё просто, как сходить в магазин за хлебом? На мой взгляд для этого надо иметь сильную волю.
возможно,я просто не вижу в этом повода для причисления к лику святых - у меня сосед недавно откинулся - 10 лет сидел,и тоже не предал убеждений - так же не работает,ворует и пьет.
(1) 2012,
Oct 12 2012, 08:16:06 Master's Hammer - Mantras (2009)
Register
(14) Aresson, Black Arts, Disgorge666, Isildur, juand, kauyumari, MEmethuselah, Narasimha, S6T6N, Soleil14, thenecromancer, varg-38ru, varlam4, Wotanwatch,
Oct 12 2012, 08:13:56 Master's Hammer - Šlágry (1995)
Register
(10) Black Arts, juand, Lux, metalfanatic666, Narasimha, nbhfy, Soleil14, thenecromancer, varlam4, zlvd,
Oct 12 2012, 08:12:44 Master's Hammer - Ritual & The Jilemnice Occultist [re-issue] (2001)
Register
(5) Disgorge666, marilin, souldeathtoxic, thenecromancer, varlam4,
Oct 12 2012, 08:11:02 Master's Hammer - Jilemnicky Okultista [demo] (1992)
Register
(7) Black Arts, Legacy100, Olethros, Soleil14, thenecromancer, varlam4, wolverine,
Oct 12 2012, 08:09:25 Master's Hammer - Ritual (1991)
Register
(9) Black Arts, Exxie, igore2911, juand, Legacy100, nbhfy, Oskal666, thenecromancer, Typhoid,
Oct 12 2012, 08:08:22 Master's Hammer - Klavierstuck [ep] (1991)
Register
(4) igore2911, Necroeire, Soleil14, thenecromancer,
Oct 12 2012, 08:06:30 The Master's Hammer - Fall Of Idol [demo] (1990)
Register
(4) muskatnuss, Necrodictator, Soleil14, thenecromancer,
Oct 12 2012, 08:05:09 Master's Hammer - Live In Zbraslav 18.5.1989 [demo] (1989)
Register
(4) cancer1974, Olethros, SatanMyMaster666, thenecromancer,
Oct 12 2012, 08:04:01 Master's Hammer - The Mass [demo] (1989)
Register
(3) jorgeguldur, thenecromancer, wolverine,
Oct 12 2012, 08:02:58 Master's Hammer - Finished Demo [demo] (1988)
Register
(6) azkeel, Olethros, Soleil14, thenecromancer, wolverine, Wotanwatch,
Oct 12 2012, 08:01:20 Master's Hammer - The Ritual Murder [demo] (1987)
Register
(2) Legacy100, souldeathtoxic,
Oct 12 2012, 06:35:53 Seirom - Forest [ep] (2011)


*Artist: Seirom
*Album: Forest [ep]
*Year: 2011
*Genre: Ambient
*Country: Netherlands
*Format: mp3@CBR320kbps
*Size: 50MB

Tracklist:
1.First Snow 6:46
2.Soil 8:06
3.Morning 4:59
******************************
Total playing time: 19:51

[more=Extended info]


Input File: 01 First Snow.mp3
Channels : 2
Sample Rate : 44100
Precision : 16-bit
Duration : 00:06:46.87 = 17942923 samples = 30515.2 CDDA sectors
File Size : 17.8M
Bit Rate : 350k
Sample Encoding: MPEG audio (layer I, II or III)
Comments :
Title=First Snow
Artist=Seirom
Album=Forest
Tracknumber=1
Year=2011
Genre=Ambient

[/more]

Register
(10) artscald, fuck3r, Konst, Lucius Eternal, RUSP73, smes, svndvst, Tyrone, Un4given, некрософ,
Oct 10 2012, 10:17:52 Atheos - The Human Burden (2012)
ЦИТАТА(aesteticvice @ Oct 10 2012, 11:36:09) *
правда на некоторых электрогитарах используется система тремоло, позволяющая изменять тон звука, может поэтому кажется что звуковой штрих дергается и прыгает с одной тональности на другую
епать,это надо-же такое написать normal_Homerdisgust3.png
(1) 2012,
Oct 9 2012, 15:07:01 A Tribute To Nordic Scene - Скандинавский Ветер [best of/compilation] (2012)
ЦИТАТА(Anhra Mainyu @ Oct 9 2012, 16:08:11) *
Север никогда не правил
пофиксил
(1) Deze,
Oct 8 2012, 16:05:40 Demonologists & Gnaw Their Tongues - Demonologists/Gnaw Their Tongues [split] (2012)


*Artist: Demonologists & Gnaw Their Tongues
*Album: Demonologists/Gnaw Their Tongues [split]
*Year: 2012
*Genre: Death Industrial/Harsh Noise | Dark Ambient/Noise
*Country: United States | Netherlands
*Format: mp3@CBR320kbps
*Size: 78MB

Tracklist:
Demonologists
1.Midnight 2:23
2.Tunneling Through a Prison of Emptiness 4:14
3.Vats of Blood 4:59
4.Flesh Melting From Bone 5:48
Gnaw Their Tongues
5.The Acolyte Procession 9:30
6.Angels Whisper of Pillage and Rape 10:09
******************************
Total playing time: 37:03

[more=Extended info]


Input File: 01 - Midnight.mp3
Channels : 2
Sample Rate : 44100
Precision : 16-bit
Duration : 00:02:23.99 = 6349783 samples = 10799 CDDA sectors
File Size : 5.80M
Bit Rate : 323k
Sample Encoding: MPEG audio (layer I, II or III)
Comments :
Title=Midnight
Artist=Demonologists
Album=Split with Gnaw Their Tongues
Tracknumber=1
Year=2012
Genre=Death Industrial/Harsh Noise

[/more]
Register
(20) 555, artscald, brth, craP_cillA, CryptOn, ddarkthrone, ENDSMOUTH, Hell_Is_Here, jaxxxon, kefka, Lanceatum, LazarShadow, Lucius Eternal, marilin, Rikardo90, RUSP73, spiritualdecay666, tamerz, Tyrone, Wolftribes,
Oct 8 2012, 16:04:02 Corephallism & Gnaw Their Tongues - Corephallism/Gnaw Their Tongues [split] (2012)


*Artist: Corephallism & Gnaw Their Tongues
*Album: Corephallism/Gnaw Their Tongues [split]
*Year: 2012
*Genre: Death Industrial | Dark Ambient/Noise
*Country: United States | Netherlands
*Format: mp3@CBR320kbps
*Size: 45MB

Tracklist:
Corephallism
1. Abandonment 5:29
2. Rapes of Convenience 3:19
Gnaw Their Tongues
3. A Moral Guide to Self-castration and Necrophilia 10:40
******************************
Total playing time: 19:28

[more=Extended info]


Input File: 01. Abandonment.mp3
Channels : 2
Sample Rate : 48000
Precision : 16-bit
Duration : 00:05:29.26 = 15804432 samples ~ 24694.4 CDDA sectors
File Size : 13.4M
Bit Rate : 325k
Sample Encoding: MPEG audio (layer I, II or III)
Comments :
Title=Abandonment
Artist=Corephallism
Album=Split with Gnaw Their Tongues
Tracknumber=1
Year=2012
Genre=Death Industrial

[/more]
Register
(16) 555, artscald, ddarkthrone, ENDSMOUTH, Hell_Is_Here, jaxxxon, kefka, Lanceatum, marilin, Razorbladeswaltz, Rikardo90, RUSP73, spiritualdecay666, tamerz, Tyrone, Wolftribes,
Oct 5 2012, 12:50:53 Von
ЦИТАТА(paganheart @ Oct 5 2012, 14:36:27) *
У товарищей по ходу выходит наконец-то дебютный альбом 1488.gif

товарищи решили перезаписать старый материал - жди беды.
(2) DarkHorde, Mahmud_1,
Oct 1 2012, 17:28:20 Cacodaemon - Tales Of Demoncy (2007)
ЦИТАТА(Eexistance @ Sep 17 2012, 21:33:33) *
Реапните, пожалуйста, у кого осталось.

параметры те же что и в первом посте
Register
(1) lawronchik,
Sep 20 2012, 10:48:01 Krüger - Рождённый Мраком (1992)
ЦИТАТА(avkruchinin @ Sep 20 2012, 12:10:25) *
В своём ключе это типа Дизель Рок, а здесь под КМ определённо 1488.gif

в ж"пу дизель рок,первые два Крюгера - вот где угар!
(3) hammer, Necrodictator, Госпромнадзор,
Sep 17 2012, 19:58:46 Саундтрек Апокалипсиса
ЦИТАТА(Фо @ Sep 9 2012, 01:17:19) *
К сожалению, большенство групп даного, хмммм..., тренда, не представляют из себя, как композиторы, ничего интересного, и кроме атмосферыо.
пoх на композиторство,главное что от этой музыки сырой землей воняет.
ЦИТАТА(DarkHorde @ Sep 9 2012, 16:41:51) *
Так, к слову о трендах и композиторах: Одно время занимался уроками игры на гитаре, потом стал старше не до этого стало. А несколько лет назад приобрёл себе электрогитарку, так сказать осуществил мечту юности. И взялся на своё обучение, в основном по видеоурокам от Забуруев, Richie Kotzen, Дмитрий Агеев и т.п. И моё видение музыки, исполнения, техника игры на гитаре на порядок подросли.
Так вот к чему веду я: Приобретя новый опыт я стал смотреть на некоторые группы, тяжмета, несколько иначе, более глубоко вникать в некоторые нюансы. И пришёл к выводу, что большинство групп thrash, death, black, grind особо-то и не заморачиваются с техникой, по-большому счёту всё сводится к банальности (открытая-струна-квинт), а некоторые группы с приставкой technical у меня вызывают лишь насмешку. Пока некоторые ахают и вздыхают, я вижу в этом банальность.
Вот так и получается: пока дилетанты ахают и охают, профессионалы на это смотрят скептически, и ржут...

метал двигали диллетанты - у профессионалов слишком сухие мозги,им тяжело ломать установленные школой/традицией рамки(это особенно заметно на выпускниках муз-уличишь),Веном на первых альбомах играли абы как,Дестракшн/Содом/Креатор на ранних этапах с трудом попадали в ритм,Слеер до сих пор играют соляки в очень специфической манере положив болт на гаммы - все эти группы явились краеугольными камнями в здании экстремального металла.

з.ы.когда-то мне было интересно копаться в технических/структурных изысках - огромный пласт музыки воспринимался из за этого довольно специфически - мои друзья до сих пор считают что Бурзум и Бэтори не умели играть(по большому счету это так и есть),но со временем это прошло - появилось совсем другое понимание музыки - технические приемы и структурные изыски это всего лишь форма,в музыке важно то чувство которое она в тебе пробуждает,те картинки,запахи и ощущения которые она будит в твоей голове.ты можешь накрутить сколько угодно сложные и навороченные структуры из рифов (это все из разряда ремесла - дело наживное,работа головы и рук,но не сердца)и за всем этим глянцевым и цветастым фасадом скрыть пустоту - металл с приставкой прогрессив и техникал зачастую не более чем формотворчество,музыка для музыкантов.
а вот,как сказал Форстрат,написать двух-аккордный угар в духе позднего Дарктрона гораздо сложнее - в этом случаее тебе нечем будет прикрыть свою душевную наготу,для этого,что-ли,божья искра нужна.
(4) Alex5, Beazth, DarkHorde, Defedokrum,

8 Pages V   1 2 3 > » 
- Lo-Fi Version Support form
Copyrights and abuse reports form
Time is now: 18th October 2019 - 16:48:42