Welcome Guest ( Log In | Register )

История благодарностей участнику Elk ::: Спасибо сказали: 1041 раз(а)
Дата поста: В теме: За сообщение: Спасибо сказали:
Oct 4 2015, 19:25:20 Heart Of A Coward - Deliverance (2015)


*Artist: Heart Of A Coward
*Album: Deliverance
*Year: 2015
*Genre: Progressive Metalcore
*Country: United Kingdom
*Format: mp3@CBR320kbps
*Size: 107MB

Tracklist:
01. Hollow
02. Miscreation
03. Turmoil I: Wolves
04. Turmoil II: The Weak Inherit The Earth
05. Anti-Life
06. A Grain Of Sand
07. Mouth Of Madness
08. Deliverance
09. Skeletal I: Mourning Repairs
10. Skeletal II: Arise
******************************
Total playing time: 46:49



[more=Technical info]
Input File: 01. Hollow.mp3
Channels : 2
Sample Rate : 44100
Precision : 16-bit
Duration : 00:04:16.81 = 11325321 samples = 19260.8 CDDA sectors
File Size : 10.3M
Bit Rate : 322k
Sample Encoding: MPEG audio (layer I, II or III)
Comments :
Title=Hollow
Artist=Heart of a Coward
Album=Deliverance
Tracknumber=1/10
Year=2015
Genre=Metalcore

[/more]

Register
(11) Bloodn Lord, DenisKov, infiltrator, MeatKnife, metala, Ostinato, Rosen, SatanicPanzer, varlam4, wreak, ТоХа,
Mar 2 2015, 17:21:52 All That Remains - The Order Of Things (2015)
ЦИТАТА(paganheart @ Mar 2 2015, 18:52:17) *
Бухаем-с?)))

Наливай.
Jan 19 2015, 22:05:22 Napalm Death - Apex Predator - Easy Meat (2015)
ЦИТАТА(6666666 @ Jan 20 2015, 00:55:06) *
Пока не выйдет свежий Cradle of Filth или Slayer - таковых не будет.

С такими заявлениями лучше в тему "металлический юмор" smile3.gif
(1) vosmidesijatye,
Jan 19 2015, 21:53:40 Enter Shikari - The Mindsweep (2015)
Мне кажется, творчество этой группы наиболее ёмко характеризуется словом "ссанина".
(1) ArtiZenit,
Jan 19 2015, 18:51:37 Napalm Death - Apex Predator - Easy Meat (2015)
Очень хорошо. Пока лучший в новом году.
(1) neoatheist,
Jan 4 2015, 12:22:19 Mechina - Acheron (2015)
Зато стабильно. Каждый январь у них новый высер.
(1) Emm Human,
Dec 16 2014, 20:31:36 AC/DC - Rock Or Bust (2014)
ЦИТАТА(cesar @ Dec 9 2014, 23:47:03) *
Легковесно.


ЦИТАТА(neoatheist @ Dec 16 2014, 22:59:17) *
легенько

Ой да, раньше-то брутал играли.
(2) 6666666, CRUNCH,
Dec 2 2014, 18:10:40 Посоветуйте качественный MDM
ЦИТАТА(V1nterch @ Dec 2 2014, 20:45:54) *
В свою очередь может кто посоветовать бронебойной и мелодичной шведятинки? Можно мдм на стыке с дэтом. Ближайший ориентир - Evocation 2008 года. Свежак я скорее всего слышал, древний олдскул тоже, а вот то, что выходило в середине 2000-х годов мог пропустить.

Можешь попробовать вот это:
[topic="24191"]Zonaria - Infamy And The Breed (2007)[/topic]
(1) V1nterch,
Dec 2 2014, 17:11:31 Born From Pain - Dance With The Devil (2014)


*Artist: Born From Pain
*Album: Dance With The Devil
*Year: 2014
*Genre: Hardcore
*Country: Netherlands
*Format: mp3@CBR320kbps
*Size: 102MB

Tracklist:
01. As Above, So Below
02. Cause & Effect
03. Eye In The Sky
04. Truth Of The Streets (Feat. Matthi Nasty)
05. Chokehold
06. Lone Wolf
07. Dance With The Devil
08. Roots
09. Bleed The Poison (Feat. Scott Terror)
10. Stand Free (Feat. Def P)
11. Nomad (Feat. Lalo, Aleks & Riz King Ly Chee)
12. Hidden Track
******************************
Total playing time: 31:07



[more=Technical info]
Input File: 02 - Cause & Effect.mp3
Channels : 2
Sample Rate : 44100
Precision : 16-bit
Duration : 00:02:13.19 = 5873547 samples = 9989.03 CDDA sectors
File Size : 7.34M
Bit Rate : 441k
Sample Encoding: MPEG audio (layer I, II or III)
Comments :
Title=Cause & Effect
Artist=Born From Pain
Album=Dance with the Devil
Tracknumber=2
Year=2014

[/more]

Register
(10) crackedbrain, DarkHorde, gwar, Konst, MeathookSeed, Moonshtook, mort, scrollbar, ShmiT, Ugly13,
Dec 1 2014, 19:51:02 Лучшая песня группы ****ист
ЦИТАТА(ddx1 @ Dec 1 2014, 15:23:07) *
frost192
...
Inexist (Ярославль)

Почему я не удивлён? smile3.gif
Nov 30 2014, 18:37:52 AC/DC - Rock Or Bust (2014)
Зашел в тему с альбомом AC/DC, а тут обсуждают пиво и Арию.
(2) Diflock, vosmidesijatye,
Nov 29 2014, 08:41:17 The Black Keys - Rubber Factory (2004)
Хорошая группа, и это лучший их альбом.
(1) MeatKnife,
Nov 28 2014, 21:06:04 Лучшая песня группы ****ист
Atheist
Elitist
Illogicist
Necrophagist
Pathologist
(1) ddx1,
Nov 24 2014, 10:13:16 Deicide - Legion (1992)
О, я смотрю главный эксперт всея металареи снова в деле pray.gif Покровы сорваны! vosmidesijatye, жги ещё!
(3) cesar, Chasm, gena,
Nov 22 2014, 20:12:43 Prey For Nothing - The Reasoning (2014)
Трек на ютубе отбил желание качать напрочь.
[youtube]QSUzwXq7rMw[/youtube]
(3) DenisKov, Rosen, V1nterch,
Nov 20 2014, 15:42:21 Mors Principium Est - Dawn Of The 5th Era (2014)
ЦИТАТА(frost192 @ Nov 20 2014, 18:37:18) *
Это же не МДМ.

ЦИТАТА(6666666 @ Nov 20 2014, 18:39:10) *
Пошёл вон! 1488.gif

frost192, останешься после уроков!
(2) BleedingSun, vosmidesijatye,
Nov 20 2014, 15:23:46 Mors Principium Est - Dawn Of The 5th Era (2014)
ЦИТАТА(neoatheist @ Nov 20 2014, 17:53:26) *
Намек на то, что тема-опросник "Лучшая МДМ песня всех времен" не за горами? 1488.gif

Да все и так знают, что это At the Gates - Blinded by Fear 25.gif
(2) BrutalHero, ripper33,
Nov 19 2014, 21:18:50 Mors Principium Est - Dawn Of The 5th Era (2014)
ЦИТАТА(MeatWolf @ Nov 20 2014, 00:10:03) *
Insomnium и только ОН.

Я был всеми руками "за" до того момента как послушал сабж smile1.gif
(1) BleedingSun,
Nov 19 2014, 20:10:48 Mors Principium Est - Dawn Of The 5th Era (2014)
ЦИТАТА(MeatWolf @ Nov 19 2014, 20:58:44) *
Альбом почти наверняка отстой.

ЦИТАТА(Old Vyaine @ Nov 19 2014, 21:47:25) *
Ну так и группа не фонтан.

17.gif Да вы упоролись!
(7) aserius, BleedingSun, Evilded, Mplast, neoatheist, Sangre, White_eagle,
Nov 18 2014, 19:53:22 Лучшая Death Metal песня ever, часть 5
Morbid Angel - Blessed are the Sick
Fall From Grace

Deicide - Deicide
Dead By Dawn

Obituary - Cause of Death
Chopped In Half

Death - Leprosy
Pull The Plug

Death - Spiritual Healing
Low Life, Genetic Reconstruction

Death - Individual Thought Patterns

The Philosopher

Cannibal Corpse - Tomb Of The Mutilated
Hammer Smashed Face
(2) BrutalHero, Emm Human,
Nov 17 2014, 09:05:29 Лучшая Death Metal песня ever, часть 4
Ладно, продублирую в комментарии:
Алтари Морбидов, Иммо, Дэт - все 4 штуки.
(1) BrutalHero,
Nov 16 2014, 17:22:11 Bloodbath - Grand Morbid Funeral (2014)
Вокал как вокал. Шведский скрежет гитар доставляет. Альбом вполне сносный.
(2) Black Cat, Metalass,
Nov 16 2014, 11:46:55 Лучшая Death Metal песня ever, часть 4
У Иммо столько выдающихся песен, что трудно выбрать лучшую. Для меня, пожалуй, вот эта.
[youtube]mLrkBa9Qi48[/youtube]
(1) SAPOGi,
Nov 11 2014, 20:16:04 Morgroth - Surgical Intervention (2014)
Вот не буду их слушать за такой подлый приёмчик с названием.
(1) neoatheist,
Nov 10 2014, 20:22:58 Machine Head - Bloodstone & Diamonds (2014)
Я вот и в первый раз до конца не осилил. Ну его нафиг.
(2) crackedbrain, hammer,

15 Pages V   1 2 3 > » 
- Lo-Fi Version Support form
Copyrights and abuse reports form
Time is now: 6th July 2020 - 00:22:32