Welcome Guest ( Log In | Register )

История благодарностей участнику Ambercandle ::: Спасибо сказали: 1667 раз(а)
Дата поста: В теме: За сообщение: Спасибо сказали:
Aug 1 2019, 21:16:12 Chaotian - Where Gods Excarnate [demo] (2018)


*Artist: Chaotian
*Album: Where Gods Excarnate [demo]
*Year: 2018
*Genre: Death Metal
*Country: Denmark
*Format: mp3@CBR320kbps
*Size: 46MB

Tracklist:
1. Paroxysmal Birth 06:02
2. Where Gods Excarnate 08:52
3. Chaoskampf 05:31
******************************
Total playing time: 20:25

[more=Extended info][/more]

[more=Technical info]
Input File: 02 Where Gods Excarnate.mp3
Channels : 2
Sample Rate : 44100
Precision : 16-bit
Duration : 00:08:52.70 = 23491850 samples = 39952.1 CDDA sectors
File Size : 21.4M
Bit Rate : 322k
Sample Encoding: MPEG audio (layer I, II or III)
Comments :
Title=Where Gods Excarnate
Artist=Chaotian
Album=Where Gods Excarnate (Demo)
Tracknumber=2
Year=2018
Genre=Death Metal

[/more]

Register
(8) artscald, desekrator, Hell_Is_Here, Olethros, Rosen, stumpheavyrock, vyacheslav, Герб,
Jul 12 2019, 02:12:01 Autophagy - Demo [demo] (2018)


*Artist: Autophagy
*Album: Demo [demo]
*Year: 2018
*Genre: Death Metal
*Country: United States
*Format: mp3@CBR320kbps
*Size: 34MB

Tracklist:
1. Intro / Lure of the Labyrinth 04:56
2. Charnel Hall 03:57
3. Beneath the Moss, Between the Roots 03:17
4. Supposed to Rot (Nihilist cover) 01:58
******************************
Total playing time: 14:08



[more=Technical info]
Input File: Autophagy - demo - 02 Charnel Hall.mp3
Channels : 2
Sample Rate : 44100
Precision : 16-bit
Duration : 00:03:57.07 = 10454963 samples = 17780.5 CDDA sectors
File Size : 9.65M
Bit Rate : 326k
Sample Encoding: MPEG audio (layer I, II or III)
Comments :
Title=Charnel Hall
Artist=Autophagy
Album=demo
Tracknumber=2
Year=2018

[/more]

Register
(11) artscald, Corpuscul, GorAtheist, Olethros, Ostinato, Pinhead666, Rosen, russ777, scorpionmk, wreak, Герб,
Jun 28 2019, 23:32:57 Contaminated & Kutabare - Death Sick/Funeral Erection [split] (2019)


*Artist: Contaminated & Kutabare
*Album: Death Sick/Funeral Erection [split]
*Year: 2019
*Genre: Death Metal | Death Metal/Grindcore
*Country: Australia | Australia
*Format: mp3@CBR320kbps
*Size: 21MB

Tracklist:
Contaminated:
1. Death Sick 03:57
Kutabare:
2. Funeral Erection 03:58
******************************
Total playing time: 7:55

[more=Extended info]BUY DIGITAL/VINYL:
BLOOD HARVEST RECORDS is proud to present a special split 7" between CONTAMINATED and KUTABARE. Showcasing the most vile and literally sickest death metal Australia has to offer, both bands offer an exclusive track here. CONTAMINATED are up first, and blast forth with a gutsfucking fountian of pustulent deathgrind, arguably uglier and more crushing than their widely celebrated Final Man debut album for BLOOD HARVEST. KUTABARE conclude the split with a seasickening slice of equally deathgrinding filth. Their track here is their first since their comeback split recording with Dead Root last year, having been disbanded since 2006. Old ugliness, arisen from the sewer-drenched grave - truly go down under with this split, down where the slime live![/more]

[more=Technical info]
Input File: CONTAMINATED - Death Sick - Funeral Erection - 01 Death Sick.mp3
Channels : 2
Sample Rate : 44100
Precision : 16-bit
Duration : 00:03:56.97 = 10450333 samples = 17772.7 CDDA sectors
File Size : 9.59M
Bit Rate : 324k
Sample Encoding: MPEG audio (layer I, II or III)
Comments :
Title=Death Sick
Artist=CONTAMINATED
Album=Death Sick / Funeral Erection
Tracknumber=1
Year=2019

[/more]

Register
(6) FUDEDOR, GorAtheist, Hell_Is_Here, Rosen, wreak, Герб,
Jan 5 2019, 20:29:43 Caustic Vomit - Festering Odes To Deformity [demo] (2018)
ЦИТАТА(Razorbladeswaltz @ Jan 5 2019, 00:04:29) *
mirror, pls

320 kbps, 71 mb, bandcamp rip.
Register
(2) nikolay81, Razorbladeswaltz,
Oct 20 2018, 21:54:11 Undergang - Den Dobbelte Grav [ep] (2018)


*Artist: Undergang
*Album: Den Dobbelte Grav [ep]
*Year: 2018
*Genre: Death Metal
*Country: Denmark
*Format: mp3@CBR320kbps
*Size: 26MB

Tracklist:
1. Den dobbelte grav 05:48
2. Powder Burns 04:35
******************************
Total playing time: 10:23

[more=Extended info]"DEN DOBBELTE GRAVE" was recorded in Earhammer Studio with Greg Wilkinson from July 28th till August 2nd 2016 during the same session as "MISANTROPOLOGI"
Mixing and mastering by Greg Wilkinson

Lyrics for "Den dobbelte grav" is written by Benni Bødker, Danish author (and much more) specializing in writing horror stories for the younger audience.
The 7" release of this EP is created by the idea from Benni and build around an anthology book he's written called "Den dobbelte grav" (released November 2018) to which UNDERGANG's David Mikkelsen has provided illustrations. On the side of his book Benni is releasing this 7" EP, both presented by his publishing company Corto in November 2018.
More info on Benni and Corto can be found here (in Danish): www.benniboedker.dk
www.forlagetcorto.dk

Music for "Den dobbelte grav" is written and performed by UNDERGANG
"Powder Burns" was originally written by BOLT THROWER and on this recording made GROSS by UNDERGANG[/more]

[more=Technical info]
Input File: UNDERGANG - Den dobbelte Grav - 01 Den dobbelte grav.mp3
Channels : 2
Sample Rate : 44100
Precision : 16-bit
Duration : 00:05:48.55 = 15370835 samples = 26140.9 CDDA sectors
File Size : 14.1M
Bit Rate : 323k
Sample Encoding: MPEG audio (layer I, II or III)
Comments :
Title=Den dobbelte grav
Artist=UNDERGANG
Album=Den dobbelte Grav
Tracknumber=1
Year=2018

[/more]

Register
(24) AHBAnep, andreikun, Anhra Mainyu, artscald, BERZERK, fishish, FUDEDOR, Hell_Is_Here, judaz, marilin, Metalass, METALHUNTER, Noobsaibot71, Ostinato, Rosen, RUSP73, Tino, troll_swamp, VALERY, varlam4, Vidder242, vyacheslav, wtk.412, Герб,
Sep 21 2018, 21:38:26 Abysmal Lord & Crurifragium - Abysmal Lord/Crurifragium [split] (2018)


*Artist: Abysmal Lord & Crurifragium
*Album: Abysmal Lord/Crurifragium [split]
*Year: 2018
*Genre: Black Metal | Black Metal
*Country: United States | United States
*Format: mp3@CBR320kbps
*Size: 40MB

Tracklist:
Abysmal Lord:
1. Throne of God (Forced Abdication) 04:02
2. Burning Flesh Oblation 03:50
Crurifragium:
3. Slavering Maw of Archfiendii / Verminous Baptism 09:11
******************************
Total playing time: 17:03



[more=Technical info]
Input File: ABYSMAL LORD - CRURIFRAGIUM - Split - 01 ABYSMAL LORD- Throne of God (Forced Abdication).mp3
Channels : 2
Sample Rate : 44100
Precision : 16-bit
Duration : 00:04:02.74 = 10704966 samples = 18205.7 CDDA sectors
File Size : 9.79M
Bit Rate : 323k
Sample Encoding: MPEG audio (layer I, II or III)
Comments :
Title=ABYSMAL LORD: Throne of God (Forced Abdication)
Artist=ABYSMAL LORD / CRURIFRAGIUM
Album=Split
Tracknumber=1
Year=2018

[/more]

Register
(24) artscald, Boozer, Doooomed, FUDEDOR, Hell_Is_Here, helvetestoner, kefka, kim666, lunaraurora, marilin, Ostinato, Rosen, RUSP73, sacrut, satanist666, SilentNidhogg, stub888, Tino, Tyler, VALERY, varg-38ru, varlam4, vasiljev_sergej, Герб,
Sep 14 2018, 16:10:11 Hyperdontia - Nexus Of Teeth (2018)
Here is a proper rip without any sound issues. 320 kbps.
Register
(23) aesteticvice, Amsterdam, andreikun, BERZERK, boba, Boozer, cist, Hell_Is_Here, helvetestoner, infiltrator, insufferable, JohnnyBravo, Mist13Signifier, necromasochist, older68, Proteus_666, Razorbladeswaltz, realnspace, Sabbathian, Spunkynut, THROWER666, Tino, Tyler,
Aug 28 2018, 23:13:11 Ensepulcher - Tour Tape 2018 [demo] (2018)


*Artist: Ensepulcher
*Album: Tour Tape 2018 [demo]
*Year: 2018
*Genre: Death Metal
*Country: United States
*Format: mp3@CBR320kbps
*Size: 18MB

Tracklist:
1. Pulsations in the Rot 03:37
2. Inherent Degeneration 04:25
******************************
Total playing time: 8:02

[more=Technical info]
Input File: Ensepulcher - Tour Tape 2018 - 01 Pulsations in the Rot.mp3
Channels : 1
Sample Rate : 44100
Precision : 16-bit
Duration : 00:03:37.32 = 9583988 samples = 16299.3 CDDA sectors
File Size : 8.85M
Bit Rate : 326k
Sample Encoding: MPEG audio (layer I, II or III)
Comments :
Title=Pulsations in the Rot
Artist=Ensepulcher
Album=Tour Tape 2018
Tracknumber=1
Year=2018

[/more]

Register
(4) desekrator, Rosen, Spork, Velmi,
Aug 2 2018, 18:05:10 Nightly Mass - Во Имя Мести [demo] (2018)


*Artist: Nightly Mass
*Album: Во Имя Мести [demo]
*Year: 2018
*Genre: Black Metal
*Country: Russian Federation
*Format: mp3@CBR320kbps
*Size: 10MB

Tracklist:
01. Во имя мести 04:31
******************************
Total playing time: 4:31

[more=Extended info]In memory of Martin E. Ain (1967 - 2017). Total Hellhammer/Celtic Frost Worship.
[/more]

[more=Technical info]
Input File: Nightly Mass - Во имя мести.mp3
Channels : 2
Sample Rate : 44100
Precision : 16-bit
Duration : 00:04:31.77 = 11985057 samples = 20382.8 CDDA sectors
File Size : 10.9M
Bit Rate : 320k
Sample Encoding: MPEG audio (layer I, II or III)
Comments :
Title=Во имя мести
Artist=Nightly Mass
Album=Во имя мести
Tracknumber=1
Year=2018
Genre=138

[/more]

Register
(7) 1968_janeart, artscald, Rosen, satanist666, thenecromancer, varg-38ru, vasiljev_sergej,
Jul 31 2018, 22:26:00 Spectral Voice - Tour Promo MMXVIII [demo] (2018)


*Artist: Spectral Voice
*Album: Tour Promo MMXVIII [demo]
*Year: 2018
*Genre: Death/Doom Metal
*Country: United States
*Format: mp3@CBR192kbps
*Size: 10MB

Tracklist:
1. Untitled 07:15
******************************
Total playing time: 7:15

[more=Extended info]https://www.discogs.com/Spectral-Voice-Tour...elease/12211664
Rehearsal version of a track for an upcoming split with Anhedonist[/more]

[more=Technical info]
Input File: Spectral Voice - Untitled.mp3
Channels : 2
Sample Rate : 44100
Precision : 16-bit
Duration : 00:07:15.68 = 19213444 samples = 32675.9 CDDA sectors
File Size : 10.5M
Bit Rate : 192k
Sample Encoding: MPEG audio (layer I, II or III)
Comments :
Title=Untitled
Artist=Spectral Voice
Album=Tour Promo MMXVIII
Tracknumber=1/1
Year=2018
Genre=Death/Doom Metal

[/more]

Register
(13) artscald, BERZERK, Doooomed, Fatalist77791, infiltrator, marilin, Noobsaibot71, Rosen, soulskinner681, submarinechase, thenecromancer, wtk.412, Zenial,
Apr 20 2018, 02:59:00 Sleep - The Sciences (2018)


*Artist: Sleep
*Album: The Sciences
*Year: 2018
*Genre: Stoner/Doom Metal
*Country: United States
*Format: mp3@CBR320kbps
*Size: 114MB

Tracklist:
1. The Sciences 03:03
2. Marijuanaut's Theme 06:39
3. Sonic Titan 12:26
4. Antarticans Thawed 14:23
5. Giza Butler 10:02
6. The Botanist 06:27
******************************
Total playing time: 53:00

[more=Technical info]
Input File: 02 Marijuanaut's Theme.mp3
Channels : 2
Sample Rate : 44100
Precision : 16-bit
Duration : 00:06:40.03 = 17641191 samples = 30002 CDDA sectors
File Size : 16.2M
Bit Rate : 323k
Sample Encoding: MPEG audio (layer I, II or III)
Comments :
Title=Marijuanaut's Theme
Artist=Sleep
Album=The Sciences
Tracknumber=2/6
Year=2018
Genre=Метал

[/more]

Register
(48) 555, acerbus, avkruchinin, BERZERK, Black Cat, Boozer, Emhyr var Emreis, enslaver, Filosofem91, fishish, fylopaloma, Galactus, garml2, garmonbozia, gena, helvetestoner, Hroedmar, i-m, insufferable, Jnanadhar, jpvalentim, kauyumari, khestanow3001, Kisser, KVRT, LaBombonera, lordbathor, lucifix, metala, mirotvorets, muskatnuss, NappyRob, Narasimha, Oskulum, Ostinato, pfk505, Regnat, Rosen, s810ic1, Satantransvertdeath, Shub, stub888, Tular, xelasan, xska, Zaephar, Zenial, партизан,
Mar 30 2018, 19:13:55 Galvanizer - Horrid Tales Of Death... [ep] (2015)


*Artist: Galvanizer
*Album: Horrid Tales Of Death... [ep]
*Year: 2015
*Genre: Death Metal/Grindcore
*Country: Finland
*Format: mp3@CBR320kbps
*Size: 28MB

Tracklist:
1. Mental Vortex 04:13
2. Wounds 02:03
3. Putrefaction Blues 01:32
4. Cadaveric Lust 04:25
******************************
Total playing time: 12:13

[more=Extended info]Fresh blood to the rusty chalice of Finnish Death Metal! These young devotees manage to merge the putrid, grinding sound of early Xysma and Abhorrence with the darker melodies and gloomy harmonies from many other forebears from the land of the thousand lakes. Four tracks drenched in the odor of the dead!
[youtube]gvHhX0DO-7o[/youtube][/more]

[more=Technical info]
Input File: 03 Putrefaction Blues.mp3
Channels : 2
Sample Rate : 44100
Precision : 16-bit
Duration : 00:01:32.41 = 4075105 samples = 6930.45 CDDA sectors
File Size : 3.79M
Bit Rate : 328k
Sample Encoding: MPEG audio (layer I, II or III)
Comments :
Title=Putrefaction Blues
Artist=Galvanizer
Album=Horrid Tales Of Death...
Tracknumber=3
Year=2015
Genre=Death Metal/Grindcore

[/more]

Register
(8) Anhra Mainyu, IllInTheHead, infiltrator, Ostinato, Rosen, satanist666, varlam4, vyacheslav,
Jul 26 2014, 11:22:16 Satan's Satyrs - Demo [demo] (2010)
here we go.
Register
(1) abob,
Sep 1 2013, 13:49:19 Black Magician - The Pursuivant [ep] (2013)


*Artist: Black Magician
*Album: The Pursuivant [ep]
*Year: 2013
*Genre: Doom Metal
*Country: United Kingdom
*Format: mp3@CBR320kbps
*Size: 34MB

Tracklist:
1. The Pursuivant 06:45
2. Grene Knyght 03:04
3. Black Henbane 03:59
******************************
Total playing time: 13:48

[more=Extended info]Swirling Mellotron driven heavy metal, wyrd British folk and a dose of Black Henbane induced psychosis.
Available on 7" vinyl only: 400 Black Vinyl, 100 Clear Vinyl.
[/more]

[more=Technical info]
Input File: Black Magician - The Pursuivant - 01 The Pursuivant.mp3
Channels : 2
Sample Rate : 44100
Precision : 16-bit
Duration : 00:06:44.52 = 17839200 samples = 30338.8 CDDA sectors
File Size : 16.4M
Bit Rate : 324k
Sample Encoding: MPEG audio (layer I, II or III)
Comments :
Title=The Pursuivant
Artist=Black Magician
Album=The Pursuivant
Tracknumber=1
Year=2013

[/more]

Register
(13) AHBAnep, bka, caro, Darkthronefoad, doomTemplar, krmu2, marilin, milosdjor, SyncestrA, tamerz, VALERY, vosmidesijatye, wreak,
Aug 24 2013, 20:55:02 Новости Black-направления
Cosmic Church "Ylistys"

Second album of pure black metal out soon (currently at press) on vinyl and CD on Kuunpalvelus



WHITE MEDAL "Guthmers Hahl" LP/CD out now

Available on Digipack CD and LP limited to 400 copies on black vinyl and 100 on blue vinyl with woven logo patch.
Co released with Legion Blotan.

(7) Aphrax, Daale, Hswhhh, Premature_Devotion, Razorbladeswaltz, rimfrost, Spikes,
Jul 3 2013, 16:44:18 Slaughter - Strappado (1987)
ЦИТАТА
Скорость - ноль. Злобы - ноль. Трэша - ноль.

Не лезь туда, где не шаришь, мудачок smile3.gif

15 июля на Ripping Storm Records выходит переиздание первой демки. Со всякими анрилизд ништяками.
[more="Такие дела"][/more]
(1) gorebach,
Jun 5 2013, 21:34:38 Новости Black-направления
[more="Out soon: Circle of Ouroborus - The Final Egg LP"]
[/more]
(5) alzus, CryptOn, DarkHorde, infiltrator, Premature_Devotion,
May 10 2013, 12:59:03 Интервью
Archgoat for The Coffin Slave - May 2013 [ENG]
http://thecoffinsslave.com/?p=790
(3) acerbus, Chasm, Goatrex,
Apr 8 2013, 21:43:26 Rob Coffinshaker - Dark Rollin' Skies [ep] (2011)
опять обновлено по реквесту
Register
(1) Executor_,
Mar 16 2013, 19:03:04 Rob Coffinshaker - Dark Rollin' Skies [ep] (2011)
обновлено по реквесту
Register
(1) Mahmud_1,
Mar 8 2013, 22:00:22 Новости Black-направления
Cosmic Church:
ЦИТАТА
Second album is finished, more information will follow during spring/summer.
(4) Aphrax, blackthorness, Forrrrest, HA7tur,
Feb 24 2013, 12:01:59 Новости Black-направления
May 2013 - Burzum - Sфl austan, Mвni vestan
ЦИТАТА
«Sфl austan, Mвni vestan» will feature ≈58 minutes of instrumental electronic music, that can best be described as relaxing, slow-paced, contemplative and very much original. You have not heard anything like this before, although we can compare it to other electronic music, such as Software and perhaps Tangerine Dream too, both from the 1980ies — and I guess to old electronic Burzum music as well.
The track list for «Sфl austan, Mвni vestan» is as follows;
Sфl austan («East of the Sun»)
Rыnar munt юы finna («You shall find Secrets»)
Sфlarrвs («Sun-journey»)
Haugaeldr («Burial Mound Fire»)
Feрrahellir («Forebear-Cave»)
Sфlarguрi («Sun-god»)
Ganga at sфlu («Deasil»)
Hор («Bear’s Lair»)
Heljarmyrkr («Death’s Darkness»)
Mвni vestan («West of the Moon»)
Sфlbjцrg («Sunset»)

Being an instrumental album, and a purely electronic album too, «Sфl austan, Mвni vestan» is naturally very different from e. g. «Umskiptar», my latest metal album. Yet again I have left behind the metal genre and have chosen a different path – but for no other reason than me following my Pagan spirit willingly to wherever it takes me. This time it kindly took me to East of the Sun and West of the Moon.

Больше инфы
(3) HA7tur, infiltrator, vosmidesijatye,
Feb 1 2013, 19:55:24 Новости Black-направления
[more="Meti Bhuvah/Ride for Revenge split"][/more]
Каминг сун, все дела.
(11) 1984, abomination2, acerbus, Beazth, CRUNCH, Hswhhh, Premature_Devotion, svndvst, T.H.U.L.E., UlvhedinGrom, некрософ,
Jan 7 2013, 17:56:20 Majdanek Waltz - Stille! (2012)


*Artist: Majdanek Waltz
*Album: Stille!
*Year: 2012
*Genre: Dark Folk/Dark Ambient/Spoken Word
*Country: Russian Federation
*Format: mp3@CBR320kbps
*Size: 97MB

Tracklist:
01. Vereinsamt 4:29
02. Возмездие 4:26
03. Ночь светла 2:51
04. Окно-роза 3:44
05. Колодец 1:31
06. Колыбельная 5:08
07. Tenebrae I 1:31
08. Кристалл 4:02
09. Tenebrae II 2:12
10. Светила 5:56
11. Stille! 2:24
******************************
Total playing time: 38:14

[more=Extended info]+ scans.
Альбом" Stille!" открывает новую главу в творчестве Majdanek Waltz. Контуры terra incognita проявились еще на релизе Tenebrae, созданном совместно с Sal Solaris, где на смену классической неофолковой форме пришел конфликтный шумовой сплав. "Stille!" движется еще дальше, прочь с освоенных территорий. На первый взгляд здесь все обманчиво полузнакомо, но не все предсказуемо. Невозможно просчитать ни изгиб мелодии, ни соседство воздушной скрипки с глухой стеной гитарного скрежета. И еще здесь главное не звуки, а – в полном соответствии с названием - просветы тишины между ними, которые говорят гораздо больше музыки. "Stille!" – прогулка в саду руин, где за каждым поворотом тропинки скрывается чей-то забытый сон, скрывается «горе на дне». На диске звучат стихи Ницше, Томаса, Рильке, Блейка, Целана, Клемма

Альбом выпущен лейблом NADELN Prod.
Заказать диск можно написав по адресу nadelnpr@gmail.com.


Input File: 02 - Возмездие.mp3
Channels : 2
Sample Rate : 44100
Precision : 16-bit
Duration : 00:04:26.27 = 11742419 samples = 19970.1 CDDA sectors
File Size : 10.7M
Bit Rate : 320k
Sample Encoding: MPEG audio (layer I, II or III)
Comments :
Title=Г‚”Г§”åçäèå
Artist=Majdanek Waltz
Album=Stille!
Tracknumber=02/11
Year=2012
Genre=dark folk/dark ambient

[/more]

Register
(11) acerbus, dead can dance, Endymion, EVIL DEaD, Paradayz, spiritualdecay666, stone88, svndvst, Sylvi, Tular, Un4given,
Jan 7 2013, 17:24:10 Rattenfänger - Epistolae Obscurorum Virorum (2012)


*Artist: Rattenfänger
*Album: Epistolae Obscurorum Virorum
*Year: 2012
*Genre: Death Metal
*Country: Ukraine
*Format: mp3@CBR320kbps
*Size: 85MB

Tracklist:
1. Coelo Affixus Sed Terris Omnibus Sparsus 01:55
2. Grimorium Verum 04:54
3. Victa Lacet Virtus 04:59
4. Nunc Scio Tenebris Lux 07:18
5. Allegoria De Gula Et Luxuria 05:36
6. Clausae Patent 06:07
7. Deest Remedii Locus, Ubi, Quae Vitia Fuerunt, Mores Fiunt 05:33
8. Regno, Regnavi, Regnabo 05:37
******************************
Total playing time: 41:59



[more=Extended info]Line Up:
Krechet - Bass
Vlad - Drums, Keyboards
Thurios - Guitars
Roman Saenko - Guitars, Vocals

The band is a new project from the musicians behind cult acts like Drudkh, Old Silver Key, Blood of Kingu, Dark Ages and more, but Rattenfänger is a different beast entirely.

Earlier this autumn, Dark Essence Records, announced proudly the signing of Ukrainian band Rattenfänger! Now, the debut album “Epistolae Obscurorum Virorum” is finally out.

The debut album, entitled “Epistolae Obscurorum Virorum”, is a masterpiece of old-school death metal. Rattenfänger’s sound is pitch black and bone crushingly brutal. It is Death Metal in its original form – and it is devastating. Inevitably there will be nuances from the members other projects, and comparisons can also be made with bands such as Celtic Frost, early Darkthrone, Asphyx, Winter, Bolt Thrower and Nihilist amongst others, but Rattenfänger, is the epitome of old-school death metal and the album has its own, very distinctive, sound.

The name Rattenfänger is taken from the legend of the Pied Piper of Hamelin (Rattenfänger von Hameln), who was hired by the townsfolk of Hameln, Germany, to rid the town of the rats that had overrun it. Unfortunately he is deceived and cheated of his payment, and he exacts a dreadful revenge on the citizens. The lyrics are in Latin, written in style of medieval poets, thinkers and troubadours/minstrels.


Input File: rattenfanger-4.mp3
Channels : 2
Sample Rate : 44100
Precision : 16-bit
Duration : 00:07:17.89 = 19311037 samples = 32841.9 CDDA sectors
File Size : 17.5M
Bit Rate : 320k
Sample Encoding: MPEG audio (layer I, II or III)
Comments :
Title=Nunc Scio Tenebris Lux
Artist=Rattenfänger
Album=Epistolae Obscurorum Virorum
Tracknumber=4
Year=2012
Genre=Death Metal

[/more]

Register
(62) agnosticj, andreikun, aserius, Bas®, Beazth, best, black1, Boozer, Caecus, cist, Corpse_Of_The_Christ, Daarkan, Darkthronefoad, DeSad, donnar, Fess, HA7tur, Hadelik, hammer, Hswhhh, igorzz, infiltrator, jollo, kolar666, Koscheyushka, Lena, marilin, MeathookSeed, MMMMM, mort, Necroalex, neoatheist, nsmetalhead, oldthrashman, Orgasmik, Premature_Devotion, princeshr, realexxx75, respect, satanas189, Sky7Daemon, smes, spiritualdecay666, StabWound, StanleyClarke, technoboy69, Tino, Tular, Typhon88, ulterior_wolf, VALERY, varlam4, vosmidesijatye, W.N.F.C., waldemardr, warrior69, warslutKK, wgs73, Wolfera, wreak, Варонъ, Шанкара,

11 Pages V   1 2 3 > » 
- Lo-Fi Version Support form
Copyrights and abuse reports form
Time is now: 20th August 2019 - 08:31:07