Welcome Guest ( Log In | Register )

История благодарностей участнику Ambercandle ::: Спасибо сказали: 2002 раз(а)
Дата поста: В теме: За сообщение: Спасибо сказали:
Oct 11 2021, 19:42:14 Of The Wand And The Moon - Your Love Can't Hold This Wreath Of Sorrow (2021)


*Artist: Of The Wand And The Moon
*Album: Your Love Can't Hold This Wreath Of Sorrow
*Year: 2021
*Genre: Dark Folk/Neofolk
*Country: Denmark
*Format: mp3@CBR320kbps
*Size: 105MB

Tracklist:
1. Whispers Of The Past 4:50
2. Your Love Can't Hold This Wreath Of Sorrow 5:32
3. Let's Take A Ride (My Love) 4:59
4. Fall From View 4:39
5. Love Is Made Of Dreams 3:49
6. Twilight Halo 4:43
7. Les Journées Sans Fin Et Les Nuits Solitaires 5:30
8. Williamsburg Bridge 1:30
9. Nothing For Me Here 4:56
10. Barbs Of Time 5:06
******************************
Total playing time: 45:34

[more=Extended info][/more]

[more=Technical info]
Input File: 06. Twilight Halo.mp3
Channels : 2
Sample Rate : 44100
Precision : 16-bit
Duration : 00:04:43.00 = 12480300 samples = 21225 CDDA sectors
File Size : 11.5M
Bit Rate : 326k
Sample Encoding: MPEG audio (layer I, II or III)
Comments :
Title=Twilight Halo
Artist=Of The Wand And The Moon
Album=Your Love Can't Hold This Wreath of Sorrow
Tracknumber=6
Year=2021-10-08
Genre=Neofolk, Dark Ambient, Experimental, Industrial
Discnumber=1

[/more]

Register
(23) ahp, artscald, Black Cat, Branis, Buregon, caro, chipsgott, dromord, fylopaloma, HMHamster, kauyumari, Ludwig Hagen, metala, Old Vyaine, Olethros, robertho777, smes, thenecromancer, Unmerciful, v.v.m, Woodsmoke, xska, zorn666,
Oct 10 2021, 22:01:38 Of The Wand And The Moon - Your Love Can't Hold This Wreath Of Sorrow (2021)


*Artist: Of The Wand And The Moon
*Album: Your Love Can't Hold This Wreath Of Sorrow
*Year: 2021
*Genre: Neofolk/Dark Folk
*Country: Denmark
*Format: mp3@CBR320kbps
*Size: 105MB

Tracklist:
1. Whispers Of The Past 4:50
2. Your Love Can't Hold This Wreath Of Sorrow 5:32
3. Let's Take A Ride (My Love) 4:59
4. Fall From View 4:39
5. Love Is Made Of Dreams 3:49
6. Twilight Halo 4:43
7. Les Journées Sans Fin Et Les Nuits Solitaires 5:30
8. Williamsburg Bridge 1:30
9. Nothing For Me Here 4:56
10. Barbs Of Time 5:06
******************************
Total playing time: 45:34

[more=Extended info][/more]

[more=Technical info]
Input File: 01. Whispers of the Past.mp3
Channels : 2
Sample Rate : 44100
Precision : 16-bit
Duration : 00:04:50.00 = 12789000 samples = 21750 CDDA sectors
File Size : 11.8M
Bit Rate : 325k
Sample Encoding: MPEG audio (layer I, II or III)
Comments :
Title=Whispers of the Past
Artist=Of The Wand And The Moon
Album=Your Love Can't Hold This Wreath of Sorrow
Tracknumber=1
Year=2021-10-08
Genre=Neofolk, Dark Ambient, Experimental, Industrial
Discnumber=1

[/more]

Register
(5) Faust_Vulkan_16, judaz, Kaphiel, thenecromancer, Winterdark,
Sep 26 2021, 16:02:16 Necropsy Odor - Tales From The Tepid Cavity [demo] (2021)


*Artist: Necropsy Odor
*Album: Tales From The Tepid Cavity [demo]
*Year: 2021
*Genre: Death Metal/Grindcore
*Country: United States
*Format: mp3@CBR320kbps
*Size: 25MB

Tracklist:
1. Patrick Humphery 01:06
2. Impaled by Tree 01:52
3. Degreaser Bath 01:04
4. Head Shredded 02:04
5. Femur Bone Toothpick 01:29
6. Cooked in Vomit 02:21
******************************
Total playing time: 9:56



[more=Technical info]
Input File: Necropsy Odor - Tales From the Tepid Cavity - 06 Cooked in Vomit.mp3
Channels : 2
Sample Rate : 44100
Precision : 16-bit
Duration : 00:02:21.57 = 6243017 samples = 10617.4 CDDA sectors
File Size : 5.83M
Bit Rate : 330k
Sample Encoding: MPEG audio (layer I, II or III)
Comments :
Title=Cooked in Vomit
Artist=Necropsy Odor
Album=Tales From the Tepid Cavity
Tracknumber=6
Year=2021

[/more]

Register
(5) caro, Hell_Is_Here, Olethros, sludge666, Taakeferd,
Sep 11 2021, 17:48:24 Thy Sorcery - Frankenhooker [ep] (2021)


*Artist: Thy Sorcery
*Album: Frankenhooker [ep]
*Year: 2021
*Genre: Psychedelic/Stoner Doom Metal
*Country: Russian Federation
*Format: mp3@CBR320kbps
*Size: 51MB

Tracklist:
1. Blood Freak 10:23
2. Dr. Browning 11:24
******************************
Total playing time: 21:47



[more=Extended info]Contains two tracks from forthcoming LP, feat. alternative mastering.[/more]

[more=Technical info]
Input File: Thy Sorcery - Frankenhooker - 02 Dr. Browning.mp3
Channels : 2
Sample Rate : 44100
Precision : 16-bit
Duration : 00:11:25.05 = 30210529 samples = 51378.5 CDDA sectors
File Size : 27.6M
Bit Rate : 322k
Sample Encoding: MPEG audio (layer I, II or III)
Comments :
Title=Dr. Browning
Artist=Thy Sorcery
Album=Frankenhooker
Tracknumber=2
Year=2021

[/more]

Register

Register
(12) caro, chipsgott, HMHamster, Olethros, SaintVitus, stumpheavyrock, thenecromancer, VALERY, vosmidesijatye, Wail, Woodsmoke, wreak,
Aug 7 2021, 12:13:41 Decomposed - Laid To Waste [compilation] (2021)
Спасибо за компиляцию, единственное, в архиве ещё зачем-то два трека с епишки 'The Funeral Obsession'. Лучше их убрать и перезалить, чтоб народ не путать.
(1) Wail,
Jan 22 2021, 21:01:00 Стабильность - Стабильность [ep] (2021)


*Artist: Стабильность
*Album: Стабильность [ep]
*Year: 2021
*Genre: Death Metal/Grindcore
*Country: Russian Federation
*Format: mp3@CBR320kbps
*Size: 30MB

Tracklist:
1. 2014 (Интро) 01:33
2. Стабильность 01:01
3. Наши реалии 01:09
4. Война 01:01
5. Чиновник 00:29
6. Гомофобия 01:39
7. Мракобес 01:30
8. Современное рабство 01:49
******************************
Total playing time: 10:11

[more=Extended info][/more]

[more=Technical info]
Input File: 07. Мракобес.mp3
Channels : 2
Sample Rate : 44100
Precision : 16-bit
Duration : 00:01:30.68 = 3998944 samples = 6800.93 CDDA sectors
File Size : 4.60M
Bit Rate : 406k
Sample Encoding: MPEG audio (layer I, II or III)
Comments :
Title=Ìðàêîáåñ
Artist=Ñòàáèëüíîñòü
Album=Ñòàáèëüíîñòü
Tracknumber=07
Year=2021
Genre=Grindcore

[/more]

Register
(11) Aresson, cesar, GorAtheist, Hell_Is_Here, infiltrator, Oath19, Olethros, Rosen, Taakeferd, varlam4, wreak,
Nov 8 2020, 13:29:55 Mortiferum & Hyperdontia - Mortiferum/Hyperdontia [split] (2020)


*Artist: Mortiferum & Hyperdontia
*Album: Mortiferum/Hyperdontia [split]
*Year: 2020
*Genre: Death/Doom Metal | Death Metal
*Country: United States | International
*Format: mp3@CBR320kbps
*Size: 31MB

Tracklist:
Mortiferum:
1. Abhorrent Genesis 07:52
Hyperdontia:
2. Punctured Soul 05:16
******************************
Total playing time: 13:08

[more=Extended info]Relesed through Carbonized Records and Me Saco un Ojo Records

"Abhorrent Genesis" recorded and Mixed by Detto in Olympia, Washington.
"Punctured Soul" Recorded, Mixed, and Mastered between June 2019 and May 2020.[/more]

[more=Technical info]
Input File: 1. Abhorrent Genesis.mp3
Channels : 2
Sample Rate : 44100
Precision : 16-bit
Duration : 00:07:53.03 = 20860535 samples = 35477.1 CDDA sectors
File Size : 19.4M
Bit Rate : 329k
Sample Encoding: MPEG audio (layer I, II or III)
Comments :
Title=Abhorrent Genesis
Artist=Mortuferum
Album=Mortiferum & Hyperdontia (Split)
Tracknumber=1
Year=2020
Genre=Death Metal

[/more]

Register
(15) infiltrator, ITNOR, Lunaris, Marek, Occultas, Rosen, sergsazan, Spork, stumpheavyrock, Tino, troll_swamp, VALERY, vyacheslav, Wail, wanderer73,
Oct 27 2020, 20:15:31 Larvae - Sickening Cadaveric Perversion [ep] (2020)


*Artist: Larvae
*Album: Sickening Cadaveric Perversion [ep]
*Year: 2020
*Genre: Death/Doom Metal
*Country: Romania
*Format: mp3@CBR320kbps
*Size: 34MB

Tracklist:
1. Necroleptic Apparitions 06:40
2. Sickening Cadaveric Perversion 05:07
******************************
Total playing time: 11:47

[more=Extended info][/more]

[more=Technical info]
Input File: Larvae - SICKENING CADAVERIC PERVERSION EP - 01 Necroleptic Apparitions.mp3
Channels : 2
Sample Rate : 44100
Precision : 16-bit
Duration : 00:06:40.09 = 17643837 samples = 30006.5 CDDA sectors
File Size : 16.3M
Bit Rate : 327k
Sample Encoding: MPEG audio (layer I, II or III)
Comments :
Title=Necroleptic Apparitions
Artist=Larvae
Album=SICKENING CADAVERIC PERVERSION EP
Tracknumber=1
Year=2020

[/more]

Register
(14) grimoir, hategoatlord, Hell_Is_Here, infiltrator, lacrimoza, Olethros, Rosen, sadmannn, sergsazan, stumpheavyrock, VALERY, vyacheslav, Wail, wreak,
Aug 26 2020, 23:37:11 Galvanizer - Rehearsal Tape '16 [demo] (2016)


*Artist: Galvanizer
*Album: Rehearsal Tape '16 [demo]
*Year: 2016
*Genre: Death Metal
*Country: Finland
*Format: mp3@CBR320kbps
*Size: 23MB

Tracklist:
1. Unfinished Autopsy 03:50
2. Putrefaction Blues 01:31
3. Domestic Mastication 03:28
******************************
Total playing time: 8:49

[more=Extended info]
SÜPPÖRT ÖR DIE![/more]

[more=Technical info]
Input File: Galvanizer - Rehearsal Tape \'16 - 02 Putrefaction Blues.mp3
Channels : 2
Sample Rate : 44100
Precision : 16-bit
Duration : 00:01:31.12 = 4018392 samples = 6834 CDDA sectors
File Size : 3.90M
Bit Rate : 343k
Sample Encoding: MPEG audio (layer I, II or III)
Comments :
Title=Putrefaction Blues
Artist=Galvanizer
Album=Rehearsal Tape '16
Tracknumber=2
Year=2016

[/more]

Register
(16) caro, desekrator, FUDEDOR, infiltrator, Mares, Olethros, Rosen, soulflesh, thenecromancer, THROWER666, VALERY, varlam4, Wail, wanderer73, Weltenfeind666, wreak,
Aug 3 2020, 19:26:20 Undergang & Dead - Dead/Undergang [split] (2020)


*Artist: Undergang & Dead
*Album: Dead/Undergang [split]
*Year: 2020
*Genre: Death Metal | Death Metal
*Country: Denmark | Germany
*Format: mp3@CBR320kbps
*Size: 27MB

Tracklist:
Dead:
1. Missile to Uranus 05:06
Undergang:
2. Blodhøst 04:58
******************************
Total playing time: 10:04

[more=Extended info][/more]

[more=Technical info]
Input File: DEAD - UNDERGANG - DEAD - UNDERGANG split - 02 UNDERGANG - Blodhøst.mp3
Channels : 2
Sample Rate : 44100
Precision : 16-bit
Duration : 00:04:58.67 = 13171523 samples = 22400.5 CDDA sectors
File Size : 12.1M
Bit Rate : 323k
Sample Encoding: MPEG audio (layer I, II or III)
Comments :
Title=UNDERGANG - Blodhøst
Artist=DEAD / UNDERGANG
Album=DEAD / UNDERGANG split
Tracknumber=2
Year=2020

[/more]

Register
(15) AHBAnep, BandR75, chipsgott, FUDEDOR, gutted, Hell_Is_Here, HMHamster, Lanceatum, marilin, Metalass, Occultas, smes, stumpheavyrock, submarinechase, wreak,
Jul 30 2020, 18:27:39 Nick Cave And The Bad Seeds - No More Shall We Part (2001)


*Artist: Nick Cave And The Bad Seeds
*Album: No More Shall We Part
*Year: 2001
*Genre: Alternative Rock
*Country: Australia
*Format: mp3@CBR320kbps
*Size: 176MB

Tracklist:
1 As I Sat Sadly By Her Side (6:15)
2 And No More Shall We Part (4:00)
3 Hallelujah (7:48)
4 Love Letter (4:08)
5 Fifteen Feet Of Pure White Snow (5:36)
6 God Is In The House (5:44)
7 Oh My Lord (7:30)
8 Sweetheart Come (4:58)
9 The Sorrowful Wife (5:18)
10 We Came Along This Road (6:08)
11 Gates To The Garden (4:09)
12 Darker With The Day (6:07)
13 Grief Came Riding" (5:07)
14 Bless His Ever Loving Heart (4:02)
******************************
Total playing time: 1:16:50

[more=Extended info]+scans.[/more]

[more=Technical info]
Input File: 02. And No More Shall We Part.mp3
Channels : 2
Sample Rate : 44100
Precision : 16-bit
Duration : 00:04:05.28 = 10816892 samples = 18396.1 CDDA sectors
File Size : 10.0M
Bit Rate : 326k
Sample Encoding: MPEG audio (layer I, II or III)
Comments :
Title=And No More Shall We Part
Artist=Nick Cave And The Bad Seeds
Album=No More Shall We Part
Tracknumber=02
Year=2001
Genre=Alternative Rock, Art-Rock

[/more]

Register
(6) gwar, infiltrator, obituarydark, Olethros, paganheart, yuratroll,
Jul 17 2020, 10:57:38 Adramelech - Recoveries Of The Fallen [compilation] (2020)


*Artist: Adramelech
*Album: Recoveries Of The Fallen [compilation]
*Year: 2020
*Genre: Death Metal
*Country: Finland
*Format: mp3@CBR320kbps
*Size: 125MB

Tracklist:
1. As the Gods Succumbed 05:00
2. Heroes in Godly Blaze 04:02
3. Seance of Shamans 03:22
4. The Fall of Tiamat 03:46
5. Dethroned 00:28
6. Mortal God 04:39
7. Revived 04:54
8. Mortal God 02:58
9. Grip of Darkness 03:43
10. Ancestral Souls 03:10
11. Dreamdeath 02:40
12. Intro 02:48
13. Carnivore Corpse Feast 03:26
14. Human Extermination 03:46
15. Sarcophagus 02:48
16. Pestilential Mists (Abhorrence cover) 03:34
******************************
Total playing time: 55:04

[more=Extended info]Tracks 1-4 are taken from 'The Fall' EP released in 1995.
Tracks 5-7 are taken from 'Spring Of Recovery' EP released in 1992.
Tracks 8-11 are taken from 'Grip Of Darkness' demo released in 1992.
Tracks 12-16 are taken from 'Human Extermination' demo released in 1991.
http://shop.xtreemmusic.com/english.item.index.php?&id=21416
SÜPPÖRT ÖR DIE![/more]

[more=Technical info]
Input File: 06 - Mortal God.mp3
Channels : 2
Sample Rate : 44100
Precision : 16-bit
Duration : 00:04:39.61 = 12330669 samples = 20970.5 CDDA sectors
File Size : 11.2M
Bit Rate : 322k
Sample Encoding: MPEG audio (layer I, II or III)
Comments :
Title=Mortal God
Artist=Adramalech
Album=Recoveries of the Fallen
Tracknumber=06
Year=2020
Genre=Death Metal
Discnumber=1/1

[/more]

Register
(38) alikkon, andreikun, AvantKitty1, chipsgott, deatholocaust, Evilded, ForzaMinardi1977, FUDEDOR, Hell_Is_Here, infiltrator, killingod, kimkayoung, kryptor, legion01, Leshiy666, Lukittaz, Mares, Mist13Signifier, multizwilling, muskatnuss, Olethros, Pinhead666, Proteus_666, Purestenchkvlt, Requiescat, Rosen, skeletron215, soulflesh, spazm, Tino, troll_swamp, VALERY, varlam4, vyacheslav, Wail, wreak, wtk.412, WX419,
Jul 9 2020, 21:16:57 Larvae - 4-Track Promo Tape [demo] (2020)


*Artist: Larvae
*Album: 4-Track Promo Tape [demo]
*Year: 2020
*Genre: Death/Doom Metal
*Country: Romania
*Format: mp3@CBR320kbps
*Size: 43MB

Tracklist:
1. Larvae 04:49
2. Doomed to Exist 04:10
3. Lust for the Dead 04:27
4. Outro 03:18
******************************
Total playing time: 16:44



[more=Technical info]
Input File: Larvae - 4-Track Promo Tape 2020 - 02 Doomed To Exist.mp3
Channels : 2
Sample Rate : 44100
Precision : 16-bit
Duration : 00:04:11.02 = 11070158 samples = 18826.8 CDDA sectors
File Size : 10.3M
Bit Rate : 329k
Sample Encoding: MPEG audio (layer I, II or III)
Comments :
Title=Doomed To Exist
Artist=Larvae
Album=4-Track Promo Tape 2020
Tracknumber=2
Year=2020

[/more]

Register
(14) desekrator, grimoir, Hell_Is_Here, infiltrator, killingod, nord6666, Olethros, Rosen, sergsazan, stumpheavyrock, VALERY, varlam4, vyacheslav, Wail,
Jul 5 2020, 22:20:44 Naillung - Evaluate.Execute. [demo] (2019)


*Artist: Naillung
*Album: Evaluate.Execute. [demo]
*Year: 2019
*Genre: Black/Death Metal
*Country: Finland
*Format: mp3@CBR320kbps
*Size: 28MB

Tracklist:
1. Tower Of Silence 05:11
2. The Seven Evil Deities 03:23
3. Doctrine of Savagery 03:35
******************************
Total playing time: 12:09

[more=Extended info]Out through Spiritual Warfare Productions now -
SÜPPÖRT ÖR DIE![/more]

[more=Technical info]
Input File: 02_The Seven Evil Deities.mp3
Channels : 2
Sample Rate : 44100
Precision : 16-bit
Duration : 00:03:23.45 = 8972233 samples = 15258.9 CDDA sectors
File Size : 8.14M
Bit Rate : 320k
Sample Encoding: MPEG audio (layer I, II or III)
Comments :
Title=The Seven Evil Deities
Artist=Naillung
Album=Evaluate.Execute.
Year=2019
Genre=Death Metal

[/more]

Register
(19) El_Chibo, grimoir, Hell_Is_Here, infiltrator, killingod, lestllk, METALHUNTER, nord6666, Olethros, randumbum, Rosen, Sanctus, SilentNidhogg, soulflesh, VALERY, varlam4, vasiljev_sergej, Wail, wreak,
Jan 9 2020, 22:04:55 Ozzy Osbourne - Ordinary Man [single] (2020)


*Artist: Ozzy Osbourne
*Album: Ordinary Man [single]
*Year: 2020
*Genre: Heavy Metal/Hard Rock
*Country: United Kingdom
*Format: mp3@CBR320kbps
*Size: 12MB

Tracklist:
1. Ordinary Man 05:02
******************************
Total playing time: 5:02

[more=Extended info].feat Elton John[/more]

[more=Technical info]
Input File: 01 . Ordinary Man.mp3
Channels : 2
Sample Rate : 44100
Precision : 16-bit
Duration : 00:05:01.81 = 13309777 samples = 22635.7 CDDA sectors
File Size : 13.1M
Bit Rate : 348k
Sample Encoding: MPEG audio (layer I, II or III)
Comments :
Title=Ordinary Man
Artist=䔀氀琀漀渀 䨀漀栀渀
Album=Ordinary Man
Tracknumber=1
Year=2020
Genre=Rock
Discnumber=1

[/more]

Register
(18) Aresson, boby9052, caro, cast_iron, gwar, infiltrator, kluval, Olethros, Paradayz, Reverend, Rosen, russ777, senecazm, sepultura39, Tino, varlam4, Wormtongue, wreak,
Nov 3 2019, 17:22:53 Chthonic Deity - Reassembled In Pain [demo] (2019)


*Artist: Chthonic Deity
*Album: Reassembled In Pain [demo]
*Year: 2019
*Genre: Death Metal
*Country: United States
*Format: mp3@CBR320kbps
*Size: 30MB

Tracklist:
1. Drained 03:15
2. Disintegrating Organs 03:29
3. Echoes of Death 02:04
4. Blood Ritual 04:09
******************************
Total playing time: 12:57

[more=Extended info]"Reassembled In Pain", the debut demo from CHTHONIC DEITY, contains four songs of energetic and heavy Death Metal/Punk from members of SCOLEX, ASCENDED DEAD and BLOOD INCANTATION. Released on tape by Lunar Tomb Records and 7" vinyl by Carbonized Records & Woodsmoke.
[/more]

[more=Technical info]
Input File: Chthonic Deity - Blood Ritual.mp3
Channels : 2
Sample Rate : 48000
Precision : 16-bit
Duration : 00:04:09.17 = 11960208 samples ~ 18687.8 CDDA sectors
File Size : 9.97M
Bit Rate : 320k
Sample Encoding: MPEG audio (layer I, II or III)
Comments :
Title=Blood Ritual
Artist=Chthonic Deity
Album=Reassembled In Pain
Tracknumber=4
Year=2019

[/more]

Register
(6) Beazth, multizwilling, Olethros, Rosen, Wail, wanderer73,
Oct 1 2019, 20:51:22 Satanic Ritual Abuse - Ritual I [ep] (2019)


*Artist: Satanic Ritual Abuse
*Album: Ritual I [ep]
*Year: 2019
*Genre: Black/Death Metal
*Country: Russian Federation
*Format: mp3@CBR320kbps
*Size: 47MB

Tracklist:
1. Deep in the cave 01:47
2. Hallowed be the abomination of desolation 02:23
3. The rite of a posthumous wedding 02:06
4. Stinking wind of burnt offering 03:07
5. Marked with the number of the Beast 02:17
6. Sacrifice for unleavened bread 02:30
7. Headless and bloodless child 02:01
8. Ritual (Blasphemy cover) 02:30
******************************
Total playing time: 18:41



[more=Extended info]
Satanic Black Metal from Russia[/more]

[more=Technical info]
Input File: Satanic Ritual Abuse - Ritual I - 08 Ritual (Blasphemy cover).mp3
Channels : 2
Sample Rate : 44100
Precision : 16-bit
Duration : 00:02:30.08 = 6618572 samples = 11256.1 CDDA sectors
File Size : 6.21M
Bit Rate : 331k
Sample Encoding: MPEG audio (layer I, II or III)
Comments :
Title=Ritual (Blasphemy cover)
Artist=Satanic Ritual Abuse
Album=Ritual I
Tracknumber=8
Year=2019

[/more]

Register
(16) artscald, Beazth, BFM, Boozer, cesar, DarkHorde, FUDEDOR, infiltrator, ITNOR, Olethros, randumbum, Rodin, Rosen, SilentNidhogg, VALERY, vasiljev_sergej,
Sep 29 2019, 21:09:49 Inoculation - Anatomize [ep] (2019)


*Artist: Inoculation
*Album: Anatomize [ep]
*Year: 2019
*Genre: Technical Death Metal
*Country: United States
*Format: mp3@CBR320kbps
*Size: 20MB

Tracklist:
1. Nocturnal Levitation 04:30
2. Anatomize 03:52
******************************
Total playing time: 8:22

[more=Extended info][/more]

[more=Technical info]
Input File: Inoculation - Anatomize.mp3
Channels : 2
Sample Rate : 44100
Precision : 16-bit
Duration : 00:03:52.08 = 10234904 samples = 17406.3 CDDA sectors
File Size : 9.29M
Bit Rate : 320k
Sample Encoding: MPEG audio (layer I, II or III)
Comments :
Title=Anatomize
Artist=Inoculation
Album=Anatomize
Tracknumber=2
Year=2019
Genre=(22)

[/more]

Register
(15) AHBAnep, artscald, boby9052, cesar, Evgundel, Hell_Is_Here, infiltrator, kimkayoung, maochen, mirotvorets, Morthal, Olethros, Rosen, vyacheslav, Нигилист,
Sep 12 2019, 22:32:52 Mephitic Corpse - Immense Thickening Vomit [demo] (2019)


*Artist: Mephitic Corpse
*Album: Immense Thickening Vomit [demo]
*Year: 2019
*Genre: Death Metal
*Country: United States
*Format: mp3@CBR320kbps
*Size: 29MB

Tracklist:
1. Unpleasant Throbbing Sensation 04:03
2. Fuming Mutation 04:21
3. Drinking Liquid Rot 04:19
******************************
Total playing time: 12:43



[more=Extended info]Grinding filth-ridden death metal from San Luis Obispo, California! Total old school worship along the lines of: Grotesque Infection, Immortal Fate, Carcinogen and Gutted Pulp!
http://headsplitrecords.storenvy.com/products/28602521-mephitic-corpse-immense-thickening-vomit[/more]

[more=Technical info]
Input File: 01. Unpleasant Throbbing Sensation.mp3
Channels : 2
Sample Rate : 48000
Precision : 16-bit
Duration : 00:04:03.44 = 11684880 samples ~ 18257.6 CDDA sectors
File Size : 9.74M
Bit Rate : 320k
Sample Encoding: MPEG audio (layer I, II or III)
Comments :
Title=Unpleasant Throbbing Sensation
Artist=Mephitic Corpse
Album=Immense Thickening Vomit
Tracknumber=1
Year=2019
Genre=12

[/more]

Register
(15) artscald, FUDEDOR, Hell_Is_Here, infiltrator, Leshiy666, morbidangelo, Necroslaughter, Olethros, plagueofflies, Rosen, scorpionmk, thenecromancer, wendigo, wreak, Герб,
Sep 5 2019, 14:34:05 Undergang - Ufrivillig Donation Af Vitale Organer [single] (2019)


*Artist: Undergang
*Album: Ufrivillig Donation Af Vitale Organer [single]
*Year: 2019
*Genre: Death Metal
*Country: Denmark
*Format: mp3@CBR320kbps
*Size: 50MB

Tracklist:
1. Ufrivillig donation af vitale organer 03:20
2. Man binder ikke et dødt menneske 05:43
3. Grip of Insanity (Funebre cover) 03:48
4. Indhentet af døden (live) 06:59
******************************
Total playing time: 19:50

[more=Extended info][/more]

[more=Technical info]
Input File: UNDERGANG - Ufrivillig donation af vitale organer (Maxi single) - 03 Grip of Insanity (FUNEBRE cover).mp3
Channels : 2
Sample Rate : 44100
Precision : 16-bit
Duration : 00:03:48.69 = 10085141 samples = 17151.6 CDDA sectors
File Size : 9.26M
Bit Rate : 324k
Sample Encoding: MPEG audio (layer I, II or III)
Comments :
Title=Grip of Insanity (FUNEBRE cover)
Artist=UNDERGANG
Album=Ufrivillig donation af vitale organer (Maxi single)
Tracknumber=3
Year=2019

[/more]

Register
(21) andreikun, artscald, Beazth, BladeOvDarkness, boby9052, EvgeniusLongus, gutted, heinz88, Hell_Is_Here, marilin, MetalAreola, morbidangelo, Olethros, Ostinato, Rosen, smes, stumpheavyrock, Tino, vyacheslav, Wail, wreak,
Aug 1 2019, 21:16:12 Chaotian - Where Gods Excarnate [demo] (2018)


*Artist: Chaotian
*Album: Where Gods Excarnate [demo]
*Year: 2018
*Genre: Death Metal
*Country: Denmark
*Format: mp3@CBR320kbps
*Size: 46MB

Tracklist:
1. Paroxysmal Birth 06:02
2. Where Gods Excarnate 08:52
3. Chaoskampf 05:31
******************************
Total playing time: 20:25

[more=Extended info][/more]

[more=Technical info]
Input File: 02 Where Gods Excarnate.mp3
Channels : 2
Sample Rate : 44100
Precision : 16-bit
Duration : 00:08:52.70 = 23491850 samples = 39952.1 CDDA sectors
File Size : 21.4M
Bit Rate : 322k
Sample Encoding: MPEG audio (layer I, II or III)
Comments :
Title=Where Gods Excarnate
Artist=Chaotian
Album=Where Gods Excarnate (Demo)
Tracknumber=2
Year=2018
Genre=Death Metal

[/more]

Register
(12) artscald, desekrator, Hell_Is_Here, LVXXVL, morbidangelo, Olethros, repulssion, Rosen, stumpheavyrock, vyacheslav, wreak, Герб,
Jul 12 2019, 02:12:01 Autophagy - Demo [demo] (2018)


*Artist: Autophagy
*Album: Demo [demo]
*Year: 2018
*Genre: Death Metal
*Country: United States
*Format: mp3@CBR320kbps
*Size: 34MB

Tracklist:
1. Intro / Lure of the Labyrinth 04:56
2. Charnel Hall 03:57
3. Beneath the Moss, Between the Roots 03:17
4. Supposed to Rot (Nihilist cover) 01:58
******************************
Total playing time: 14:08



[more=Technical info]
Input File: Autophagy - demo - 02 Charnel Hall.mp3
Channels : 2
Sample Rate : 44100
Precision : 16-bit
Duration : 00:03:57.07 = 10454963 samples = 17780.5 CDDA sectors
File Size : 9.65M
Bit Rate : 326k
Sample Encoding: MPEG audio (layer I, II or III)
Comments :
Title=Charnel Hall
Artist=Autophagy
Album=demo
Tracknumber=2
Year=2018

[/more]

Register
(15) artscald, Corpuscul, djurassic, GorAtheist, je5uck, METALHUNTER, Olethros, Ostinato, Pinhead666, Razorbladeswaltz, Rosen, russ777, scorpionmk, wreak, Герб,
Jun 28 2019, 23:32:57 Contaminated & Kutabare - Death Sick/Funeral Erection [split] (2019)


*Artist: Contaminated & Kutabare
*Album: Death Sick/Funeral Erection [split]
*Year: 2019
*Genre: Death Metal | Death Metal/Grindcore
*Country: Australia | Australia
*Format: mp3@CBR320kbps
*Size: 21MB

Tracklist:
Contaminated:
1. Death Sick 03:57
Kutabare:
2. Funeral Erection 03:58
******************************
Total playing time: 7:55

[more=Extended info]BUY DIGITAL/VINYL:
BLOOD HARVEST RECORDS is proud to present a special split 7" between CONTAMINATED and KUTABARE. Showcasing the most vile and literally sickest death metal Australia has to offer, both bands offer an exclusive track here. CONTAMINATED are up first, and blast forth with a gutsfucking fountian of pustulent deathgrind, arguably uglier and more crushing than their widely celebrated Final Man debut album for BLOOD HARVEST. KUTABARE conclude the split with a seasickening slice of equally deathgrinding filth. Their track here is their first since their comeback split recording with Dead Root last year, having been disbanded since 2006. Old ugliness, arisen from the sewer-drenched grave - truly go down under with this split, down where the slime live![/more]

[more=Technical info]
Input File: CONTAMINATED - Death Sick - Funeral Erection - 01 Death Sick.mp3
Channels : 2
Sample Rate : 44100
Precision : 16-bit
Duration : 00:03:56.97 = 10450333 samples = 17772.7 CDDA sectors
File Size : 9.59M
Bit Rate : 324k
Sample Encoding: MPEG audio (layer I, II or III)
Comments :
Title=Death Sick
Artist=CONTAMINATED
Album=Death Sick / Funeral Erection
Tracknumber=1
Year=2019

[/more]

Register
(10) AHBAnep, artscald, coresh, FUDEDOR, GorAtheist, Grogro, Hell_Is_Here, Rosen, wreak, Герб,
Jan 5 2019, 20:29:43 Caustic Vomit - Festering Odes To Deformity [demo] (2018)
ЦИТАТА(Razorbladeswaltz @ Jan 5 2019, 00:04:29) *
mirror, pls

320 kbps, 71 mb, bandcamp rip.
Register
(2) nikolay81, Razorbladeswaltz,
Oct 20 2018, 21:54:11 Undergang - Den Dobbelte Grav [ep] (2018)


*Artist: Undergang
*Album: Den Dobbelte Grav [ep]
*Year: 2018
*Genre: Death Metal
*Country: Denmark
*Format: mp3@CBR320kbps
*Size: 26MB

Tracklist:
1. Den dobbelte grav 05:48
2. Powder Burns 04:35
******************************
Total playing time: 10:23

[more=Extended info]"DEN DOBBELTE GRAVE" was recorded in Earhammer Studio with Greg Wilkinson from July 28th till August 2nd 2016 during the same session as "MISANTROPOLOGI"
Mixing and mastering by Greg Wilkinson

Lyrics for "Den dobbelte grav" is written by Benni Bødker, Danish author (and much more) specializing in writing horror stories for the younger audience.
The 7" release of this EP is created by the idea from Benni and build around an anthology book he's written called "Den dobbelte grav" (released November 2018) to which UNDERGANG's David Mikkelsen has provided illustrations. On the side of his book Benni is releasing this 7" EP, both presented by his publishing company Corto in November 2018.
More info on Benni and Corto can be found here (in Danish): www.benniboedker.dk
www.forlagetcorto.dk

Music for "Den dobbelte grav" is written and performed by UNDERGANG
"Powder Burns" was originally written by BOLT THROWER and on this recording made GROSS by UNDERGANG[/more]

[more=Technical info]
Input File: UNDERGANG - Den dobbelte Grav - 01 Den dobbelte grav.mp3
Channels : 2
Sample Rate : 44100
Precision : 16-bit
Duration : 00:05:48.55 = 15370835 samples = 26140.9 CDDA sectors
File Size : 14.1M
Bit Rate : 323k
Sample Encoding: MPEG audio (layer I, II or III)
Comments :
Title=Den dobbelte grav
Artist=UNDERGANG
Album=Den dobbelte Grav
Tracknumber=1
Year=2018

[/more]

Register
(26) AHBAnep, andreikun, artscald, BERZERK, boby9052, fishish, FUDEDOR, gutted, Hell_Is_Here, judaz, marilin, Metalass, METALHUNTER, Noobsaibot71, Ostinato, Rosen, RUSP73, Tino, troll_swamp, Unknown, VALERY, varlam4, Vidder242, vyacheslav, wtk.412, Герб,

11 Pages V   1 2 3 > » 
- Lo-Fi Version Support form
Copyrights and abuse reports form
Time is now: 26th October 2021 - 00:07:45