Welcome Guest ( Log In | Register )

История благодарностей участнику Ambercandle ::: Спасибо сказали: 1745 раз(а)
Дата поста: В теме: За сообщение: Спасибо сказали:
Nov 3 2019, 17:22:53 Chthonic Deity - Reassembled In Pain [demo] (2019)


*Artist: Chthonic Deity
*Album: Reassembled In Pain [demo]
*Year: 2019
*Genre: Death Metal
*Country: United States
*Format: mp3@CBR320kbps
*Size: 30MB

Tracklist:
1. Drained 03:15
2. Disintegrating Organs 03:29
3. Echoes of Death 02:04
4. Blood Ritual 04:09
******************************
Total playing time: 12:57

[more=Extended info]"Reassembled In Pain", the debut demo from CHTHONIC DEITY, contains four songs of energetic and heavy Death Metal/Punk from members of SCOLEX, ASCENDED DEAD and BLOOD INCANTATION. Released on tape by Lunar Tomb Records and 7" vinyl by Carbonized Records & Woodsmoke.
[/more]

[more=Technical info]
Input File: Chthonic Deity - Blood Ritual.mp3
Channels : 2
Sample Rate : 48000
Precision : 16-bit
Duration : 00:04:09.17 = 11960208 samples ~ 18687.8 CDDA sectors
File Size : 9.97M
Bit Rate : 320k
Sample Encoding: MPEG audio (layer I, II or III)
Comments :
Title=Blood Ritual
Artist=Chthonic Deity
Album=Reassembled In Pain
Tracknumber=4
Year=2019

[/more]

Register
(6) Beazth, multizwilling, Olethros, Rosen, Wail, wanderer73,
Oct 1 2019, 20:51:22 Satanic Ritual Abuse - Ritual I [ep] (2019)


*Artist: Satanic Ritual Abuse
*Album: Ritual I [ep]
*Year: 2019
*Genre: Black/Death Metal
*Country: Russian Federation
*Format: mp3@CBR320kbps
*Size: 47MB

Tracklist:
1. Deep in the cave 01:47
2. Hallowed be the abomination of desolation 02:23
3. The rite of a posthumous wedding 02:06
4. Stinking wind of burnt offering 03:07
5. Marked with the number of the Beast 02:17
6. Sacrifice for unleavened bread 02:30
7. Headless and bloodless child 02:01
8. Ritual (Blasphemy cover) 02:30
******************************
Total playing time: 18:41



[more=Extended info]
Satanic Black Metal from Russia[/more]

[more=Technical info]
Input File: Satanic Ritual Abuse - Ritual I - 08 Ritual (Blasphemy cover).mp3
Channels : 2
Sample Rate : 44100
Precision : 16-bit
Duration : 00:02:30.08 = 6618572 samples = 11256.1 CDDA sectors
File Size : 6.21M
Bit Rate : 331k
Sample Encoding: MPEG audio (layer I, II or III)
Comments :
Title=Ritual (Blasphemy cover)
Artist=Satanic Ritual Abuse
Album=Ritual I
Tracknumber=8
Year=2019

[/more]

Register
(13) artscald, Beazth, BFM, Boozer, DarkHorde, FUDEDOR, infiltrator, Olethros, randumbum, Rosen, SilentNidhogg, VALERY, vasiljev_sergej,
Sep 29 2019, 21:09:49 Inoculation - Anatomize [ep] (2019)


*Artist: Inoculation
*Album: Anatomize [ep]
*Year: 2019
*Genre: Technical Death Metal
*Country: United States
*Format: mp3@CBR320kbps
*Size: 20MB

Tracklist:
1. Nocturnal Levitation 04:30
2. Anatomize 03:52
******************************
Total playing time: 8:22

[more=Extended info][/more]

[more=Technical info]
Input File: Inoculation - Anatomize.mp3
Channels : 2
Sample Rate : 44100
Precision : 16-bit
Duration : 00:03:52.08 = 10234904 samples = 17406.3 CDDA sectors
File Size : 9.29M
Bit Rate : 320k
Sample Encoding: MPEG audio (layer I, II or III)
Comments :
Title=Anatomize
Artist=Inoculation
Album=Anatomize
Tracknumber=2
Year=2019
Genre=(22)

[/more]

Register
(12) AHBAnep, artscald, Hell_Is_Here, infiltrator, kimkayoung, maochen, mirotvorets, Morthal, Olethros, Rosen, vyacheslav, Нигилист,
Sep 12 2019, 22:32:52 Mephitic Corpse - Immense Thickening Vomit [demo] (2019)


*Artist: Mephitic Corpse
*Album: Immense Thickening Vomit [demo]
*Year: 2019
*Genre: Death Metal
*Country: United States
*Format: mp3@CBR320kbps
*Size: 29MB

Tracklist:
1. Unpleasant Throbbing Sensation 04:03
2. Fuming Mutation 04:21
3. Drinking Liquid Rot 04:19
******************************
Total playing time: 12:43



[more=Extended info]Grinding filth-ridden death metal from San Luis Obispo, California! Total old school worship along the lines of: Grotesque Infection, Immortal Fate, Carcinogen and Gutted Pulp!
http://headsplitrecords.storenvy.com/products/28602521-mephitic-corpse-immense-thickening-vomit[/more]

[more=Technical info]
Input File: 01. Unpleasant Throbbing Sensation.mp3
Channels : 2
Sample Rate : 48000
Precision : 16-bit
Duration : 00:04:03.44 = 11684880 samples ~ 18257.6 CDDA sectors
File Size : 9.74M
Bit Rate : 320k
Sample Encoding: MPEG audio (layer I, II or III)
Comments :
Title=Unpleasant Throbbing Sensation
Artist=Mephitic Corpse
Album=Immense Thickening Vomit
Tracknumber=1
Year=2019
Genre=12

[/more]

Register
(14) artscald, FUDEDOR, Hell_Is_Here, infiltrator, Leshiy666, morbidangelo, Olethros, plagueofflies, Rosen, scorpionmk, thenecromancer, wendigo, wreak, Герб,
Sep 5 2019, 14:34:05 Undergang - Ufrivillig Donation Af Vitale Organer [single] (2019)


*Artist: Undergang
*Album: Ufrivillig Donation Af Vitale Organer [single]
*Year: 2019
*Genre: Death Metal
*Country: Denmark
*Format: mp3@CBR320kbps
*Size: 50MB

Tracklist:
1. Ufrivillig donation af vitale organer 03:20
2. Man binder ikke et dødt menneske 05:43
3. Grip of Insanity (Funebre cover) 03:48
4. Indhentet af døden (live) 06:59
******************************
Total playing time: 19:50

[more=Extended info][/more]

[more=Technical info]
Input File: UNDERGANG - Ufrivillig donation af vitale organer (Maxi single) - 03 Grip of Insanity (FUNEBRE cover).mp3
Channels : 2
Sample Rate : 44100
Precision : 16-bit
Duration : 00:03:48.69 = 10085141 samples = 17151.6 CDDA sectors
File Size : 9.26M
Bit Rate : 324k
Sample Encoding: MPEG audio (layer I, II or III)
Comments :
Title=Grip of Insanity (FUNEBRE cover)
Artist=UNDERGANG
Album=Ufrivillig donation af vitale organer (Maxi single)
Tracknumber=3
Year=2019

[/more]

Register
(18) andreikun, artscald, Beazth, BladeOvDarkness, EvgeniusLongus, heinz88, Hell_Is_Here, marilin, MetalAreola, morbidangelo, Olethros, Ostinato, Rosen, stumpheavyrock, Tino, vyacheslav, Wail, wreak,
Aug 1 2019, 21:16:12 Chaotian - Where Gods Excarnate [demo] (2018)


*Artist: Chaotian
*Album: Where Gods Excarnate [demo]
*Year: 2018
*Genre: Death Metal
*Country: Denmark
*Format: mp3@CBR320kbps
*Size: 46MB

Tracklist:
1. Paroxysmal Birth 06:02
2. Where Gods Excarnate 08:52
3. Chaoskampf 05:31
******************************
Total playing time: 20:25

[more=Extended info][/more]

[more=Technical info]
Input File: 02 Where Gods Excarnate.mp3
Channels : 2
Sample Rate : 44100
Precision : 16-bit
Duration : 00:08:52.70 = 23491850 samples = 39952.1 CDDA sectors
File Size : 21.4M
Bit Rate : 322k
Sample Encoding: MPEG audio (layer I, II or III)
Comments :
Title=Where Gods Excarnate
Artist=Chaotian
Album=Where Gods Excarnate (Demo)
Tracknumber=2
Year=2018
Genre=Death Metal

[/more]

Register
(11) artscald, desekrator, Hell_Is_Here, LVXXVL, morbidangelo, Olethros, Rosen, stumpheavyrock, vyacheslav, wreak, Герб,
Jul 12 2019, 02:12:01 Autophagy - Demo [demo] (2018)


*Artist: Autophagy
*Album: Demo [demo]
*Year: 2018
*Genre: Death Metal
*Country: United States
*Format: mp3@CBR320kbps
*Size: 34MB

Tracklist:
1. Intro / Lure of the Labyrinth 04:56
2. Charnel Hall 03:57
3. Beneath the Moss, Between the Roots 03:17
4. Supposed to Rot (Nihilist cover) 01:58
******************************
Total playing time: 14:08



[more=Technical info]
Input File: Autophagy - demo - 02 Charnel Hall.mp3
Channels : 2
Sample Rate : 44100
Precision : 16-bit
Duration : 00:03:57.07 = 10454963 samples = 17780.5 CDDA sectors
File Size : 9.65M
Bit Rate : 326k
Sample Encoding: MPEG audio (layer I, II or III)
Comments :
Title=Charnel Hall
Artist=Autophagy
Album=demo
Tracknumber=2
Year=2018

[/more]

Register
(14) artscald, Corpuscul, GorAtheist, je5uck, METALHUNTER, Olethros, Ostinato, Pinhead666, Razorbladeswaltz, Rosen, russ777, scorpionmk, wreak, Герб,
Jun 28 2019, 23:32:57 Contaminated & Kutabare - Death Sick/Funeral Erection [split] (2019)


*Artist: Contaminated & Kutabare
*Album: Death Sick/Funeral Erection [split]
*Year: 2019
*Genre: Death Metal | Death Metal/Grindcore
*Country: Australia | Australia
*Format: mp3@CBR320kbps
*Size: 21MB

Tracklist:
Contaminated:
1. Death Sick 03:57
Kutabare:
2. Funeral Erection 03:58
******************************
Total playing time: 7:55

[more=Extended info]BUY DIGITAL/VINYL:
BLOOD HARVEST RECORDS is proud to present a special split 7" between CONTAMINATED and KUTABARE. Showcasing the most vile and literally sickest death metal Australia has to offer, both bands offer an exclusive track here. CONTAMINATED are up first, and blast forth with a gutsfucking fountian of pustulent deathgrind, arguably uglier and more crushing than their widely celebrated Final Man debut album for BLOOD HARVEST. KUTABARE conclude the split with a seasickening slice of equally deathgrinding filth. Their track here is their first since their comeback split recording with Dead Root last year, having been disbanded since 2006. Old ugliness, arisen from the sewer-drenched grave - truly go down under with this split, down where the slime live![/more]

[more=Technical info]
Input File: CONTAMINATED - Death Sick - Funeral Erection - 01 Death Sick.mp3
Channels : 2
Sample Rate : 44100
Precision : 16-bit
Duration : 00:03:56.97 = 10450333 samples = 17772.7 CDDA sectors
File Size : 9.59M
Bit Rate : 324k
Sample Encoding: MPEG audio (layer I, II or III)
Comments :
Title=Death Sick
Artist=CONTAMINATED
Album=Death Sick / Funeral Erection
Tracknumber=1
Year=2019

[/more]

Register
(8) AHBAnep, artscald, FUDEDOR, GorAtheist, Hell_Is_Here, Rosen, wreak, Герб,
Jan 5 2019, 20:29:43 Caustic Vomit - Festering Odes To Deformity [demo] (2018)
ЦИТАТА(Razorbladeswaltz @ Jan 5 2019, 00:04:29) *
mirror, pls

320 kbps, 71 mb, bandcamp rip.
Register
(2) nikolay81, Razorbladeswaltz,
Oct 20 2018, 21:54:11 Undergang - Den Dobbelte Grav [ep] (2018)


*Artist: Undergang
*Album: Den Dobbelte Grav [ep]
*Year: 2018
*Genre: Death Metal
*Country: Denmark
*Format: mp3@CBR320kbps
*Size: 26MB

Tracklist:
1. Den dobbelte grav 05:48
2. Powder Burns 04:35
******************************
Total playing time: 10:23

[more=Extended info]"DEN DOBBELTE GRAVE" was recorded in Earhammer Studio with Greg Wilkinson from July 28th till August 2nd 2016 during the same session as "MISANTROPOLOGI"
Mixing and mastering by Greg Wilkinson

Lyrics for "Den dobbelte grav" is written by Benni Bødker, Danish author (and much more) specializing in writing horror stories for the younger audience.
The 7" release of this EP is created by the idea from Benni and build around an anthology book he's written called "Den dobbelte grav" (released November 2018) to which UNDERGANG's David Mikkelsen has provided illustrations. On the side of his book Benni is releasing this 7" EP, both presented by his publishing company Corto in November 2018.
More info on Benni and Corto can be found here (in Danish): www.benniboedker.dk
www.forlagetcorto.dk

Music for "Den dobbelte grav" is written and performed by UNDERGANG
"Powder Burns" was originally written by BOLT THROWER and on this recording made GROSS by UNDERGANG[/more]

[more=Technical info]
Input File: UNDERGANG - Den dobbelte Grav - 01 Den dobbelte grav.mp3
Channels : 2
Sample Rate : 44100
Precision : 16-bit
Duration : 00:05:48.55 = 15370835 samples = 26140.9 CDDA sectors
File Size : 14.1M
Bit Rate : 323k
Sample Encoding: MPEG audio (layer I, II or III)
Comments :
Title=Den dobbelte grav
Artist=UNDERGANG
Album=Den dobbelte Grav
Tracknumber=1
Year=2018

[/more]

Register
(24) AHBAnep, andreikun, Anhra Mainyu, artscald, BERZERK, fishish, FUDEDOR, Hell_Is_Here, judaz, marilin, Metalass, METALHUNTER, Noobsaibot71, Ostinato, Rosen, RUSP73, Tino, troll_swamp, VALERY, varlam4, Vidder242, vyacheslav, wtk.412, Герб,
Sep 21 2018, 21:38:26 Abysmal Lord & Crurifragium - Abysmal Lord/Crurifragium [split] (2018)


*Artist: Abysmal Lord & Crurifragium
*Album: Abysmal Lord/Crurifragium [split]
*Year: 2018
*Genre: Black Metal | Black Metal
*Country: United States | United States
*Format: mp3@CBR320kbps
*Size: 40MB

Tracklist:
Abysmal Lord:
1. Throne of God (Forced Abdication) 04:02
2. Burning Flesh Oblation 03:50
Crurifragium:
3. Slavering Maw of Archfiendii / Verminous Baptism 09:11
******************************
Total playing time: 17:03



[more=Technical info]
Input File: ABYSMAL LORD - CRURIFRAGIUM - Split - 01 ABYSMAL LORD- Throne of God (Forced Abdication).mp3
Channels : 2
Sample Rate : 44100
Precision : 16-bit
Duration : 00:04:02.74 = 10704966 samples = 18205.7 CDDA sectors
File Size : 9.79M
Bit Rate : 323k
Sample Encoding: MPEG audio (layer I, II or III)
Comments :
Title=ABYSMAL LORD: Throne of God (Forced Abdication)
Artist=ABYSMAL LORD / CRURIFRAGIUM
Album=Split
Tracknumber=1
Year=2018

[/more]

Register
(25) artscald, Boozer, Doooomed, FUDEDOR, Hell_Is_Here, helvetestoner, kefka, kim666, lunaraurora, marilin, morbidangelo, Ostinato, Rosen, RUSP73, sacrut, satanist666, SilentNidhogg, stub888, Tino, Tyler, VALERY, varg-38ru, varlam4, vasiljev_sergej, Герб,
Sep 14 2018, 16:10:11 Hyperdontia - Nexus Of Teeth (2018)
Here is a proper rip without any sound issues. 320 kbps.
Register
(26) aesteticvice, Amsterdam, andreikun, BERZERK, boba, Boozer, cist, Hell_Is_Here, helvetestoner, infiltrator, insufferable, JohnnyBravo, Mist13Signifier, morbidangelo, necromasochist, older68, Proteus_666, Razorbladeswaltz, realnspace, Sabbathian, samezzz, Spunkynut, thenecromancer, THROWER666, Tino, Tyler,
Aug 28 2018, 23:13:11 Ensepulcher - Tour Tape 2018 [demo] (2018)


*Artist: Ensepulcher
*Album: Tour Tape 2018 [demo]
*Year: 2018
*Genre: Death Metal
*Country: United States
*Format: mp3@CBR320kbps
*Size: 18MB

Tracklist:
1. Pulsations in the Rot 03:37
2. Inherent Degeneration 04:25
******************************
Total playing time: 8:02

[more=Technical info]
Input File: Ensepulcher - Tour Tape 2018 - 01 Pulsations in the Rot.mp3
Channels : 1
Sample Rate : 44100
Precision : 16-bit
Duration : 00:03:37.32 = 9583988 samples = 16299.3 CDDA sectors
File Size : 8.85M
Bit Rate : 326k
Sample Encoding: MPEG audio (layer I, II or III)
Comments :
Title=Pulsations in the Rot
Artist=Ensepulcher
Album=Tour Tape 2018
Tracknumber=1
Year=2018

[/more]

Register
(4) desekrator, Rosen, Spork, Velmi,
Aug 2 2018, 18:05:10 Nightly Mass - Во Имя Мести [demo] (2018)


*Artist: Nightly Mass
*Album: Во Имя Мести [demo]
*Year: 2018
*Genre: Black Metal
*Country: Russian Federation
*Format: mp3@CBR320kbps
*Size: 10MB

Tracklist:
01. Во имя мести 04:31
******************************
Total playing time: 4:31

[more=Extended info]In memory of Martin E. Ain (1967 - 2017). Total Hellhammer/Celtic Frost Worship.
[/more]

[more=Technical info]
Input File: Nightly Mass - Во имя мести.mp3
Channels : 2
Sample Rate : 44100
Precision : 16-bit
Duration : 00:04:31.77 = 11985057 samples = 20382.8 CDDA sectors
File Size : 10.9M
Bit Rate : 320k
Sample Encoding: MPEG audio (layer I, II or III)
Comments :
Title=Во имя мести
Artist=Nightly Mass
Album=Во имя мести
Tracknumber=1
Year=2018
Genre=138

[/more]

Register
(7) 1968_janeart, artscald, Rosen, satanist666, thenecromancer, varg-38ru, vasiljev_sergej,
Jul 31 2018, 22:26:00 Spectral Voice - Tour Promo MMXVIII [demo] (2018)


*Artist: Spectral Voice
*Album: Tour Promo MMXVIII [demo]
*Year: 2018
*Genre: Death/Doom Metal
*Country: United States
*Format: mp3@CBR192kbps
*Size: 10MB

Tracklist:
1. Untitled 07:15
******************************
Total playing time: 7:15

[more=Extended info]https://www.discogs.com/Spectral-Voice-Tour...elease/12211664
Rehearsal version of a track for an upcoming split with Anhedonist[/more]

[more=Technical info]
Input File: Spectral Voice - Untitled.mp3
Channels : 2
Sample Rate : 44100
Precision : 16-bit
Duration : 00:07:15.68 = 19213444 samples = 32675.9 CDDA sectors
File Size : 10.5M
Bit Rate : 192k
Sample Encoding: MPEG audio (layer I, II or III)
Comments :
Title=Untitled
Artist=Spectral Voice
Album=Tour Promo MMXVIII
Tracknumber=1/1
Year=2018
Genre=Death/Doom Metal

[/more]

Register
(14) artscald, BERZERK, Doooomed, Fatalist77791, infiltrator, marilin, Metalass, Noobsaibot71, Rosen, soulskinner681, submarinechase, thenecromancer, wtk.412, Zenial,
Apr 20 2018, 02:59:00 Sleep - The Sciences (2018)


*Artist: Sleep
*Album: The Sciences
*Year: 2018
*Genre: Stoner/Doom Metal
*Country: United States
*Format: mp3@CBR320kbps
*Size: 114MB

Tracklist:
1. The Sciences 03:03
2. Marijuanaut's Theme 06:39
3. Sonic Titan 12:26
4. Antarticans Thawed 14:23
5. Giza Butler 10:02
6. The Botanist 06:27
******************************
Total playing time: 53:00

[more=Technical info]
Input File: 02 Marijuanaut's Theme.mp3
Channels : 2
Sample Rate : 44100
Precision : 16-bit
Duration : 00:06:40.03 = 17641191 samples = 30002 CDDA sectors
File Size : 16.2M
Bit Rate : 323k
Sample Encoding: MPEG audio (layer I, II or III)
Comments :
Title=Marijuanaut's Theme
Artist=Sleep
Album=The Sciences
Tracknumber=2/6
Year=2018
Genre=Метал

[/more]

Register
(49) 555, acerbus, avkruchinin, BERZERK, Black Cat, Boozer, Emhyr var Emreis, enslaver, Filosofem91, fishish, fylopaloma, Galactus, garml2, garmonbozia, gena, helvetestoner, Hroedmar, i-m, insufferable, Jnanadhar, jpvalentim, kauyumari, khestanow3001, Kisser, KVRT, LaBombonera, lordbathor, lucifix, metala, mirotvorets, muskatnuss, NappyRob, Narasimha, Olethros, Oskulum, Ostinato, pfk505, Regnat, Rosen, s810ic1, Satantransvertdeath, Shub, stub888, Tular, xelasan, xska, Zaephar, Zenial, партизан,
Mar 30 2018, 19:13:55 Galvanizer - Horrid Tales Of Death... [ep] (2015)


*Artist: Galvanizer
*Album: Horrid Tales Of Death... [ep]
*Year: 2015
*Genre: Death Metal/Grindcore
*Country: Finland
*Format: mp3@CBR320kbps
*Size: 28MB

Tracklist:
1. Mental Vortex 04:13
2. Wounds 02:03
3. Putrefaction Blues 01:32
4. Cadaveric Lust 04:25
******************************
Total playing time: 12:13

[more=Extended info]Fresh blood to the rusty chalice of Finnish Death Metal! These young devotees manage to merge the putrid, grinding sound of early Xysma and Abhorrence with the darker melodies and gloomy harmonies from many other forebears from the land of the thousand lakes. Four tracks drenched in the odor of the dead!
[youtube]gvHhX0DO-7o[/youtube][/more]

[more=Technical info]
Input File: 03 Putrefaction Blues.mp3
Channels : 2
Sample Rate : 44100
Precision : 16-bit
Duration : 00:01:32.41 = 4075105 samples = 6930.45 CDDA sectors
File Size : 3.79M
Bit Rate : 328k
Sample Encoding: MPEG audio (layer I, II or III)
Comments :
Title=Putrefaction Blues
Artist=Galvanizer
Album=Horrid Tales Of Death...
Tracknumber=3
Year=2015
Genre=Death Metal/Grindcore

[/more]

Register
(9) Anhra Mainyu, IllInTheHead, infiltrator, morbidangelo, Ostinato, Rosen, satanist666, varlam4, vyacheslav,
Jul 26 2014, 11:22:16 Satan's Satyrs - Demo [demo] (2010)
here we go.
Register
(1) abob,
Sep 1 2013, 13:49:19 Black Magician - The Pursuivant [ep] (2013)


*Artist: Black Magician
*Album: The Pursuivant [ep]
*Year: 2013
*Genre: Doom Metal
*Country: United Kingdom
*Format: mp3@CBR320kbps
*Size: 34MB

Tracklist:
1. The Pursuivant 06:45
2. Grene Knyght 03:04
3. Black Henbane 03:59
******************************
Total playing time: 13:48

[more=Extended info]Swirling Mellotron driven heavy metal, wyrd British folk and a dose of Black Henbane induced psychosis.
Available on 7" vinyl only: 400 Black Vinyl, 100 Clear Vinyl.
[/more]

[more=Technical info]
Input File: Black Magician - The Pursuivant - 01 The Pursuivant.mp3
Channels : 2
Sample Rate : 44100
Precision : 16-bit
Duration : 00:06:44.52 = 17839200 samples = 30338.8 CDDA sectors
File Size : 16.4M
Bit Rate : 324k
Sample Encoding: MPEG audio (layer I, II or III)
Comments :
Title=The Pursuivant
Artist=Black Magician
Album=The Pursuivant
Tracknumber=1
Year=2013

[/more]

Register
(13) AHBAnep, bka, caro, Darkthronefoad, doomTemplar, krmu2, marilin, milosdjor, SyncestrA, tamerz, VALERY, vosmidesijatye, wreak,
Aug 24 2013, 20:55:02 Новости Black-направления
Cosmic Church "Ylistys"

Second album of pure black metal out soon (currently at press) on vinyl and CD on Kuunpalvelus



WHITE MEDAL "Guthmers Hahl" LP/CD out now

Available on Digipack CD and LP limited to 400 copies on black vinyl and 100 on blue vinyl with woven logo patch.
Co released with Legion Blotan.

(7) Aphrax, Daale, Hswhhh, Premature_Devotion, Razorbladeswaltz, rimfrost, Spikes,
Jul 3 2013, 16:44:18 Slaughter - Strappado (1987)
ЦИТАТА
Скорость - ноль. Злобы - ноль. Трэша - ноль.

Не лезь туда, где не шаришь, мудачок smile3.gif

15 июля на Ripping Storm Records выходит переиздание первой демки. Со всякими анрилизд ништяками.
[more="Такие дела"][/more]
(1) gorebach,
Jun 5 2013, 21:34:38 Новости Black-направления
[more="Out soon: Circle of Ouroborus - The Final Egg LP"]
[/more]
(5) alzus, CryptOn, DarkHorde, infiltrator, Premature_Devotion,
May 10 2013, 12:59:03 Интервью
Archgoat for The Coffin Slave - May 2013 [ENG]
http://thecoffinsslave.com/?p=790
(3) acerbus, Chasm, Goatrex,
Apr 8 2013, 21:43:26 Rob Coffinshaker - Dark Rollin' Skies [ep] (2011)
опять обновлено по реквесту
Register
(1) Executor_,
Mar 16 2013, 19:03:04 Rob Coffinshaker - Dark Rollin' Skies [ep] (2011)
обновлено по реквесту
Register
(1) Mahmud_1,

11 Pages V   1 2 3 > » 
- Lo-Fi Version Support form
Copyrights and abuse reports form
Time is now: 5th December 2019 - 23:07:11