Welcome Guest ( Log In | Register )

История благодарностей участнику m00n1ight ::: Спасибо сказали: 468 раз(а)
Дата поста: В теме: За сообщение: Спасибо сказали:
Oct 11 2019, 17:16:38 Arx Atrata - The Path Untravelled (2019)
Второй тоже был хороший, только атмосфера не зимняя, а осенняя скорее. Кое-где слышал Annorkoth с той же осенней меланхолией.
(2) infiltrator, krotovich,
Sep 15 2019, 07:23:50 Belenos - Argoat (2019)
Какая высокоинтеллектуальная дискуссия разгорелась вокруг нового альбома!

А меж тем, никак не ждал. Когда-то, лет 15 назад, мне тот Belenos нравился. Хотелось бы видеть мнения о музыке, а не вот это вот всё.
(2) infiltrator, older68,
Jul 13 2019, 06:58:32 Новатор - Старый Город (2019)
ЦИТАТА(hammer @ 13th July 2019 - 14:48:43) *
неуч

Сказал человек, не знающий, с какой стороны от запятой ставить пробел. 1488.gif
(1) vosmidesijatye,
Jun 27 2019, 18:16:04 Ashbringer - Absolution (2019)
Прошлые оба джва были ничего так. Правда, я почему-то думал, что на них всё и закончится.
(1) Chasm,
Jun 6 2019, 04:52:07 Timo Tolkki's Avalon - Return To Eden (2019)
ЦИТАТА(sadmannn @ 6th June 2019 - 05:33:18) *
но уже и трясти, по всей видимости, нечем

Как вариант: прошёл синдром утёнка, старость не радость и всё такое прочее. Быть бы сейчас лет на 20 моложе, многое было бы в кайф, более чем уверен.
(1) Dreamtale,
Dec 26 2016, 13:00:32 Mesarthim - Type III [ep] (2016)
Релизы Mesarthim летят с такой скоростью, что я не успеваю их слушать.
(2) Anhra Mainyu, DarkHorde,
Aug 6 2016, 00:30:37 Dreaming Of December - Cold Breath Of Eternity (2016)


*Artist: Dreaming Of December
*Album: Cold Breath Of Eternity
*Year: 2016
*Genre: Ambient Black Metal
*Country: Russian Federation
*Format: mp3@CBR320kbps
*Size: 180MB

Tracklist:
1. Abyss Of Despair 04:18
2. Cold Breath Of Eternity 12:10
3. Sorrow For The Lost 09:24
4. Stage Of Sleep 10:25
5. Black Emotions 05:36
6. Whiteness 06:11
7. Anabioz 10:49
8. Break Of Day 04:33
9. Cold Breath Of Eternity (Piano Version) 12:09
******************************
Total playing time: 1:15:35

[more=Technical info]
Input File: 02 - Cold Breath Of Eternity.mp3
Channels : 2
Sample Rate : 44100
Precision : 16-bit
Duration : 00:12:10.41 = 32211125 samples = 54780.8 CDDA sectors
File Size : 30.8M
Bit Rate : 337k
Sample Encoding: MPEG audio (layer I, II or III)
Comments :
Title=Cold Breath Of Eternity
Artist=Dreaming Of December
Album=Cold Breath Of Eternity
Year=2016

[/more]

Register
(9) djsema4, kim666, Ostinato, Rosen, tont, varg-38ru, varlam4, vasiljev_sergej, vosmidesijatye,
Jul 31 2016, 03:09:09 Tarja - The Shadow Self (2016)
Юмористов сейчас будет — не сосчитать.
(1) 6666666,
Jul 27 2016, 05:38:38 Eteddian - Destiny (2016)
Мне иногда кажется, что necroscum — это скрипт, автоматически заливающий всё подряд на русфолдер и постящий на МА.
(1) Igor Filth,
Jul 21 2016, 11:45:11 Perpetual Night - Mastery Of God [ep] (2016)


*Artist: Perpetual Night
*Album: Mastery Of God [ep]
*Year: 2016
*Genre: Melodic Death Metal
*Country: Spain
*Format: mp3@CBR320kbps
*Size: 51MB

Tracklist:
1. The Reborn 1:14
2. The Catcher In The Rye 5:30
3. The White Wolf 4:23
4. 28 Days 4:52
5. Evil Of The Tyrants 6:21
******************************
Total playing time: 22:20

[more=Technical info]
Input File: 01 - The Reborn.mp3
Channels : 2
Sample Rate : 44100
Precision : 16-bit
Duration : 00:01:14.07 = 3266355 samples = 5555.03 CDDA sectors
File Size : 2.96M
Bit Rate : 320k
Sample Encoding: MPEG audio (layer I, II or III)
Comments :
Title=The Reborn
Artist=Perpetual
Album=Mastery Of God
Tracknumber=1
Year=2016

[/more]

Register
(10) Buregon, Darkthronefoad, gwynnbleid, Mogozoz, neoatheist, pfk505, Rosen, satanist666, VALERY, varlam4,
Jul 18 2016, 04:08:07 Hiverna - II. Macabre (2014)
ЦИТАТА(warningwarning @ 25th May 2015 - 14:47:17) *
320kbps?

Тут не только 320, тут уже вообще ничего нет. Перезалейте, если не трудно.

UPD: Найдено с параметрами шапки.

Register
(1) kim666,
Jul 15 2016, 08:36:43 ColdWorld - Autumn (2016)
ЦИТАТА(Zahrim @ 15th July 2016 - 15:31:53) *
О каких австралийцах речь идет?

Austere, вестимо.
(1) Zahrim,
Jul 10 2016, 18:10:21 Howling North - My Own Black [ep] (2016)


*Artist: Howling North
*Album: My Own Black [ep]
*Year: 2016
*Genre: Atmospheric Black Metal
*Country: Russian Federation
*Format: mp3@CBR320kbps
*Size: 60MB

Tracklist:
1. Surrounded by sorrow 05:18
2. Numbing haze 06:23
3. The Lonely Dreary Tree 07:27
4. My Own Black 03:02
5. The Pagan Rain Part II 07:22
******************************
Total playing time: 29:32

[more=Technical info]
Input File: 01 - Surrounded by Sorrow.mp3
Channels : 2
Sample Rate : 44100
Precision : 16-bit
Duration : 00:05:18.41 = 14041837 samples = 23880.7 CDDA sectors
File Size : 12.7M
Bit Rate : 320k
Sample Encoding: MPEG audio (layer I, II or III)
Comments :
Title=Surrounded by sorrow
Artist=Howling North
Album=My own Black
Year=2016
Genre=12

[/more]

Register
(13) 0x13, 1968_janeart, Andr, Druidir, Femto, kim666, RENыч, Rosen, satanist666, tont, VALERY, varlam4, vasiljev_sergej,
Jul 10 2016, 17:46:55 Crematory - Monument (2016)
ЦИТАТА(MetalgeR @ 11th July 2016 - 01:21:13) *
Я никому не навязываю своё мнение,но Инфинити был последним толковым альбом

Awake же. Хотя найдутся ортодоксы, которые скажут, что всё закончилось на Transmigration.
(1) maxmagmas,
Jun 30 2016, 14:06:51 Melankoli - Fallen [ep] (2016)


*Artist: Melankoli
*Album: Fallen [ep]
*Year: 2016
*Genre: Depressive Black Metal
*Country: Russian Federation
*Format: mp3@CBR320kbps
*Size: 28MB

Tracklist:
1. Fallen I 07:12
2. Fallen II 04:56
******************************
Total playing time: 12:08

[more=Technical info]
Input File: Melankoli - Fallen - 01 Fallen I.flac
Channels : 2
Sample Rate : 44100
Precision : 16-bit
Duration : 00:07:12.00 = 19051201 samples = 32400 CDDA sectors
File Size : 50.6M
Bit Rate : 937k
Sample Encoding: 16-bit FLAC
Comments :
TITLE=Fallen I
ARTIST=Melankoli
DATE=2016
COMMENT=Visit http://melankoli.bandcamp.com
ALBUM=Fallen
TRACKNUMBER=1
ALBUMARTIST=Melankoli
UNSYNCEDLYRICS=Затянут тучи небо, ты падаешь на дно
Закрой глаза в полёте, ведь всё равно темно.
Омоют словно волны тебя покой и сон,
А ветер нежной песней заглушит тихий стон.

[/more]

Register
(22) 0x13, blacky66, Boozer, fabeldyr, Femto, kim666, libertine, Luminous, MeatWolf, MetallWarriorRus, Moonshtook, NachtWulf, Old Vyaine, Rosen, SatanicPanzer, satanist666, tont, umnaxtet, User123, varlam4, vasilisk, Спектр,
Jun 23 2016, 20:45:31 Bottomless Wound - Vida Arruinada (2013)


*Artist: Bottomless Wound
*Album: Vida Arruinada
*Year: 2013
*Genre: Depressive Black Metal
*Country: Chile
*Format: mp3@CBR320kbps
*Size: 111MB

Tracklist:
1. Ida sin retorno 09:28
2. Adiós al que jamás existió 09:39
3. La desdicha del nacer 07:12
4. Rencor 08:21
5. Condenado 06:38
6. Cinco letras 07:14
******************************
Total playing time: 48:32

[more=Technical info]
Input File: 01 - Ida Sin Retorno.mp3
Channels : 2
Sample Rate : 44100
Precision : 16-bit
Duration : 00:09:28.12 = 25053872 samples = 42608.6 CDDA sectors
File Size : 22.7M
Bit Rate : 320k
Sample Encoding: MPEG audio (layer I, II or III)
Comments :
Title=Ida Sin Retorno
Artist=Bottomless Wound
Album=Vida Arruinada
Tracknumber=01
Year=2013

[/more]

Register
(7) 1968_janeart, Rosen, satanist666, tont, varg-38ru, varlam4, vasiljev_sergej,
Jun 23 2016, 20:41:04 Bottomless Wound - Senda Del Solitario [ep] (2013)


*Artist: Bottomless Wound
*Album: Senda Del Solitario [ep]
*Year: 2013
*Genre: Depressive Black Metal
*Country: Chile
*Format: mp3@CBR320kbps
*Size: 47MB

Tracklist:
1. Ciclo 11:01
2. Senda del Solitario 09:27
******************************
Total playing time: 20:28

[more=Technical info]
Input File: 01 - Ciclo.mp3
Channels : 2
Sample Rate : 44100
Precision : 16-bit
Duration : 00:11:01.64 = 29178412 samples = 49623.1 CDDA sectors
File Size : 26.5M
Bit Rate : 320k
Sample Encoding: MPEG audio (layer I, II or III)
Comments :
Title=Ciclo
Artist=Disnomia
Album=Senda del Solitario
Tracknumber=01
Year=2013

[/more]

Register
(5) Rosen, satanist666, tont, varg-38ru, varlam4,
Jun 23 2016, 20:36:20 Bottomless Wound - Senda Del Solitario [ep] (2013)


*Artist: Bottomless Wound
*Album: Senda Del Solitario [ep]
*Year: 2013
*Genre: Depressive Black Metal
*Country: Chile
*Format: mp3@CBR320kbps
*Size: 47MB

Tracklist:
1. Ciclo 11:01
2. Senda del Solitario 09:27
******************************
Total playing time: 20:28

[more=Technical info]
Input File: 01 - Ciclo.mp3
Channels : 2
Sample Rate : 44100
Precision : 16-bit
Duration : 00:11:01.64 = 29178412 samples = 49623.1 CDDA sectors
File Size : 26.5M
Bit Rate : 320k
Sample Encoding: MPEG audio (layer I, II or III)
Comments :
Title=Ciclo
Artist=Disnomia
Album=Senda del Solitario
Tracknumber=01
Year=2013

[/more]

Register
(4) kim666, Rosen, satanist666, tont,
Jun 23 2016, 20:29:07 Bottomless Wound - Endless Winter & Final Breath [demo] (2011)


*Artist: Bottomless Wound
*Album: Endless Winter & Final Breath [demo]
*Year: 2011
*Genre: Depressive Black Metal
*Country: Chile
*Format: mp3@CBR320kbps
*Size: 43MB

Tracklist:
1. Endless Winter 08:55
2. Final Breath 09:49
******************************
Total playing time: 18:44

[more=Technical info]
Input File: 01 - Endless Winter.mp3
Channels : 2
Sample Rate : 44100
Precision : 16-bit
Duration : 00:08:55.56 = 23618328 samples = 40167.2 CDDA sectors
File Size : 21.4M
Bit Rate : 320k
Sample Encoding: MPEG audio (layer I, II or III)
Comments :
Title=Endless Winter
Artist=Bottomless Wound
Album=Endless Winter/Final Breath
Tracknumber=01
Year=2011

[/more]

Register
(6) morbidangelo, Rosen, satanist666, tont, varg-38ru, varlam4,
Jun 23 2016, 19:55:08 Bottomless Wound - Despised By Mankind (2012)


*Artist: Bottomless Wound
*Album: Despised By Mankind
*Year: 2012
*Genre: Depressive Black Metal
*Country: Chile
*Format: mp3@CBR320kbps
*Size: 90MB

Tracklist:
1. No Life Left Behind 07:19
2. In-Human Love 09:19
3. Last Embrace 09:51
4. Can You Give Me One Last Kiss? 12:39
******************************
Total playing time: 39:08

[more=Technical info]
Input File: 01 - No Life Left Behind.mp3
Channels : 2
Sample Rate : 44100
Precision : 16-bit
Duration : 00:07:19.92 = 19400472 samples = 32994 CDDA sectors
File Size : 17.6M
Bit Rate : 320k
Sample Encoding: MPEG audio (layer I, II or III)
Comments :
Title=No Life Left Behind
Artist=Bottomless Wound
Album=Despised by Mankind
Tracknumber=01
Year=2012

[/more]

Register
(5) Rosen, satanist666, tont, varg-38ru, varlam4,
Jun 23 2016, 19:04:45 Disnomia - Sendas De Perros Callejeros [ep] (2016)


*Artist: Disnomia
*Album: Sendas De Perros Callejeros [ep]
*Year: 2016
*Genre: Depressive Black Metal
*Country: Chile
*Format: mp3@CBR320kbps
*Size: 45MB

Tracklist:
1. Con Nostalgia en los Ojos 06:21
2. No Merecemos Más que Sobras 07:06
3. Contra el Hambre y la Sed 05:30
******************************
Total playing time: 18:57

[more=Technical info]
Input File: 01 - Con Nostalgia en los Ojos.mp3
Channels : 2
Sample Rate : 44100
Precision : 16-bit
Duration : 00:06:21.11 = 16806907 samples = 28583.2 CDDA sectors
File Size : 15.4M
Bit Rate : 323k
Sample Encoding: MPEG audio (layer I, II or III)
Comments :
Title=Con Nostalgia en los Ojos
Artist=Disnomia
Album=Sendas de Perros Callejeros
Tracknumber=1
Year=2016

[/more]

Register
(11) 0x13, 1968_janeart, Buregon, kim666, morbidangelo, Rosen, satanist666, tont, VALERY, varg-38ru, varlam4,
Jun 18 2016, 17:28:29 Beauty Of Sirin - Хроники Древесных Бардов (2016)


*Artist: Beauty Of Sirin
*Album: Хроники Древесных Бардов
*Year: 2016
*Genre: Atmospheric Post-Black Metal/Shoegaze
*Country: Russian Federation
*Format: mp3@CBR320kbps
*Size: 74MB

Tracklist:
1. Царство Древесное 05:01
2. В Тени Этих Лесов 02:33
3. Алхимик 05:42
4. Чистая Даль 04:18
5. Песня Тайги 03:36
6. Тайны Природы 10:28
******************************
Total playing time: 31:38

[more=Technical info]
Input File: 01 - Царство Древесное.mp3
Channels : 2
Sample Rate : 44100
Precision : 16-bit
Duration : 00:05:01.90 = 13313746 samples = 22642.4 CDDA sectors
File Size : 12.3M
Bit Rate : 325k
Sample Encoding: MPEG audio (layer I, II or III)
Comments :
Title=Царство Древесное
Artist=Beauty of Sirin
Album=Хроники Древесных Бардов
Tracknumber=1
Year=2016

[/more]

Register
(9) 0x13, deadterror, infiltrator, Moonshtook, Rosen, sarcophagus, SatanicPanzer, tont, varlam4,
Apr 11 2016, 02:55:02 Mayhem flac
То есть сходить на рутрекер, скачать альбомы, а потом порезать на треки CUE Tools совсем не вариант? Каждый день так делаю. Или скачать ALAC и той же программой перегнать во FLAC?
(1) Razorbladeswaltz,
Oct 17 2015, 11:27:52 Diary Of Dreams - Grau Im Licht (2015)
После нескольких подряд "танцевальных" альбомов был удивлён мрачностью и резкостью звучания, но пока окромя удивления никакого иного ощущения не сформировалось.
(1) vosmidesijatye,
Oct 2 2015, 11:10:38 Amorphis - Under The Red Cloud (2015)
У меня тоже блочит. Но нет никаких проблем забить и скачать.
(1) Lucifer,

8 Pages V   1 2 3 > » 
- Lo-Fi Version Support form
Copyrights and abuse reports form
Time is now: 14th December 2019 - 15:12:05