Welcome Guest ( Log In | Register )

История благодарностей участнику slack ::: Спасибо сказали: 18314 раз(а)
Дата поста: В теме: За сообщение: Спасибо сказали:
Today, 10:55:04 Abduction - Juego De Sangre (2019)
Банда называется Abduction R
(1) Diflock,
Yesterday, 09:10:13 Civilised Society? - Violence Still Sucks! - Scrap Metal Anthology [compilation] (2019)


*Artist: Civilised Society?
*Album: Violence Still Sucks! - Scrap Metal Anthology [compilation]
*Year: 2019
*Genre: Thrash Metal/Crossover/Hardcore Punk
*Country: United Kingdom
*Format: mp3@CBR320kbps
*Size: 208MB

Tracklist:
01. Is There Life After Work?
02. Tonight
03. Carefree
04. Pansies
05. Blotting Paper for Breakfast
06. Don't Leave Me Now
07. The Fairer Sex
08. Just a Dream
09. Last Cough Last Laugh
10. Will We Fall?
11. Star Wars
12. It's Getting Worse
13. Violence Sucks!
14. Fireball Finale
15. Free the World
16. I Can Be Free
17. Treedom
18. Life Is Pain (I Wanna Be Insane)
19. White Whips: Black Flesh
20. Tooth & Claw
21. Epitaph
22. Monotony
23. Treedom (dub)
24. Edge of Darkness
25. Why?
******************************
Total playing time: 1:28:10

Preview 1

[more=Extended info]01-12: "Scrap Metal" Lp 1986
13-21: "Violence Sucks!" Lp 1987
22: from "Destroy the World" Compilation 7" 1986
23: from "A Vile Peace" Compilation Lp 1987
24: from "Vile Vibes" Compilation CD/Lp 1990
25: from "Burning Bridges" Compilation 7" 1987[/more]

[more=Technical info]
Input File: 02 Tonight.mp3
Channels : 2
Sample Rate : 44100
Precision : 16-bit
Duration : 00:04:29.00 = 11862900 samples = 20175 CDDA sectors
File Size : 11.2M
Bit Rate : 333k
Sample Encoding: MPEG audio (layer I, II or III)
Comments :
Title=Tonight
Artist=Civilised Society?
Album=Violence Still Sucks - Scrap Metal Anthology
Tracknumber=2
Year=2019

[/more]

Register
(3) artscald, boby9052, Olethros,
Yesterday, 09:03:36 Civilised Society? - War In My Head [ep] (2018)


*Artist: Civilised Society?
*Album: War In My Head [ep]
*Year: 2018
*Genre: Thrash Metal/Crossover/Hardcore Punk
*Country: United Kingdom
*Format: mp3@CBR320kbps
*Size: 33MB

Tracklist:
01. Fireball Finale 03:46
02. Alone on a Hill 03:14
03. Why? 03:07
04. War in My Head 04:07
******************************
Total playing time: 14:14

Preview 1


[more=Technical info]
Input File: 02 Alone on a Hill.mp3
Channels : 2
Sample Rate : 44100
Precision : 16-bit
Duration : 00:03:15.00 = 8599500 samples = 14625 CDDA sectors
File Size : 7.95M
Bit Rate : 326k
Sample Encoding: MPEG audio (layer I, II or III)
Comments :
Title=Alone on a Hill
Artist=Civilised Society?
Album=War in My Head
Tracknumber=2
Year=2018

[/more]

Register
(3) artscald, boby9052, Olethros,
Yesterday, 09:00:09 Civilised Society? - Violence Sucks! (1987)


*Artist: Civilised Society?
*Album: Violence Sucks!
*Year: 1987
*Genre: Thrash Metal/Crossover/Hardcore Punk
*Country: United Kingdom
*Format: mp3@CBR320kbps
*Size: 78MB

Tracklist:
01. Violence Sucks!
02. Fireball Finale
03. Free the World
04. I Can Be Free
05. Treedoom
06. Life Is Pain (I Wanna Be Insane)
07. White Whips / Black Flesh
08. Tooth & Claw
09. Epitaph...
******************************
Total playing time: 34:40

Preview 1

[more=Extended info]Ковры в архиве

[youtube]z_zPPNdTjW0[/youtube][/more]

[more=Technical info]
Input File: 02 Fireball Finale.mp3
Channels : 2
Sample Rate : 44100
Precision : 16-bit
Duration : 00:03:31.14 = 9311098 samples = 15835.2 CDDA sectors
File Size : 8.58M
Bit Rate : 325k
Sample Encoding: MPEG audio (layer I, II or III)
Comments :
Title=Fireball Finale
Artist=Civilised Society?
Album=Violence Sucks!
Tracknumber=2/9
Year=1987
Genre=Anarcho Punk

[/more]

Register
(3) artscald, boby9052, Olethros,
Yesterday, 08:56:50 Civilised Society? - Scrap Metal (1986)


*Artist: Civilised Society?
*Album: Scrap Metal
*Year: 1986
*Genre: Thrash Metal/Crossover/Hardcore Punk
*Country: United Kingdom
*Format: mp3@CBR320kbps
*Size: 109MB

Tracklist:
01. Is There Life After Work?
02. Tonight
03. Carefree
04. Pansies
05. Blotting Paper for Breakfast
06. Don't Leave Me Now
07. The Fairer Sex
08. Just a Dream
09. Last Cough Last Laugh
10. Will We Fall?
11. Star Wars
12. It's Getting Worse
******************************
Total playing time: 43:39

Preview 1

[more=Extended info]Ковры в архиве

[youtube]DYWGgPLQ7os[/youtube][/more]

[more=Technical info]
Input File: 02 Tonight.mp3
Channels : 2
Sample Rate : 44100
Precision : 16-bit
Duration : 00:04:35.25 = 12138657 samples = 20644 CDDA sectors
File Size : 11.0M
Bit Rate : 320k
Sample Encoding: MPEG audio (layer I, II or III)
Comments :
Title=Tonight
Artist=Civilised Society?
Album=Scrap Metal
Tracknumber=2/12
Year=1986
Genre=Punk

[/more]

Register
(3) artscald, boby9052, Olethros,
Yesterday, 08:34:28 Anthrax - Anthems [ep] (2013)
Yandex 320

Register
(3) thenecromancer, vo140182fav, wendigo,
Sep 7 2019, 14:59:57 Anikilador - Autodestrucción [ep] (2017)
На вокале Petrozza. Правда аргентинского розлива 15.gif

Jorge ''Zatan'' Petrozza - Vocals (lead), Guitars
(2) infiltrator, Samaritianin,
Sep 2 2019, 11:46:46 Death - Vivus! [live] (2012)


*Artist: Death
*Album: Vivus! [live]
*Year: 2012
*Genre: Progressive Death Metal
*Country: United States
*Format: mp3@CBR320kbps
*Size: 293MB

Tracklist:
01. The Philosopher 04:10
02. Spirit Crusher 06:50
03. Trapped in a Corner 04:14
04. Scavenger of Human Sorrow 06:54
05. Crystal Mountain 05:07
06. Flesh and the Power It Holds 08:28
07. Zero Tolerance 04:49
08. Zombie Ritual 04:35
09. Suicide Machine 04:22
10. Together as One 04:09
11. Empty Words 06:22
12. Symbolic 06:33
13. Pull the Plug 04:27
14. The Philosopher 04:10
15. Trapped in a Corner 04:21
16. Crystal Mountain 05:10
17. Suicide Machine 04:25
18. Together as One 04:15
19. Zero Tolerance 04:43
20. Lack of Comprehension 03:43
21. Flesh and the Power It Holds 08:26
22. Flattening of Emotions 04:30
23. Spirit Crusher 06:45
24. Pull the Plug 04:27
******************************
Total playing time: 2:05:55

Preview 1

[more=Extended info]01-13 Recorded December 5th, 1998 at the Whisky A Go Go, Los Angeles, CA, USA.
14-24 Recorded May 31st, 1998 at the Dynamo Open Air Festival, Eindhoven, Holland.[/more]

[more=Technical info]
Input File: 02 Spirit Crusher.mp3
Channels : 2
Sample Rate : 44100
Precision : 16-bit
Duration : 00:06:27.00 = 17066700 samples = 29025 CDDA sectors
File Size : 15.6M
Bit Rate : 323k
Sample Encoding: MPEG audio (layer I, II or III)
Comments :
Title=Spirit Crusher
Artist=Death
Album=2012 Vivus!
Tracknumber=02/24
Year=2012
Genre=Death Metal

[/more]

Register
(13) artscald, caro, Hell_Is_Here, infiltrator, kimkayoung, Olethros, recber, Rosen, sepultura39, VALERY, Wail, wreak, wtk.412,
Aug 29 2019, 14:25:31 Entombed A.D. - Bowels Of Earth (2019)
popcorn.gif
(2) infiltrator, lekram,
Aug 26 2019, 08:34:19 Napalm Death - Live At Rock City [live] (2010)


*Artist: Napalm Death
*Album: Live At Rock City [live]
*Year: 2010
*Genre: Grindcore/Death Metal
*Country: United Kingdom
*Format: mp3@CBR320kbps
*Size: 113MB

Tracklist:
01. Rise Above 02:40
02. Life? 00:57
03. The Kill 00:59
04. Walls of Confinement 03:35
05. Deceiver 00:47
06. You Suffer 00:24
07. Siege of Power 03:48
08. M.A.D. 01:10
09. Retreat to Nowhere 00:45
10. Scum 02:41
11. From Enslavement to Obliteration 01:59
12. The Missing Link 02:41
13. Negative Approach 00:53
14. Mentally Murdered 02:21
15. Human Garbage 02:09
16. Stigmatized 01:43
17. Control 01:44
18. Success? 01:58
19. Social Sterility 01:18
20. Instinct of Survival 02:15
21. Dead 00:40
22. Practise What You Preach 01:10
23. Unchallenged Hate 03:52
24. Siege of Power 04:24
25. You Suffer 00:10
26. Dead 00:04
27. Deceiver 00:56
******************************
Total playing time: 48:03

[more=Technical info]
Input File: 03 The Kill.mp3
Channels : 2
Sample Rate : 44100
Precision : 16-bit
Duration : 00:00:59.00 = 2601900 samples = 4425 CDDA sectors
File Size : 2.49M
Bit Rate : 337k
Sample Encoding: MPEG audio (layer I, II or III)
Comments :
Title=The Kill
Artist=Napalm Death
Album=2010 Live at Rock City
Tracknumber=03/27
Year=2010
Genre=Grindcore/Death Metal

[/more]

Register
(7) artscald, FUDEDOR, Hell_Is_Here, Olethros, Rosen, supremo, wreak,
Aug 22 2019, 22:09:18 Sacred Reich - Alive 2019 [ep] (2019)
ЦИТАТА(vosmidesijatye @ Aug 22 2019, 21:43:15) *
Слав, ну как тебе новый альбомчес? Стоила игра свеч?

Пока не слушал ещё, хотя у себя уже даже выложил...
Как тему откроют - там обязательно отпишусь.
Всёж таки событие как-никак...
(1) vosmidesijatye,
Aug 13 2019, 14:46:49 Destruction - Born To Perish (2019)
Хороший альбом.
Все недовольные могут идти в пешее эротическое путешествие 15.gif
(1) BERZERK,
Aug 11 2019, 08:08:29 Dead Conspiracy - Abomination Underground [ep] (2013)


*Artist: Dead Conspiracy
*Album: Abomination Underground [ep]
*Year: 2013
*Genre: Death/Thrash Metal
*Country: United States
*Format: mp3@CBR320kbps
*Size: 33MB

Tracklist:
01. Abomination Underground
02. Shadows Of War
03. 1971
04. Carnage
******************************
Total playing time: 15:00

[more=Technical info]
Input File: 03 1971.mp3
Channels : 2
Sample Rate : 44100
Precision : 16-bit
Duration : 00:02:31.03 = 6660203 samples = 11326.9 CDDA sectors
File Size : 6.20M
Bit Rate : 328k
Sample Encoding: MPEG audio (layer I, II or III)
Comments :
Title=1971
Artist=Dead Conspiracy
Album=2013 Abomination Underground
Tracknumber=03/04
Year=2013
Genre=Death/Thrash Metal

[/more]

Register
(9) artscald, infiltrator, KKK1488, Olethros, Proteus_666, Rosen, sergsazan, stumpheavyrock, wreak,
Aug 9 2019, 08:09:29 Destruction - Born To Perish (2019)
ЦИТАТА(asog @ Aug 9 2019, 08:37:58) *
Ну в две гитары у них все альбомы записаны. Mike с этим справлялся хорошо + на каждом альбоме присутствовало множество гостевых гитаристов. Damir, кстати, уже на прошлом альбоме солировал, так что скорее для плотного концертного звука его взяли

Имел ввиду - в две головы скорее...
Так то понятно, что даже один безрукий гитарист на альбоме в две-три гитары играет 15.gif
А уж Майка то к безруким никак не отнесёшь.
Дамир сильно разнообразил звук. Альбом звучит свежо и необычно для Дестракшена, хотя конечно узнаваемо.
Интересно, что до этого молодой играл в различных хард-н-хэви бандах...
Вообще тенденция какая-то намечается. Трио превращаются в квартеты. Содом, теперь Дестракшен.
И ведь на пользу свежая кровь идет!
(5) Alexis The Best, asog, Diflock, infiltrator, Samaritianin,
Aug 8 2019, 22:14:51 Destruction - Born To Perish (2019)
ЦИТАТА(Samaritianin @ Aug 8 2019, 20:20:25) *
Лучший альбом у них за последние лет 15.

По первому впечатлению - так и есть. Очень дельный альбом.
Игра в две гитары явно пошла на пользу.
metaler.gif
(2) infiltrator, Samaritianin,
Aug 6 2019, 08:46:02 Нужно добавить разрешённых обменников
Лично я уже давно снес все антивирусы. В 10, что зашито, то и стоит.
Правильно Aresson сказал. Голову включай и не лазь, по всяким пронам сомнительным 15.gif


ЦИТАТА(avkruchinin @ Aug 6 2019, 09:31:44) *
6666666, есть отличный Firewall, который при установке в ОС сначала блокирует все проги и инет, потом блокирует саму Винду и в конце концов блокирует самого себя, т.е. радикально борется с угрозами, надо брать 25.gif 1488.gif

Еще можно электричество рубануть. Бонусом - за свет платить не придется crazy.gif
(1) vosmidesijatye,
Aug 5 2019, 10:10:54 Slayer - World Painted Blood (2009)
Про переписку "Энгельса с этим... Как его дьявола?.. с Каутским!..." 15.gif
(1) avkruchinin,
Aug 4 2019, 13:24:29 Risk - Dirty Surfaces (1990)
Yandex. 320 - 99 метров

Register
(2) wgs73, WX419,
Jul 4 2019, 12:28:54 Кино - 46 (1983)
Загадили этой хренатой всю ленту сегодня.
Заканчивайте уже. Форум цойжив наверняка существует. Туда идите. Или на ху ещё дальше...
(1) infiltrator,
Jul 3 2019, 08:16:21 Slayer
ЦИТАТА(vovachervova @ Jul 2 2019, 21:14:13) *
Какой на хер Юг небес - Reign In Blood - вот что незыблемо и монументально. Недаром этот альбом имеет платиновый статус.
В чем правда. Хороший альбом, но не лучший. 86 - вот никем не превзойденная классика. Это лучший тяжелый альбом 80-х. Именно с его появлением появилось много тяж групп. А вообще хули вам эта объяснять. Если вы не разбираетесь в Slayer-е то вы просто гопники.

23.gif Не гопники, а наркоманы. Причем с детства.
Это со скольки же лет надо долбиться тяжелыми препаратами, что бы мозг разложился на столько, чтоб нести такую ересь, да ещё с таким безапелляционным видом 15.gif
(1) Old Vyaine,
Jul 2 2019, 14:50:17 Лучший Speed Metal
ЦИТАТА(Alexis The Best @ Jul 2 2019, 16:02:22) *
а что у хохлов уже не африканские корни?
...говорят же"самаритянин Иисус Христос"...

17.gif а Samaritianin знает?

ЦИТАТА(clublen @ Jul 2 2019, 16:17:20) *
...Просто его министр МВД Украинестана производит, Турчинов, а чтобы ни кто не догадался, то одну букву изменил.

Эвон оно как... А я думал это соус для торчков 15.gif
(1) vosmidesijatye,
Jul 2 2019, 08:56:11 Demolition - Epochal Upheaval (2012)
320 - 130 метров



графики похожи на 192.



Register


Вот же пля... забыл, как под спойлер прятать crazy.gif
(2) troll_swamp, Wail,
Jun 28 2019, 10:15:27 Oliver Giammarioli - Necessary Evil [ep] (2012)


*Artist: Oliver Giammarioli
*Album: Necessary Evil [ep]
*Year: 2012
*Genre: Groove Metal
*Country: Canada
*Format: mp3@CBR192kbps
*Size: 23MB

Tracklist:
01. No Way Out 03:32
02. Suffering Day 03:05
03. Desecrate 02:08
04. Necessary Evil 04:26
05. Prettier Than Sylvester Stallone 02:17
******************************
Total playing time: 15:28



[more=Technical info]
Input File: 02 Suffering Day.mp3
Channels : 2
Sample Rate : 44100
Precision : 16-bit
Duration : 00:03:06.00 = 8202600 samples = 13950 CDDA sectors
File Size : 4.79M
Bit Rate : 206k
Sample Encoding: MPEG audio (layer I, II or III)
Comments :
Title=Suffering Day
Artist=Oliver Giammarioli
Album=Necessary Evil
Tracknumber=02/05
Year=2012

[/more]

Register
(6) artscald, boby9052, GorAtheist, Olethros, Rosen, wreak,
Jun 28 2019, 09:59:32 My Missing Half - Finding Reason [ep] (2012)


*Artist: My Missing Half
*Album: Finding Reason [ep]
*Year: 2012
*Genre: Melodic Death Metal/Metalcore
*Country: United States
*Format: mp3@CBR192kbps
*Size: 49MB

Tracklist:
01. Voices Within 06:34
02. Haunted 05:25
03. Finding Reason 04:45
04. Red Handed 06:30
05. Fade Away 06:20
06. Now I Rise 05:48
******************************
Total playing time: 35:22



[more=Technical info]
Input File: 02 Haunted.mp3
Channels : 2
Sample Rate : 44100
Precision : 16-bit
Duration : 00:05:25.00 = 14332500 samples = 24375 CDDA sectors
File Size : 7.94M
Bit Rate : 195k
Sample Encoding: MPEG audio (layer I, II or III)
Comments :
Title=Haunted
Artist=My Missing Half
Album=Finding Reason - EP
Tracknumber=02/06
Year=2012

[/more]

Register
(7) GorAtheist, Mogozoz, Olethros, Rosen, VALERY, wreak, zhol,
Jun 28 2019, 09:44:12 West Wall - Blitzkrieg Symphony #1 (2006)


*Artist: West Wall
*Album: Blitzkrieg Symphony #1
*Year: 2006
*Genre: Death Metal
*Country: United States
*Format: mp3@CBR320kbps
*Size: 73MB

Tracklist:
01. Panzer Voran 03:09
02. The Many Rivers I've Crossed 03:49
03. Titans' March 05:19
04. Bloody Road to Kharkov 02:44
05. Peiper's Last Stand 04:14
06. (Man with the) Iron fist (/GVB) 05:04
07. Over the Maginot 05:22
08. Blitzkrieg Symphony 02:25
******************************
Total playing time: 32:06



[more=Technical info]
Input File: 07 Over the Maginot.mp3
Channels : 2
Sample Rate : 44100
Precision : 16-bit
Duration : 00:05:23.00 = 14244300 samples = 24225 CDDA sectors
File Size : 13.1M
Bit Rate : 324k
Sample Encoding: MPEG audio (layer I, II or III)
Comments :
Title=Over the Maginot
Artist=West Wall
Album=Blitzkrieg Symphony #1
Tracknumber=07/08
Year=2006

[/more]

Register
(11) andreikun, artscald, GorAtheist, jollo, metala, Olethros, Rosen, Svafrlami, vyacheslav, wreak, Герб,

159 Pages V   1 2 3 > » 
- Lo-Fi Version Support form
Copyrights and abuse reports form
Time is now: 17th September 2019 - 11:27:13

Футбол рома фнк on line рома.