Welcome Guest ( Log In | Register )

История благодарностей участнику slack ::: Спасибо сказали: 18169 раз(а)
Дата поста: В теме: За сообщение: Спасибо сказали:
Jul 4 2019, 12:28:54 Кино - 46 (1983)
Загадили этой хренатой всю ленту сегодня.
Заканчивайте уже. Форум цойжив наверняка существует. Туда идите. Или на ху ещё дальше...
(1) infiltrator,
Jul 3 2019, 08:16:21 Slayer
ЦИТАТА(vovachervova @ Jul 2 2019, 21:14:13) *
Какой на хер Юг небес - Reign In Blood - вот что незыблемо и монументально. Недаром этот альбом имеет платиновый статус.
В чем правда. Хороший альбом, но не лучший. 86 - вот никем не превзойденная классика. Это лучший тяжелый альбом 80-х. Именно с его появлением появилось много тяж групп. А вообще хули вам эта объяснять. Если вы не разбираетесь в Slayer-е то вы просто гопники.

23.gif Не гопники, а наркоманы. Причем с детства.
Это со скольки же лет надо долбиться тяжелыми препаратами, что бы мозг разложился на столько, чтоб нести такую ересь, да ещё с таким безапелляционным видом 15.gif
(1) Old Vyaine,
Jul 2 2019, 14:50:17 Лучший Speed Metal
ЦИТАТА(Alexis The Best @ Jul 2 2019, 16:02:22) *
а что у хохлов уже не африканские корни?
...говорят же"самаритянин Иисус Христос"...

17.gif а Samaritianin знает?

ЦИТАТА(clublen @ Jul 2 2019, 16:17:20) *
...Просто его министр МВД Украинестана производит, Турчинов, а чтобы ни кто не догадался, то одну букву изменил.

Эвон оно как... А я думал это соус для торчков 15.gif
(1) vosmidesijatye,
Jul 2 2019, 08:56:11 Demolition - Epochal Upheaval (2012)
320 - 130 метров



графики похожи на 192.



Register


Вот же пля... забыл, как под спойлер прятать crazy.gif
(2) troll_swamp, Wail,
Jun 28 2019, 10:15:27 Oliver Giammarioli - Necessary Evil [ep] (2012)


*Artist: Oliver Giammarioli
*Album: Necessary Evil [ep]
*Year: 2012
*Genre: Groove Metal
*Country: Canada
*Format: mp3@CBR192kbps
*Size: 23MB

Tracklist:
01. No Way Out 03:32
02. Suffering Day 03:05
03. Desecrate 02:08
04. Necessary Evil 04:26
05. Prettier Than Sylvester Stallone 02:17
******************************
Total playing time: 15:28



[more=Technical info]
Input File: 02 Suffering Day.mp3
Channels : 2
Sample Rate : 44100
Precision : 16-bit
Duration : 00:03:06.00 = 8202600 samples = 13950 CDDA sectors
File Size : 4.79M
Bit Rate : 206k
Sample Encoding: MPEG audio (layer I, II or III)
Comments :
Title=Suffering Day
Artist=Oliver Giammarioli
Album=Necessary Evil
Tracknumber=02/05
Year=2012

[/more]

Register
(5) boby9052, GorAtheist, Olethros, Rosen, wreak,
Jun 28 2019, 09:59:32 My Missing Half - Finding Reason [ep] (2012)


*Artist: My Missing Half
*Album: Finding Reason [ep]
*Year: 2012
*Genre: Melodic Death Metal/Metalcore
*Country: United States
*Format: mp3@CBR192kbps
*Size: 49MB

Tracklist:
01. Voices Within 06:34
02. Haunted 05:25
03. Finding Reason 04:45
04. Red Handed 06:30
05. Fade Away 06:20
06. Now I Rise 05:48
******************************
Total playing time: 35:22



[more=Technical info]
Input File: 02 Haunted.mp3
Channels : 2
Sample Rate : 44100
Precision : 16-bit
Duration : 00:05:25.00 = 14332500 samples = 24375 CDDA sectors
File Size : 7.94M
Bit Rate : 195k
Sample Encoding: MPEG audio (layer I, II or III)
Comments :
Title=Haunted
Artist=My Missing Half
Album=Finding Reason - EP
Tracknumber=02/06
Year=2012

[/more]

Register
(7) GorAtheist, Mogozoz, Olethros, Rosen, VALERY, wreak, zhol,
Jun 28 2019, 09:44:12 West Wall - Blitzkrieg Symphony #1 (2006)


*Artist: West Wall
*Album: Blitzkrieg Symphony #1
*Year: 2006
*Genre: Death Metal
*Country: United States
*Format: mp3@CBR320kbps
*Size: 73MB

Tracklist:
01. Panzer Voran 03:09
02. The Many Rivers I've Crossed 03:49
03. Titans' March 05:19
04. Bloody Road to Kharkov 02:44
05. Peiper's Last Stand 04:14
06. (Man with the) Iron fist (/GVB) 05:04
07. Over the Maginot 05:22
08. Blitzkrieg Symphony 02:25
******************************
Total playing time: 32:06



[more=Technical info]
Input File: 07 Over the Maginot.mp3
Channels : 2
Sample Rate : 44100
Precision : 16-bit
Duration : 00:05:23.00 = 14244300 samples = 24225 CDDA sectors
File Size : 13.1M
Bit Rate : 324k
Sample Encoding: MPEG audio (layer I, II or III)
Comments :
Title=Over the Maginot
Artist=West Wall
Album=Blitzkrieg Symphony #1
Tracknumber=07/08
Year=2006

[/more]

Register
(10) andreikun, GorAtheist, jollo, metala, Olethros, Rosen, Svafrlami, vyacheslav, wreak, Герб,
Jun 27 2019, 16:19:21 Riot - Live At Keep It True Festival 2015 [live] (2019)


*Artist: Riot
*Album: Live At Keep It True Festival 2015 [live]
*Year: 2019
*Genre: Heavy/Power/Speed Metal
*Country: United States
*Format: mp3@CBR320kbps
*Size: 142MB

Tracklist:
01. Ride Hard Live Free
02. Fight Or Fall
03. On Your Knees
04. Johnny's Back
05. Metal Warrior
06. Wings Are For Angels
07. Sign Of The Crimson Storm
08. Bloodstreets
09. Take Me Back
10. Warrior
11. Road Racin'
12. Swords And Tequila
13. Thundersteel
******************************
Total playing time: 1:02:00

[more=Technical info]
Input File: 02 Fight Or Fall.mp3
Channels : 2
Sample Rate : 44100
Precision : 16-bit
Duration : 00:04:28.09 = 11822593 samples = 20106.5 CDDA sectors
File Size : 10.9M
Bit Rate : 325k
Sample Encoding: MPEG audio (layer I, II or III)
Comments :
Title=Fight Or Fall
Artist=Riot
Album=2018 Live at Keep It True Festival 2015
Tracknumber=02/13
Year=2018
Genre=Heavy/Speed Metal

[/more]

Register
(9) buttholesurfer, dulak, Herrant, infiltrator, Olethros, Reverend, Rosen, Rover, wreak,
Jun 27 2019, 15:51:58 Лучший Speed Metal
Вот, что всякие наркоманы в сети пишут:
"Мелодический дэт-метал (англ. melodic death metal) — поджанр дэт-метала, отличающийся мелодичностью; довольно близок к пауэр- и спид-металу." genius.gif
Такшта, Дезе, давай, досвиданнья 15.gif
(2) infiltrator, vosmidesijatye,
Jun 27 2019, 15:29:45 Reflector - 15 (2012)


*Artist: Reflector
*Album: 15
*Year: 2012
*Genre: Sludge/Doom Metal
*Country: Austria
*Format: mp3@CBR320kbps
*Size: 97MB

Tracklist:
01. Lukas 06:24
02. Disillusion 06:08
03. Love Song 05:17
04. White Dress 01:05
05. Paralyzed 03:45
06. Leave Me Alone 04:18
07. Tiles 04:04
08. Into the Great Arbitrariness 05:19
09. Sunset Strip III 04:00
******************************
Total playing time: 40:20



[more=Technical info]
Input File: 02 Disillusions.mp3
Channels : 2
Sample Rate : 44100
Precision : 16-bit
Duration : 00:06:11.00 = 16361100 samples = 27825 CDDA sectors
File Size : 15.2M
Bit Rate : 329k
Sample Encoding: MPEG audio (layer I, II or III)
Comments :
Title=Disillusions
Artist=Reflector
Album=15
Tracknumber=02/09
Year=2012

[/more]

Register
(6) Olethros, Rosen, stub888, stumpheavyrock, VALERY, wreak,
Jun 27 2019, 15:09:28 Galerna - The Abyss (2012)


*Artist: Galerna
*Album: The Abyss
*Year: 2012
*Genre: Sludge/Death Metal/Grindcore
*Country: Spain
*Format: mp3@CBR320kbps
*Size: 76MB

Tracklist:
01. The Abyss / Najt 06:52
02. Heat of the Darkness 03:23
03. Devil's Cross 03:35
04. Into Deep Wounds 05:14
05. Dagda 03:12
06. Conspiracy of Silence 04:41
07. Chemical Warfare (Slayer Cover) 06:16
******************************
Total playing time: 33:13



[more=Technical info]
Input File: 02 Heat of the Darkness.mp3
Channels : 2
Sample Rate : 44100
Precision : 16-bit
Duration : 00:03:24.00 = 8996400 samples = 15300 CDDA sectors
File Size : 8.34M
Bit Rate : 327k
Sample Encoding: MPEG audio (layer I, II or III)
Comments :
Title=Heat of the Darkness
Artist=Galerna
Album=The Abyss
Tracknumber=02/07
Year=2012

[/more]

Register
(6) infiltrator, Olethros, Rosen, Sabbathian, VALERY, wreak,
Jun 27 2019, 12:14:29 Ablaze - Ablaze (2012)


*Artist: Ablaze
*Album: Ablaze
*Year: 2012
*Genre: Melodic Thrash Metal/Metalcore
*Country: Germany
*Format: mp3@CBR320kbps
*Size: 99MB

Tracklist:
01. For the Dead Alone 04:45
02. Flatline 05:07
03. Vertigo 04:26
04. Fear 04:42
05. Inside My Head 05:30
06. My Fall of Troy 03:24
07. Epitaph 05:17
08. Alive 03:26
09. Freedom Phenomenon 06:46
******************************
Total playing time: 43:23



[more=Technical info]
Input File: 02 Flatline.mp3
Channels : 2
Sample Rate : 44100
Precision : 16-bit
Duration : 00:05:07.19 = 13547255 samples = 23039.5 CDDA sectors
File Size : 12.4M
Bit Rate : 323k
Sample Encoding: MPEG audio (layer I, II or III)
Comments :
Title=Flatline
Artist=Ablaze
Album=Ablaze
Tracknumber=02/09
Year=2012

[/more]

Register
(6) GorAtheist, Mogozoz, Olethros, Rosen, VALERY, wreak,
Jun 27 2019, 11:36:57 Whale - Dark Shapes (2012)


*Artist: Whale
*Album: Dark Shapes
*Year: 2012
*Genre: Death Metal
*Country: United States
*Format: mp3@CBR320kbps
*Size: 86MB

Tracklist:
01. Levitator 01:57
02. Ruin 01:48
03. Slaughter of Angels 01:18
04. Hedon 02:29
05. Versus 02:24
06. Abhorrence 02:58
07. Cetus 02:16
08. Blood for Blood 02:48
09. Burning Hollow 02:16
10. Dark Shapes 01:59
11. Angel of Retribution 03:36
12. Behind the Holy Mask 02:36
13. Misanthrope 02:42
14. Son of Waters 05:31
******************************
Total playing time: 36:38



[more=Technical info]
Input File: 02 Ruin.mp3
Channels : 2
Sample Rate : 44100
Precision : 16-bit
Duration : 00:01:48.18 = 4770826 samples = 8113.65 CDDA sectors
File Size : 4.51M
Bit Rate : 334k
Sample Encoding: MPEG audio (layer I, II or III)
Comments :
Title=Ruin
Artist=Whale
Album=Dark Shapes
Tracknumber=02/14
Year=2012

[/more]

Register
(9) AHBAnep, andreikun, GorAtheist, Hell_Is_Here, jollo, Olethros, Rosen, vyacheslav, wreak,
Jun 27 2019, 10:46:20 Nhorizon - Nightstalkers [ep] (2012)


*Artist: Nhorizon
*Album: Nightstalkers [ep]
*Year: 2012
*Genre: Progressive/Power Metal
*Country: Italy
*Format: mp3@CBR320kbps
*Size: 34MB

Tracklist:
01. Nightstalkers 05:21
02. Sequel 04:54
03. Restless 04:47
******************************
Total playing time: 15:02



[more=Technical info]
Input File: 02 Sequel.mp3
Channels : 2
Sample Rate : 44100
Precision : 16-bit
Duration : 00:04:54.00 = 12965400 samples = 22050 CDDA sectors
File Size : 11.9M
Bit Rate : 324k
Sample Encoding: MPEG audio (layer I, II or III)
Comments :
Title=Sequel
Artist=Nhorizon
Album=Nightstalkers
Tracknumber=02/03
Year=2012

[/more]

Register
(7) GorAtheist, Mogozoz, Olethros, Rosen, Rover, stumpheavyrock, wreak,
Jun 27 2019, 10:36:30 Centimani - In The Mountain's Shadow (Live At Kglr) [live] (2012)


*Artist: Centimani
*Album: In The Mountain's Shadow (Live At Kglr) [live]
*Year: 2012
*Genre: Death Metal
*Country: United States
*Format: mp3@CBR192kbps
*Size: 25MB

Tracklist:
01. Serpent's Coil (Live) 05:10
02. Non Servium (Live) 06:35
03. Erebus (Live) 06:16
******************************
Total playing time: 18:01

[more=Technical info]
Input File: 02 Non Servium (Live).mp3
Channels : 2
Sample Rate : 44100
Precision : 16-bit
Duration : 00:06:35.00 = 17419500 samples = 29625 CDDA sectors
File Size : 9.61M
Bit Rate : 195k
Sample Encoding: MPEG audio (layer I, II or III)
Comments :
Title=Non Servium
Artist=Centimani
Album=In the Mountain's Shadow
Tracknumber=02/03
Year=2012

[/more]

Register
(1) Rosen,
Jun 27 2019, 10:24:07 Zerotheist - Usurp The Crown (2012)


*Artist: Zerotheist
*Album: Usurp The Crown
*Year: 2012
*Genre: Groove Metal
*Country: United States
*Format: mp3@CBR192kbps
*Size: 60MB

Tracklist:
01. End Times 04:38
02. Power & Chaos 04:43
03. Usurp the Crown 04:09
04. Not to Blame 04:41
05. Shitkicker 05:30
06. Therapy 03:57
07. Venus Observa 04:19
08. The Left Hand Path 03:55
09. Standing on Your Grave 07:03
******************************
Total playing time: 42:55



[more=Technical info]
Input File: 03 Usurp the Crown.mp3
Channels : 2
Sample Rate : 44100
Precision : 16-bit
Duration : 00:04:09.00 = 10980900 samples = 18675 CDDA sectors
File Size : 6.16M
Bit Rate : 198k
Sample Encoding: MPEG audio (layer I, II or III)
Comments :
Title=Usurp the Crown
Artist=Zerotheist
Album=Usurp the Crown
Tracknumber=03/09
Year=2012

[/more]

Register
(5) boby9052, GorAtheist, Olethros, Rosen, wreak,
Jun 27 2019, 10:06:34 Ultimatum - Heart Of Metal: 20 Years Of Ultimatum [compilation] (2012)


*Artist: Ultimatum
*Album: Heart Of Metal: 20 Years Of Ultimatum [compilation]
*Year: 2012
*Genre: Thrash Metal
*Country: United States
*Format: mp3@CBR320kbps
*Size: 186MB

Tracklist:
01. Blood on a Thousand Hills 04:02
02. Scattered (Body Parts) 03:58
03. Hook Line & Sinker 04:02
04. Rip ‘n’ Tear 05:50
05. Heart of Metal (remix) 04:40
06. Locked in Chains (remix) 03:12
07. Mortal Stomp (2008) 05:32
08. Blink (2007) (remix) 02:43
09. Deathwish 05:51
10. One for All 05:24
11. Into the Pit 03:08
12. Temple of the Spirit 03:20
13. Crash Course 05:33
14. Never 04:03
15. Puppet of Destruction 04:19
16. Gutterbox 05:02
17. Darkest Void 03:59
18. Symphonic Extremities 04:31
******************************
Total playing time: 1:19:09



[more=Technical info]
Input File: 03 Hook, Line & Sinker.mp3
Channels : 2
Sample Rate : 44100
Precision : 16-bit
Duration : 00:05:52.49 = 15544897 samples = 26436.9 CDDA sectors
File Size : 14.4M
Bit Rate : 327k
Sample Encoding: MPEG audio (layer I, II or III)
Comments :
Title=Hook, Line & Sinker
Artist=Ultimatum
Album=Heart of Metal: 20Years of Ultimatum
Tracknumber=03/18
Year=2012

[/more]

Register
(6) boby9052, gwar, Mogozoz, Olethros, Rosen, wreak,
Jun 27 2019, 09:52:47 Лучший Speed Metal
ЦИТАТА(vosmidesijatye @ Jun 27 2019, 10:55:56) *
Тут видишь какой коленкор. Если другие жанры (блэк, дэт, дум, фолк, паган, МДМ, ММДМ допустим) не вызывают прений ввиду своей однозначной определенности...

Да конечно...
Я вот не понимаю, с чего это МДМ называют Мелодик ДЭТ Метал?
Енто павер какой-то. Возьми на вокал, в условный Хэловин, какого-нибудь Джо Хега. Чем не МДМ?
Или в какой-нибудь Амон Амарт возьми на микрофон какого-нибудь Брюса Дикинсона - чем не павер?

popcorn.gif
(3) Ghostb, infiltrator, vosmidesijatye,
Jun 26 2019, 15:17:42 Green Death - Pure Torture [ep] (2017)


*Artist: Green Death
*Album: Pure Torture [ep]
*Year: 2017
*Genre: Thrash Metal
*Country: United States
*Format: mp3@CBR320kbps
*Size: 31MB

Tracklist:
01. Viniculum 00:50
02. Pure Torture 03:36
03. The Reaper 02:52
04. Sickle & Scythe 05:49
******************************
Total playing time: 13:07



[more=Technical info]
Input File: 02 Pure Torture.mp3
Channels : 2
Sample Rate : 44100
Precision : 16-bit
Duration : 00:03:37.00 = 9569700 samples = 16275 CDDA sectors
File Size : 8.93M
Bit Rate : 329k
Sample Encoding: MPEG audio (layer I, II or III)
Comments :
Title=Pure Torture
Artist=Green Death
Album=Pure Torture
Tracknumber=02/04
Year=2017

[/more]

Register
(9) boby9052, Diflock, GorAtheist, gwar, Mogozoz, Olethros, Rosen, sergsazan, wreak,
Jun 26 2019, 15:10:44 Green Death - Dawn Of The Death [ep] (2012)


*Artist: Green Death
*Album: Dawn Of The Death [ep]
*Year: 2012
*Genre: Thrash Metal
*Country: United States
*Format: mp3@CBR320kbps
*Size: 20MB

Tracklist:
01. Green Death 01:15
02. Possessions 01:39
03. The Devil's Hand / Bathed in Black 05:51
******************************
Total playing time: 8:45



[more=Technical info]
Input File: 02 Possessions.mp3
Channels : 2
Sample Rate : 44100
Precision : 16-bit
Duration : 00:01:39.00 = 4365900 samples = 7425 CDDA sectors
File Size : 4.05M
Bit Rate : 327k
Sample Encoding: MPEG audio (layer I, II or III)
Comments :
Title=Possessions
Artist=Green Death
Album=Dawn of the Death
Tracknumber=2
Year=2012

[/more]

Register
(8) boby9052, GorAtheist, gwar, Mogozoz, Olethros, Rosen, sergsazan, wreak,
Jun 26 2019, 14:28:16 Jeff Darkness - Darkness Returns [ep] (2012)


*Artist: Jeff Darkness
*Album: Darkness Returns [ep]
*Year: 2012
*Genre: Death Metal
*Country: United States
*Format: mp3@CBR192kbps
*Size: 24MB

Tracklist:
01. Darkness Returns 02:24
02. Graveside Suicide 02:55
03. Haunted Eastern Shore 03:45
04. The Desecrator 05:08
******************************
Total playing time: 14:12



[more=Technical info]
Input File: 03 Haunted Eastern Shore.mp3
Channels : 2
Sample Rate : 44100
Precision : 16-bit
Duration : 00:03:45.00 = 9922500 samples = 16875 CDDA sectors
File Size : 9.28M
Bit Rate : 330k
Sample Encoding: MPEG audio (layer I, II or III)
Comments :
Title=Haunted Eastern Shore
Artist=Jeff Darkness
Album=Darkness Returns
Tracknumber=3
Year=2012

[/more]

Register
(7) chipsgott, GorAtheist, Ludwig Hagen, Olethros, Rosen, vyacheslav, wreak,
Jun 26 2019, 12:34:10 Cyanide Smile - Manifesto (2012)


*Artist: Cyanide Smile
*Album: Manifesto
*Year: 2012
*Genre: Technical Thrash Metal
*Country: United States
*Format: mp3@CBR320kbps
*Size: 100MB

Tracklist:
01. These Scars 04:48
02. Stalemate 04:22
03. The Indignant Mass 04:53
04. Cycle of Hostility 07:37
05. Innocence Lost 03:43
06. Fires of Dark Empires 04:10
07. Degenerate 04:36
08. Plague & Promise 09:02
******************************
Total playing time: 43:11



[more=Technical info]
Input File: 08 Plague & Promise.mp3
Channels : 2
Sample Rate : 44100
Precision : 16-bit
Duration : 00:09:02.34 = 23916974 samples = 40675.1 CDDA sectors
File Size : 21.9M
Bit Rate : 323k
Sample Encoding: MPEG audio (layer I, II or III)
Comments :
Title=Plague & Promise
Artist=Cyanide Smile
Album=2012 Manifesto
Tracknumber=08/08
Year=2012

[/more]

Register
(12) boby9052, GorAtheist, gwar, karlmailru, makarytch, metala, Mogozoz, neoatheist, Olethros, Rosen, stumpheavyrock, wreak,
Jun 26 2019, 11:48:13 Maps Of War - Maps Of War (2012)


*Artist: Maps Of War
*Album: Maps Of War
*Year: 2012
*Genre: Melodic Death Metal
*Country: United States
*Format: mp3@CBR192kbps
*Size: 69MB

Tracklist:
01. Prescription 666 06:15
02. Nooses for Neckties 05:00
03. Existence Denied 06:01
04. Colors 04:56
05. Gallows 05:53
06. Charon's Decree 06:47
07. Wake the Shepherd 08:04
08. An Autophobic Desire for Death 01:59
******************************
Total playing time: 44:55



[more=Technical info]
Input File: 01 Prescription 666.mp3
Channels : 2
Sample Rate : 44100
Precision : 16-bit
Duration : 00:06:15.00 = 16537500 samples = 28125 CDDA sectors
File Size : 9.23M
Bit Rate : 197k
Sample Encoding: MPEG audio (layer I, II or III)
Comments :
Title=Prescription 666
Artist=Maps of War
Album=Maps of War
Tracknumber=1
Year=2012

[/more]

Register
(10) GorAtheist, metalwoman, Mogozoz, Olethros, Rosen, sergsazan, VALERY, wreak, zhol, Сварог Барг,
Jun 26 2019, 11:37:35 Bottom - Mmxii [ep] (2012)


*Artist: Bottom
*Album: Mmxii [ep]
*Year: 2012
*Genre: Sludge/Doom Metal
*Country: United States
*Format: mp3@CBR320kbps
*Size: 32MB

Tracklist:
01. Pale Horseman 04:54
02. In an Instant 04:30
03. Scare My Friends 06:12
04. Ode 04:08
05. Bullseye 03:05
******************************
Total playing time: 22:49



[more=Technical info]
Input File: 02 In an Instant.mp3
Channels : 2
Sample Rate : 44100
Precision : 16-bit
Duration : 00:04:30.00 = 11907000 samples = 20250 CDDA sectors
File Size : 6.63M
Bit Rate : 196k
Sample Encoding: MPEG audio (layer I, II or III)
Comments :
Title=In an Instant
Artist=Bottom
Album=MMXII
Tracknumber=02/05
Year=2012

[/more]

Register
(7) BERZERK, Olethros, robertho777, Rosen, stub888, VALERY, wreak,
Jun 26 2019, 11:22:19 Mangled - Sewer Metal [ep] (2012)


*Artist: Mangled
*Album: Sewer Metal [ep]
*Year: 2012
*Genre: Death/Thrash Metal
*Country: United States
*Format: mp3@CBR320kbps
*Size: 19MB

Tracklist:
01. Gutted in the Gutter 04:11
02. Mangled 03:57
******************************
Total playing time: 8:08



[more=Technical info]
Input File: 01 Gutted in the Gutter.mp3
Channels : 2
Sample Rate : 44100
Precision : 16-bit
Duration : 00:04:12.00 = 11113200 samples = 18900 CDDA sectors
File Size : 10.4M
Bit Rate : 330k
Sample Encoding: MPEG audio (layer I, II or III)
Comments :
Title=Gutted in the Gutter
Artist=Mangled
Album=Sewer Metal
Tracknumber=01/02
Year=2012

[/more]

Register
(7) boby9052, GorAtheist, Olethros, Rosen, sergsazan, vyacheslav, wreak,

158 Pages V   1 2 3 > » 
- Lo-Fi Version Support form
Copyrights and abuse reports form
Time is now: 23rd July 2019 - 10:10:43

Футбол рома фнк on line рома.