Welcome Guest ( Log In | Register )

История благодарностей участнику slack ::: Спасибо сказали: 21342 раз(а)
Дата поста: В теме: За сообщение: Спасибо сказали:
Feb 23 2021, 07:06:12 Filthy Charity - Disgrace Of The Earth [ep] (1995)


*Artist: Filthy Charity
*Album: Disgrace Of The Earth [ep]
*Year: 1995
*Genre: Death Metal/Grindcore
*Country: France
*Format: mp3@CBR320kbps
*Size: 26MB

Tracklist:
01. Choose Your Way
02. Warshit
03. War Is Big Business
04. Destroy!
05. Over the Chaos
06. Un Jour De Plus
******************************
Total playing time: 10:53

Preview 1


[more=Technical info]
Input File: 02 Warshit.mp3
Channels : 2
Sample Rate : 44100
Precision : 16-bit
Duration : 00:01:27.86 = 3874494 samples = 6589.28 CDDA sectors
File Size : 3.65M
Bit Rate : 332k
Sample Encoding: MPEG audio (layer I, II or III)
Comments :
Title=Warshit
Artist=Filthy Charity
Album=1995 Disgrace of the Earth
Tracknumber=02/06
Year=1995
Genre=Death Metal/Grindcore

[/more]

Register
(7) infiltrator, Olethros, stumpheavyrock, Taakeferd, VALERY, wreak, Zhelezjaka,
Feb 20 2021, 20:30:18 Festerday - Cadaveric Virginity [ep] (2018)


*Artist: Festerday
*Album: Cadaveric Virginity [ep]
*Year: 2018
*Genre: Death Metal
*Country: Finland
*Format: mp3@CBR320kbps
*Size: 12MB

Tracklist:
01. The Ones Who Strangle Stars and Suns 04:06
02. Let the Sun Vomit Its Beams upon Your Cold Swollen Skin 01:11
******************************
Total playing time: 5:17

Preview 1


[more=Technical info]
Input File: 01 The Ones Who Strangle Stars and Suns.mp3
Channels : 2
Sample Rate : 44100
Precision : 16-bit
Duration : 00:04:07.00 = 10892700 samples = 18525 CDDA sectors
File Size : 10.0M
Bit Rate : 325k
Sample Encoding: MPEG audio (layer I, II or III)
Comments :
Title=The Ones Who Strangle Stars and Suns
Artist=Festerday
Album=2018 Cadaveric Virginity
Tracknumber=01/02
Year=2018
Genre=Death Metal

[/more]

Register
(12) BERZERK, caro, GorAtheist, infiltrator, nord6666, Occultas, Olethros, stumpheavyrock, thenecromancer, wanderer73, wreak, Yngwarr,
Feb 20 2021, 20:27:24 Festerday - Defile, Deflesh, Devour [ep] (2018)


*Artist: Festerday
*Album: Defile, Deflesh, Devour [ep]
*Year: 2018
*Genre: Death Metal
*Country: Finland
*Format: mp3@CBR320kbps
*Size: 9MB

Tracklist:
01. A Tree of Poison 03:02
02. Faeces 00:56
******************************
Total playing time: 3:58

Preview 1


[more=Technical info]
Input File: 01 A Tree of Poison.mp3
Channels : 2
Sample Rate : 44100
Precision : 16-bit
Duration : 00:03:02.00 = 8026200 samples = 13650 CDDA sectors
File Size : 7.44M
Bit Rate : 327k
Sample Encoding: MPEG audio (layer I, II or III)
Comments :
Title=A Tree of Poison
Artist=Festerday
Album=2018 Defile, Deflesh, Devour
Tracknumber=01/02
Year=2018
Genre=Death Metal

[/more]

Register
(11) BERZERK, caro, GorAtheist, infiltrator, nord6666, Occultas, Olethros, thenecromancer, wanderer73, wreak, Yngwarr,
Feb 16 2021, 09:40:59 Goatlord - Goatlord (1992)


*Artist: Goatlord
*Album: Goatlord
*Year: 1992
*Genre: Black/Death/Doom Metal
*Country: United States
*Format: mp3@CBR320kbps
*Size: 115MB

Tracklist:
01. Voodoo Mass 07:00
02. Blood Monk 05:53
03. Distorted Birth 06:58
04. The Fog 06:55
05. Underground Church 04:34
06. Chicken Dance 03:50
07. Acid Orgy 05:42
08. Possessed Soldiers of War 05:17
09. Sacrifice 04:20
******************************
Total playing time: 50:29

Preview 1


[more=Technical info]
Input File: 02 Blood Monk.mp3
Channels : 2
Sample Rate : 44100
Precision : 16-bit
Duration : 00:05:53.00 = 15567300 samples = 26475 CDDA sectors
File Size : 14.3M
Bit Rate : 323k
Sample Encoding: MPEG audio (layer I, II or III)
Comments :
Title=Blood Monk
Artist=Goatlord
Album=1992 Goatlord
Tracknumber=02/09
Year=1992
Genre=Black/Death Metal

[/more]

Register
(23) caro, DarkHorde, dromord, fuoco, infiltrator, KKK1488, kryptor, lacrimoza, marilin, metala, Moonshtook, multizwilling, Olethros, randumbum, sacrut, sergsazan, smes, Taakeferd, VALERY, varlam4, wendigo, wreak, wtk.412,
Feb 13 2021, 11:32:38 Fearless Iranians From Hell - Peace Through Power [ep] (2008)


*Artist: Fearless Iranians From Hell
*Album: Peace Through Power [ep]
*Year: 2008
*Genre: Crossover/Thrash Metal
*Country: United States
*Format: mp3@CBR320kbps
*Size: 43MB

Tracklist:
01. What's the News (Demo)
02. Foolish Americans (Demo)
03. Prologue (Demo)
04. Peace Through Power (Demo)
05. Holy War (Demo)
06. ltraviolence
07. Burn the Books (Demo)
08. Intro (Demo)
09. Iranians On Bikes (Demo)
******************************
Total playing time: 18:40



[more=Technical info]
Input File: 03 Prologue (demo).mp3
Channels : 2
Sample Rate : 44100
Precision : 16-bit
Duration : 00:00:46.00 = 2028600 samples = 3450 CDDA sectors
File Size : 1.98M
Bit Rate : 344k
Sample Encoding: MPEG audio (layer I, II or III)
Comments :
Title=Prologue
Artist=Fearless Iranians From Hell
Album=2008 Peace Through Power
Tracknumber=03/09
Year=2008
Genre=Crossover/Thrash Metal

[/more]

Register
(6) boby9052, gwar, infiltrator, Marek, varlam4, wreak,
Feb 13 2021, 11:28:40 Fearless Iranians From Hell - Foolish Americans (1990)


*Artist: Fearless Iranians From Hell
*Album: Foolish Americans
*Year: 1990
*Genre: Crossover/Thrash Metal
*Country: United States
*Format: mp3@CBR320kbps
*Size: 60MB

Tracklist:
01. Azan 04:37
02. New Gods 01:23
03. Crush 02:31
04. Big Crime '89 02:02
05. A Martyr in Every Home 03:02
06. The Trinity 03:00
07. Foolish Americans 01:09
08. We Own the World 02:49
09. Special Delivery 02:05
10. Decade 03:02
******************************
Total playing time: 25:40



[more=Technical info]
Input File: 02 New Gods.mp3
Channels : 2
Sample Rate : 44100
Precision : 16-bit
Duration : 00:01:23.73 = 3692493 samples = 6279.75 CDDA sectors
File Size : 3.48M
Bit Rate : 333k
Sample Encoding: MPEG audio (layer I, II or III)
Comments :
Title=New Gods
Artist=Fearless Iranians From Hell
Album=1990 Foolish Americans
Tracknumber=02/10
Year=1990
Genre=Crossover/Thrash Metal

[/more]

Register
(6) gwar, infiltrator, killingod, Olethros, Reverend, varlam4,
Feb 13 2021, 11:25:11 Fearless Iranians From Hell - Holy War (1988)


*Artist: Fearless Iranians From Hell
*Album: Holy War
*Year: 1988
*Genre: Crossover/Thrash Metal
*Country: United States
*Format: mp3@CBR320kbps
*Size: 65MB

Tracklist:
01. Faction 01:44
02. Iranian Hash 02:07
03. Forced Down Your Throat 03:05
04. Pushing Armaggedon 01:26
05. Surfin' in the Persian Gulf/655 02:06
06. All in a Days Work 02:25
07. Peace Thru Power 02:12
08. Holy War 03:16
09. Burn the Books 03:22
10. Dogsperm 02:11
11. Kneel to No One 03:44
******************************
Total playing time: 27:38



[more=Technical info]
Input File: 02 Iran Hash.mp3
Channels : 2
Sample Rate : 44100
Precision : 16-bit
Duration : 00:02:08.06 = 5647534 samples = 9604.65 CDDA sectors
File Size : 5.28M
Bit Rate : 330k
Sample Encoding: MPEG audio (layer I, II or III)
Comments :
Title=Iran Hash
Artist=Fearless Iranians From Hell
Album=1988 Holy War
Tracknumber=02/11
Year=1988
Genre=Crossover/Thrash Metal

[/more]

Register
(5) gwar, infiltrator, Olethros, Reverend, varlam4,
Feb 13 2021, 11:21:27 Fearless Iranians From Hell - Die For Allah (1987)


*Artist: Fearless Iranians From Hell
*Album: Die For Allah
*Year: 1987
*Genre: Crossover/Thrash Metal
*Country: United States
*Format: mp3@CBR320kbps
*Size: 49MB

Tracklist:
01. Die for Allah 03:15
02. Deathwish 02:01
03. What's the News? 02:15
04. Life Inside Iran 01:27
05. FIFH 01:52
06. Intro / Iranians on Bikes 02:32
07. Simple Life 01:52
08. Chant 03:24
09. Ultraviolence 02:10
******************************
Total playing time: 20:48



[more=Technical info]
Input File: 02 Deathwish.mp3
Channels : 2
Sample Rate : 44100
Precision : 16-bit
Duration : 00:02:02.26 = 5391798 samples = 9169.72 CDDA sectors
File Size : 4.99M
Bit Rate : 327k
Sample Encoding: MPEG audio (layer I, II or III)
Comments :
Title=Deathwish
Artist=Fearless Iranians From Hell
Album=1987 Die For Allah
Tracknumber=02/09
Year=1987
Genre=Crossover/Thrash Metal

[/more]

Register
(5) gwar, infiltrator, Olethros, Reverend, varlam4,
Feb 13 2021, 11:11:00 Death - Non:analog-On:stage Series-New Rochelle, Ny 12.03.1988 (Live) [live] (2020)


*Artist: Death
*Album: Non:analog-On:stage Series-New Rochelle, Ny 12.03.1988 (Live) [live]
*Year: 2020
*Genre: Death Metal
*Country: United States
*Format: mp3@CBR320kbps
*Size: 134MB

Tracklist:
01. Leprosy 06:55
02. Open Casket 05:33
03. Zombie Ritual 04:49
04. Pull the Plug 05:10
05. Left to Die 05:37
06. Forgotten Past 05:32
07. Denial of Life 04:09
08. Born Dead 04:09
09. Primitive Ways 05:41
10. Choke on It 08:54
11. Infernal Death 04:10
******************************
Total playing time: 1:00:39

[more=Technical info]
Input File: 02 Open Casket.mp3
Channels : 2
Sample Rate : 44100
Precision : 16-bit
Duration : 00:05:33.00 = 14685300 samples = 24975 CDDA sectors
File Size : 13.4M
Bit Rate : 323k
Sample Encoding: MPEG audio (layer I, II or III)
Comments :
Title=Open Casket
Artist=Death
Album=2020 Non:Analog - On:Stage Series - New Rochelle, NY 12-03-1988
Tracknumber=02/11
Year=2020
Genre=Death Metal

[/more]

Register
(15) Bzth, caro, craP_cillA, infiltrator, kimkayoung, kluval, Occultas, Olethros, recber, Reverend, Taakeferd, varlam4, wreak, WX419, Yngwarr,
Feb 13 2021, 10:36:58 Romanoff - Паранойя (2013)


*Artist: Romanoff
*Album: Паранойя
*Year: 2013
*Genre: Hard Rock/Blues/Instrumental
*Country: Russian Federation
*Format: mp3@CBR320kbps
*Size: 124MB

Tracklist:
01. Ханой
02. Адреналин
03. Мескаль
04. Паранойя
05. Оргазм Плебея
06. Симилан
07. Кошки-Мышки
08. Пепел
09. Воздух
10. Беглец
11. Хаос
******************************
Total playing time: 54:11

[more=Extended info]Земля в иллюминаторе... Да-да. Тот самый Игорь Романов, на пике славы ушедший из мега популярных тогда Землян, что бы играть музыку, ту музыку, что хочется ему. Один из лучших гитаристов СССР-России, да наверное и мира.
Виртуоз, берущий не скоростью (хотя и она имеется), а душой и сердцем.
Вряд ли этот альбом станет кому то любимым, но послушать его стоит обязательно. Послушать, что бы понять, что значит Играть, когда гитара в руках Мастера. Такого, как Игорь Евгеньевич Романов

[youtube]v3s6fR0mG-k[/youtube][/more]

[more=Technical info]
Input File: 02 Адреналин.mp3
Channels : 2
Sample Rate : 44100
Precision : 16-bit
Duration : 00:03:59.45 = 10559921 samples = 17959 CDDA sectors
File Size : 9.58M
Bit Rate : 320k
Sample Encoding: MPEG audio (layer I, II or III)
Comments :
Title=Адреналин
Artist=Romanoff
Album=Паранойя
Tracknumber=02
Year=2013

[/more]

Register
(3) infiltrator, Olethros, Yngwarr,
Feb 13 2021, 10:26:44 Romanoff - Сновидения (2006)


*Artist: Romanoff
*Album: Сновидения
*Year: 2006
*Genre: Hard Rock/Blues/Instrumental
*Country: Russian Federation
*Format: mp3@CBR320kbps
*Size: 103MB

Tracklist:
01. Байк
02. Последнии Отсчет
03. Сон Алисы
04. Кратковременное Помешательство
05. Исповедь
06. Истерия
07. Радуга
08. Палата 6
09. Огонь да Вода
******************************
Total playing time: 1:00:12

[more=Extended info]Земля в иллюминаторе... Да-да. Тот самый Игорь Романов, на пике славы ушедший из мега популярных тогда Землян, что бы играть музыку, ту музыку, что хочется ему. Один из лучших гитаристов СССР-России, да наверное и мира.
Виртуоз, берущий не скоростью (хотя и она имеется), а душой и сердцем.
Вряд ли этот альбом станет кому то любимым, но послушать его стоит обязательно. Послушать, что бы понять, что значит Играть, когда гитара в руках Мастера. Такого, как Игорь Евгеньевич Романов

[youtube]gSsCnMLu2uw[/youtube][/more]

[more=Technical info]
Input File: 02 Последнии Отсчет.mp3
Channels : 2
Sample Rate : 44100
Precision : 16-bit
Duration : 00:05:04.81 = 13441901 samples = 22860.4 CDDA sectors
File Size : 12.2M
Bit Rate : 320k
Sample Encoding: MPEG audio (layer I, II or III)
Comments :
Title=Последний Отсчет
Artist=Romanoff
Album=Snovidenia
Tracknumber=02
Year=2006

[/more]

Register
(3) infiltrator, Olethros, Yngwarr,
Feb 13 2021, 10:16:03 Romanoff - Зоофилические Фантазии (1997)


*Artist: Romanoff
*Album: Зоофилические Фантазии
*Year: 1997
*Genre: Hard Rock/Blues/Instrumental
*Country: Russian Federation
*Format: mp3@CBR320kbps
*Size: 112MB

Tracklist:
01. Распотешная Матаня
02. Океан
03. Слоник
04. Трехчастная Рапсодия ор-70-86
05. Бешенный Петух
06. Вальс Киссон
07. Африканскии Тушкан-Шанхаискии Барс
08. Всеобщии Брачныи Еанец Животных на Ферме Совхоза им Заха Бурмылыча Лупеко
******************************
Total playing time: 1:00:12

[more=Extended info]Земля в иллюминаторе... Да-да. Тот самый Игорь Романов, на пике славы ушедший из мега популярных тогда Землян, что бы играть музыку, ту музыку, что хочется ему. Один из лучших гитаристов СССР-России, да наверное и мира.
Виртуоз, берущий не скоростью (хотя и она имеется), а душой и сердцем.
Вряд ли этот альбом станет кому то любимым, но послушать его стоит обязательно. Послушать, что бы понять, что значит Играть, когда гитара в руках Мастера. Такого, как Игорь Евгеньевич Романов

[youtube]_MBmZJDYodE[/youtube][/more]

[more=Technical info]
Input File: 02 Океан.mp3
Channels : 2
Sample Rate : 44100
Precision : 16-bit
Duration : 00:07:07.74 = 18863290 samples = 32080.4 CDDA sectors
File Size : 17.1M
Bit Rate : 320k
Sample Encoding: MPEG audio (layer I, II or III)
Comments :
Title=Океан
Artist=Romanoff
Album=Zoofolicheskie Fantasii
Tracknumber=02
Year=1997

[/more]

Register
(2) infiltrator, Olethros,
Feb 13 2021, 09:53:17 Romanoff - Achtung ! Achtung ! (1995)


*Artist: Romanoff
*Album: Achtung ! Achtung !
*Year: 1995
*Genre: Hard Rock/Blues/Instrumental
*Country: Russian Federation
*Format: mp3@CBR320kbps
*Size: 136MB

Tracklist:
01. Шантажист
02. Poco Loco
03. Крещение
04. Инсектоид
05. Марш Энтуазистов
06. Валенки Блюз
07. Мессершмит-109
08. Russland
09. Собака Командора
10. Сахара
11. Умахарумума
******************************
Total playing time: 1:00:12

[more=Extended info]Земля в иллюминаторе... Да-да. Тот самый Игорь Романов, на пике славы ушедший из мега популярных тогда Землян, что бы играть музыку, ту музыку, что хочется ему. Один из лучших гитаристов СССР-России, да наверное и мира.
Виртуоз, берущий не скоростью (хотя и она имеется), а душой и сердцем.
Вряд ли этот альбом станет кому то любимым, но послушать его стоит обязательно. Послушать, что бы понять, что значит Играть, когда гитара в руках Мастера. Такого, как Игорь Евгеньевич Романов

[youtube]tG-FoCgb19U[/youtube]

[youtube]ffSXuL0Z00o[/youtube][/more]

[more=Technical info]
Input File: 02 Poco Loco.mp3
Channels : 2
Sample Rate : 44100
Precision : 16-bit
Duration : 00:04:22.04 = 11556008 samples = 19653.1 CDDA sectors
File Size : 10.5M
Bit Rate : 320k
Sample Encoding: MPEG audio (layer I, II or III)
Comments :
Title=Poco Loco
Artist=Romanoff
Album=Achtung ! Achtung !
Tracknumber=02
Year=1995

[/more]

Register
(3) infiltrator, Olethros, Yngwarr,
Feb 13 2021, 09:07:15 Romanoff - Угарочки (1993)


*Artist: Romanoff
*Album: Угарочки
*Year: 1993
*Genre: Hard Rock/Blues/Instrumental
*Country: Russian Federation
*Format: mp3@CBR320kbps
*Size: 94MB

Tracklist:
01. Бобы
02. Франция
03. Угарочки
04. Испания
05. Испания 2
06. Лук и Стрелы
07. Ювенильное Море
08. Коммендантскии Час
09. Попрыгун-Чик
******************************
Total playing time: 41:10

[more=Extended info]Земля в иллюминаторе... Да-да. Тот самый Игорь Романов, на пике славы ушедший из мега популярных тогда Землян, что бы играть музыку, ту музыку, что хочется ему. Один из лучших гитаристов СССР-России, да наверное и мира.
Виртуоз, берущий не скоростью (хотя и она имеется), а душой и сердцем.
Вряд ли этот альбом станет кому то любимым, но послушать его стоит обязательно. Послушать, что бы понять, что значит Играть, когда гитара в руках Мастера. Такого, как Игорь Евгеньевич Романов

[youtube]Z83mcER9DLU[/youtube][/more]

[more=Technical info]
Input File: 01 Бобы.mp3
Channels : 2
Sample Rate : 44100
Precision : 16-bit
Duration : 00:03:48.37 = 10071073 samples = 17127.7 CDDA sectors
File Size : 9.14M
Bit Rate : 320k
Sample Encoding: MPEG audio (layer I, II or III)
Comments :
Title=Бобы
Artist=Romanoff
Album=1993 Ugarochki
Tracknumber=01/10
Year=1993

[/more]

Register
(3) infiltrator, Olethros, Yngwarr,
Feb 8 2021, 07:03:56 Fanthrash - Trauma Despotic [ep] (2010)


*Artist: Fanthrash
*Album: Trauma Despotic [ep]
*Year: 2010
*Genre: Thrash Metal
*Country: Poland
*Format: mp3@CBR320kbps
*Size: 32MB

Tracklist:
01. Trauma Despotic 04:46
02. Aggressor 03:41
03. Toxic Mind 05:30
******************************
Total playing time: 13:57

Preview 1


[more=Technical info]
Input File: 02 Aggressor.mp3
Channels : 2
Sample Rate : 44100
Precision : 16-bit
Duration : 00:03:44.20 = 9887308 samples = 16815.1 CDDA sectors
File Size : 9.09M
Bit Rate : 324k
Sample Encoding: MPEG audio (layer I, II or III)
Comments :
Title=Aggressor
Artist=Fanthrash
Album=2010 Trauma Despotic
Tracknumber=02/03
Year=2011
Genre=Thrash Metal

[/more]

Register
(10) boby9052, caro, gwar, infiltrator, Olethros, Rosen, sergsazan, stumpheavyrock, varlam4, wreak,
Feb 6 2021, 07:50:24 False Prophet - The Second Death (1991)


*Artist: False Prophet
*Album: The Second Death
*Year: 1991
*Genre: Thrash/Death Metal
*Country: United States
*Format: mp3@CBR320kbps
*Size: 104MB

Tracklist:
01. Diabolic Rites (Intro) 02:37
02. Second Death 12:10
03. Holy Deception 06:38
04. In Satan's Name 10:25
05. Forgotten Souls 04:10
06. Bring Back a Memory 09:23
******************************
Total playing time: 45:23

Preview 1


[more=Technical info]
Input File: 03 In Satan\'s Name.mp3
Channels : 2
Sample Rate : 44100
Precision : 16-bit
Duration : 00:10:29.41 = 27756805 samples = 47205.5 CDDA sectors
File Size : 25.3M
Bit Rate : 322k
Sample Encoding: MPEG audio (layer I, II or III)
Comments :
Title=In Satan's Name
Artist=False Prophet
Album=1991 The Second Death
Tracknumber=03/05
Year=1991
Genre=Thrash/Death Metal

[/more]

Register
(9) andreikun, infiltrator, Marek, Olethros, Rosen, sergsazan, stumpheavyrock, varlam4, wreak,
Feb 2 2021, 22:08:39 F.T.G. - Kau Jangan Kurang Ajar! (2019)


*Artist: F.T.G.
*Album: Kau Jangan Kurang Ajar!
*Year: 2019
*Genre: Thrash Metal
*Country: Malaysia
*Format: mp3@CBR320kbps
*Size: 82MB

Tracklist:
01. Kita Bukan Anjing 05:19
02. Kalau Bodoh Jangan Sombong 05:09
03. Demokrasi Mimpi 03:32
04. Ibu Maafkan 04:18
05. Aku Bukan Izrail 03:36
06. Pengkhianat Lahanat 03:50
07. Dajjal (Musa Al-Samiri) 05:49
08. Kau Jangan Kurang Ajar 04:33
******************************
Total playing time: 36:06



[more=Technical info]
Input File: 02 Kalau Bodoh Jangan Sombong.mp3
Channels : 2
Sample Rate : 32000
Precision : 16-bit
Duration : 00:05:13.89 = 10044384 samples ~ 23541.5 CDDA sectors
File Size : 12.6M
Bit Rate : 322k
Sample Encoding: MPEG audio (layer I, II or III)
Comments :
Title=Kalau Bodoh Jangan Sombong
Artist=F.T.G.
Album=2019 Kau Jangan Kurang Ajar!
Tracknumber=02/08
Year=2019
Genre=Thrash Metal

[/more]

Register
(12) amiroo, boby9052, gwar, HMHamster, infiltrator, METALHUNTER, metaljosue, Olethros, Rosen, stumpheavyrock, varlam4, wreak,
Feb 2 2021, 22:04:17 F.T.G. - Kau Jangan Kurang Ajar! [ep] (2019)


*Artist: F.T.G.
*Album: Kau Jangan Kurang Ajar! [ep]
*Year: 2019
*Genre: Thrash Metal
*Country: Malaysia
*Format: mp3@CBR320kbps
*Size: 42MB

Tracklist:
01. Demokrasi mimpi
02. Dajjal
03. Kita bukan anjing
04. Pengkhianat lahanat
******************************
Total playing time: 18:49

Preview 1

[more=Technical info]
Input File: 02 Dajjal.mp3
Channels : 2
Sample Rate : 32000
Precision : 16-bit
Duration : 00:05:53.09 = 11298912 samples ~ 26481.8 CDDA sectors
File Size : 14.2M
Bit Rate : 323k
Sample Encoding: MPEG audio (layer I, II or III)
Comments :
Title=Dajjal
Artist=F.T.G.
Album=2019 Kau Jangan Kurang Ajar! EP
Tracknumber=02/04
Year=2019
Genre=Thrash Metal

[/more]

Register
(9) boby9052, gwar, HMHamster, infiltrator, METALHUNTER, Olethros, Rosen, varlam4, wreak,
Feb 2 2021, 22:01:07 F.T.G. - Stop This Madness (2004)


*Artist: F.T.G.
*Album: Stop This Madness
*Year: 2004
*Genre: Thrash Metal
*Country: Malaysia
*Format: mp3@CBR320kbps
*Size: 137MB

Tracklist:
01. Never 04:09
02. Misery (Why Should I Die) 05:14
03. Rising Pain 05:34
04. Towards the Unknown 04:42
05. All by Yourself 05:36
06. Stop This Madness 04:30
07. Be Together 04:59
08. Save Me 05:43
09. Running with the Wind 05:05
10. The Outlaw 04:41
11. Saint or Tyrant 04:12
12. The Riddle 5:53
******************************
Total playing time: 1:00:18



[more=Technical info]
Input File: 02 Misery (Why Should I Die).mp3
Channels : 2
Sample Rate : 32000
Precision : 16-bit
Duration : 00:05:13.24 = 10023648 samples ~ 23492.9 CDDA sectors
File Size : 12.7M
Bit Rate : 324k
Sample Encoding: MPEG audio (layer I, II or III)
Comments :
Title=Misery (Why Should I Die)
Artist=F.T.G.
Album=2004 Stop This Madness
Tracknumber=02/12
Year=2004
Genre=Thrash Metal

[/more]

Register
(10) amiroo, boby9052, gwar, HMHamster, infiltrator, METALHUNTER, Olethros, Rosen, varlam4, wreak,
Feb 2 2021, 21:57:00 F.T.G. - Reborn (2002)


*Artist: F.T.G.
*Album: Reborn
*Year: 2002
*Genre: Thrash Metal
*Country: Malaysia
*Format: mp3@CBR320kbps
*Size: 99MB

Tracklist:
01. Democracy 05:37
02. PG4H 05:28
03. Subsidise Mentality 03:33
04. Mind Games 03:28
05. Blind 03:26
06. Coalition, Corruption, Co-operation 04:14
07. Falling Apart 04:22
08. End of the Line 04:51
09. Delusion of Truth 04:27
10. Corruption 03:28
******************************
Total playing time: 42:54



[more=Technical info]
Input File: 02 Pg4h.mp3
Channels : 2
Sample Rate : 44100
Precision : 16-bit
Duration : 00:05:28.00 = 14464800 samples = 24600 CDDA sectors
File Size : 13.2M
Bit Rate : 323k
Sample Encoding: MPEG audio (layer I, II or III)
Comments :
Title=Pg4h
Artist=F.T.G.
Album=2002 Reborn
Tracknumber=02/10
Year=2002
Genre=Thrash Metal

[/more]

Register
(10) amiroo, boby9052, gwar, HMHamster, infiltrator, METALHUNTER, Olethros, Rosen, varlam4, wreak,
Feb 2 2021, 21:53:09 F.T.G. - Made In Malaysia - Volume 2 (2001)


*Artist: F.T.G.
*Album: Made In Malaysia - Volume 2
*Year: 2001
*Genre: Thrash Metal
*Country: Malaysia
*Format: mp3@CBR320kbps
*Size: 144MB

Tracklist:
01. Highway to Hell (AC/DC cover)
02. Smoke on the Water (Deep Purple cover)
03. Rock 'N' Roll
04. Iron Man (Black Sabbath cover)
05. Electric Eye (Judas Priest cover)
06. Sail Away
07. Empty Rooms
08. I Want Out (Helloween cover)
09. Jail Break
10. Freewheel Burning
11. Temple of the King (Rainbow cover)
12. Back in Black (AC/DC cover)
10. Aku Adalah Aku 05:30
******************************
Total playing time: 1:03:02



[more=Technical info]
Input File: 02 Smoke on the Water.mp3
Channels : 2
Sample Rate : 32000
Precision : 16-bit
Duration : 00:05:20.91 = 10269024 samples ~ 24068 CDDA sectors
File Size : 13.0M
Bit Rate : 324k
Sample Encoding: MPEG audio (layer I, II or III)
Comments :
Title=Smoke on the Water
Artist=F.T.G.
Album=2001 Made in Malaysia-Volume 2
Tracknumber=02/12
Year=2001
Genre=Thrash Metal

[/more]

Register
(10) boby9052, gwar, HMHamster, infiltrator, Marek, METALHUNTER, Olethros, Rosen, varlam4, wreak,
Feb 2 2021, 21:47:23 F.T.G. - F.T.G. (2000)


*Artist: F.T.G.
*Album: F.T.G.
*Year: 2000
*Genre: Thrash Metal
*Country: Malaysia
*Format: mp3@CBR320kbps
*Size: 124MB

Tracklist:
01. Rozanna 06:36
02. Ingat 05 53
03. Dendam 05:19
04. Negeri Kita, Orang Lain Kaya 05:00
05. Kritik 04:48
06. Sampai Bila 05:34
07. Jerat 06:50
08. Amerika 04:58
09. Kaum 03:44
10. Aku Adalah Aku 05:30
******************************
Total playing time: 48:19



[more=Technical info]
Input File: 02 Ingat.mp3
Channels : 2
Sample Rate : 44100
Precision : 16-bit
Duration : 00:05:53.00 = 15567300 samples = 26475 CDDA sectors
File Size : 14.2M
Bit Rate : 323k
Sample Encoding: MPEG audio (layer I, II or III)
Comments :
Title=Ingat
Artist=F.T.G.
Album=2000 F.T.G.
Tracknumber=02/10
Year=2000
Genre=Thrash Metal

[/more]

Register
(9) boby9052, gwar, HMHamster, infiltrator, METALHUNTER, Olethros, Rosen, varlam4, wreak,
Feb 2 2021, 21:43:02 F.T.G. - Made In Malaysia (1999)


*Artist: F.T.G.
*Album: Made In Malaysia
*Year: 1999
*Genre: Thrash Metal
*Country: Malaysia
*Format: mp3@CBR320kbps
*Size: 123MB

Tracklist:
01. Metal Health (Quiet Riot cover) 04:29
02. Paranoid (Black Sabbath cover) 02:30
03. Red Hot (Mötley Crüe cover) 03:03
04. I Shot the Sheriff (Bob Marley cover) 05:13
05. Children of the Sea (Black Sabbath cover) 05:35
06. Wish You Were Here (Pink Floyd cover) 05:25
07. Perfect Strangers (Deep Purple cover) 04:29
08. Hey You (Pink Floyd cover) 06:00
09. Heaven and Hell (Black Sabbath cover) 05:01
10. Black Night (Deep Purple cover) 03:08
11. Holy Diver (Dio cover) 04:06
12. We're Not Gonna Take It (Twisted Sister cover) 04:02
******************************
Total playing time: 53:01

[more=Technical info]
Input File: 02 Paranoid.mp3
Channels : 2
Sample Rate : 44100
Precision : 16-bit
Duration : 00:02:31.00 = 6659100 samples = 11325 CDDA sectors
File Size : 6.17M
Bit Rate : 327k
Sample Encoding: MPEG audio (layer I, II or III)
Comments :
Title=Paranoid
Artist=F.T.G.
Album=1999 Made in Malaysia
Tracknumber=02/12
Year=1999
Genre=Thrash Metal

[/more]

Register
(10) boby9052, gwar, HMHamster, infiltrator, Marek, METALHUNTER, Olethros, Rosen, varlam4, wreak,
Feb 2 2021, 21:36:47 F.T.G. - Live At Metal Wars [live] (1999)


*Artist: F.T.G.
*Album: Live At Metal Wars [live]
*Year: 1999
*Genre: Thrash Metal
*Country: Malaysia
*Format: mp3@CBR320kbps
*Size: 158MB

Tracklist:
01. Malaysia Maju 04:40
02. Life 06:52
03. Spirit to Rebel 04:39
04. Metal Health 06:56
05. Behind This Wall 03:02
06. Anak Melayu 09:09
07. Mana Tahan 03:40
08. Black Night 03:04
09. Paranoid 04:09
10. Aku Tak Peduli 04:04
11. Askar 03:22
12. We're Not Gonna Take It (Twisted Sister cover) 05:01
13. Bila Larut Malam 03:25
14. Anak Tiri 04:32
******************************
Total playing time: 1:06:35

[more=Technical info]
Input File: 02 Life.mp3
Channels : 2
Sample Rate : 32000
Precision : 16-bit
Duration : 00:06:52.31 = 13193952 samples ~ 30923.3 CDDA sectors
File Size : 16.6M
Bit Rate : 322k
Sample Encoding: MPEG audio (layer I, II or III)
Comments :
Title=Life
Artist=F.T.G.
Album=1999 Live at Metal Wars
Tracknumber=02/15
Year=1999
Genre=Thrash Metal

[/more]

Register
(7) HMHamster, infiltrator, METALHUNTER, Olethros, Rosen, varlam4, wreak,
Feb 1 2021, 09:11:33 Faith Or Fear - Live In Philadelphia 1989 [ep] (2020)


*Artist: Faith Or Fear
*Album: Live In Philadelphia 1989 [ep]
*Year: 2020
*Genre: Thrash Metal
*Country: United States
*Format: mp3@CBR320kbps
*Size: 48MB

Tracklist:
01. Lack of Motivation 03:26
02. Time Bomb 05:11
03. Punishment Area 05:06
04. What Would You Expect? 03:40
05. C.D.S. 03:39
******************************
Total playing time: 21:02

Preview 1

[more=Technical info]
Input File: 02 Time Bomb.mp3
Channels : 2
Sample Rate : 32000
Precision : 16-bit
Duration : 00:05:12.59 = 10002912 samples ~ 23444.3 CDDA sectors
File Size : 12.6M
Bit Rate : 323k
Sample Encoding: MPEG audio (layer I, II or III)
Comments :
Title=Time Bomb
Artist=Faith or Fear
Album=2020 Live in Philadelphia 1989
Tracknumber=02/05
Year=2020
Genre=Thrash Metal

[/more]

Register
(10) cancer1974, dafya328, Diflock, gwar, infiltrator, Olethros, Rosen, stumpheavyrock, varlam4, wreak,

172 Pages V   1 2 3 > » 
- Lo-Fi Version Support form
Copyrights and abuse reports form
Time is now: 26th February 2021 - 01:49:40

Футбол рома фнк on line рома.