Welcome Guest ( Log In | Register )

История благодарностей участнику slack ::: Спасибо сказали: 20516 раз(а)
Дата поста: В теме: За сообщение: Спасибо сказали:
Oct 20 2020, 09:45:28 Dofka - Humanity Bleak: Promotional Copy [ep] (2010)


*Artist: Dofka
*Album: Humanity Bleak: Promotional Copy [ep]
*Year: 2010
*Genre: Power/Thrash Metal
*Country: United States
*Format: mp3@CBR320kbps
*Size: 34MB

Tracklist:
01. Tragedy Remains 04:29
02. Evocation 04:48
03. Immaculate Lie 05:26
******************************
Total playing time: 14:43

Preview 1

[more=Extended info]В начале 90х Jim Dofka все ведущие издания тяжелой музыки
называли одним из лучших и подающих самые большие надежды гитаристом.
Но надеждам так и не суждено было сбыться... А жаль.
Гитарист и в правду замечательный

[youtube]en1lYUYP0ZM[/youtube][/more]

[more=Technical info]
Input File: 02 Evocation.mp3
Channels : 2
Sample Rate : 44100
Precision : 16-bit
Duration : 00:04:48.06 = 12703358 samples = 21604.4 CDDA sectors
File Size : 11.7M
Bit Rate : 324k
Sample Encoding: MPEG audio (layer I, II or III)
Comments :
Title=Evocation
Artist=Dofka
Album=2010 Humanity Bleak: Promotional Copy
Tracknumber=02/03
Year=2010
Genre=Power/Thrash Metal

[/more]

Register
(7) boby9052, caro, infiltrator, Marek, Olethros, Rosen, stumpheavyrock,
Oct 18 2020, 14:49:25 Dissection - Dvojí Tvář (2012)


*Artist: Dissection
*Album: Dvojí Tvář
*Year: 2012
*Genre: Thrash Metal
*Country: Czech Republic
*Format: mp3@CBR320kbps
*Size: 137MB

Tracklist:
01. Vír děsu 04:29
02. Temnota mysli 08:50
03. Tajemství minulosti 07:47
04. Odplata 05:56
05. Obrazy šílenství 05:36
06. Na perutích smrti 03:55
07. Leukemie 05:29
08. Hrozba smrti 06:21
09. Cela 04:33
10. Až vstanou mrtví 06:31
******************************
Total playing time: 59:27

[more=Technical info]
Input File: 03 Tajemstvi Minulosti.mp3
Channels : 2
Sample Rate : 44100
Precision : 16-bit
Duration : 00:07:50.05 = 20729205 samples = 35253.8 CDDA sectors
File Size : 18.9M
Bit Rate : 321k
Sample Encoding: MPEG audio (layer I, II or III)
Comments :
Title=Tajemstvi Minulosti
Artist=Dissection
Album=2012 Dvoji Tvar
Tracknumber=03/10
Year=2012
Genre=Trash Metal

[/more]

Register
(9) after21allD, boby9052, frituz3, infiltrator, Olethros, Proteus_666, Rosen, stumpheavyrock, Zombie1981,
Oct 16 2020, 09:29:10 Diamond Rexx - Psychward (2020)


*Artist: Diamond Rexx
*Album: Psychward
*Year: 2020
*Genre: Heavy/Thrash Metal
*Country: United States
*Format: mp3@CBR320kbps
*Size: 97MB

Tracklist:
01. The Answer 00:33
02. Love Is Pain 03:00
03. Teenage Refugee 02:18
04. Ride 02:42
05. Ur Everything 03:56
06. Psychward 04:18
07. Want It All 04:01
08. That's Alright 02:23
09. Pain 03:02
10. Under the Gun 03:36
11. Forever 03:22
12. Dead 04:15
13. Ace of Spades (Motörhead cover) 02:56
******************************
Total playing time: 40:22



[more=Technical info]
Input File: 02 Love Is Pain.mp3
Channels : 2
Sample Rate : 44100
Precision : 16-bit
Duration : 00:03:00.36 = 7953964 samples = 13527.1 CDDA sectors
File Size : 7.30M
Bit Rate : 324k
Sample Encoding: MPEG audio (layer I, II or III)
Comments :
Title=Love is Pain
Artist=Diamond Rexx
Album=2020 Psych Ward
Tracknumber=02/13
Year=2020
Genre=Thrash Metal

[/more]

Register
(19) andreikun, boby9052, caro, Diflock, frituz3, gwar, infiltrator, Lukittaz, metala, multizwilling, Niknne, Olethros, postal67, Reverend, Rosen, Rover, sergsazan, stumpheavyrock, vir2al,
Oct 16 2020, 09:25:34 Diamond Rexx - Promo '02 [ep] (2002)


*Artist: Diamond Rexx
*Album: Promo '02 [ep]
*Year: 2002
*Genre: Heavy Metal
*Country: United States
*Format: mp3@CBR320kbps
*Size: 31MB

Tracklist:
01. Someone 03:27
02. Sick 03:09
03. Rainy Daze 05:26
04. American Band 03:12
******************************
Total playing time: 15:14

Preview 1


[more=Technical info]
Input File: 02 Sick.mp3
Channels : 2
Sample Rate : 44100
Precision : 16-bit
Duration : 00:03:09.44 = 8354436 samples = 14208.2 CDDA sectors
File Size : 7.68M
Bit Rate : 324k
Sample Encoding: MPEG audio (layer I, II or III)
Comments :
Title=Sick
Artist=Diamond Rexx
Album=2002 Promo '02
Tracknumber=02/04
Year=2002
Genre=Heavy Metal

[/more]

Register
(8) boby9052, caro, gwar, infiltrator, Olethros, Reverend, Rosen, sergsazan,
Oct 14 2020, 11:06:54 Sargatanas - Live 2001 [live] (2001)


*Artist: Sargatanas
*Album: Live 2001 [live]
*Year: 2001
*Genre: Black/Death Metal
*Country: Mexico
*Format: mp3@CBR320kbps
*Size: 77MB

Tracklist:
01. Eternal Darkness / Black Magic (Slayer cover) 05:03
02. Hell's Lair 05:02
03. Sargatanas 03:56
04. Ritual of the Advent 03:54
05. The Age of Flames 03:13
06. Re-Animation (Sacrifice cover) 03:54
07. Warlord of Hell 05:29
08. Fear & Suffering 02:51
******************************
Total playing time: 33:22

Preview 1

[more=Extended info]Качество, конечно жесть...[/more]

[more=Technical info]
Input File: 02 Hell\'s Lair.mp3
Channels : 2
Sample Rate : 32000
Precision : 16-bit
Duration : 00:05:02.30 = 9673440 samples ~ 22672.1 CDDA sectors
File Size : 12.2M
Bit Rate : 322k
Sample Encoding: MPEG audio (layer I, II or III)
Comments :
Title=Hell's Lair
Artist=Sargatanas
Album=2001 Live 2001
Tracknumber=02/08
Year=2001
Genre=Black/Death Metal

[/more]

Register
(6) infiltrator, Olethros, Reverend, Rosen, VALERY, Wail,
Oct 14 2020, 10:30:27 Deviated Instinct - Husk [ep] (2018)


*Artist: Deviated Instinct
*Album: Husk [ep]
*Year: 2018
*Genre: Crust Punk/Death/Thrash Metal
*Country: United Kingdom
*Format: mp3@CBR320kbps
*Size: 49MB

Tracklist:
01. Brave New Herd 04:30
02. We Harvest Just Shadows 04:01
03. None Shall Mourn 06:50
04. Longpig Crawling 05:59
******************************
Total playing time: 21:20



[more=Technical info]
Input File: 02 We Harvest Just Shadows.mp3
Channels : 2
Sample Rate : 44100
Precision : 16-bit
Duration : 00:04:02.00 = 10672200 samples = 18150 CDDA sectors
File Size : 9.83M
Bit Rate : 325k
Sample Encoding: MPEG audio (layer I, II or III)
Comments :
Title=We Harvest Just Shadows
Artist=Deviated Instinct
Album=2018 Husk
Tracknumber=02/04
Year=2018
Genre=Crust Punk/Death/Thrash Metal

[/more]

Register
(6) boby9052, chipsgott, Cruor, infiltrator, Olethros, Rosen,
Oct 12 2020, 19:23:00 Destroyers - Dziewięć Kręgów Zła (2020)
И 30 лет не прошло...
Тут в воскрешение кого угодно поверишь 15.gif
(1) Samaritianin,
Oct 11 2020, 21:21:31 Manowar - Battle Hymns (1982)
ЦИТАТА(Utugg @ Oct 11 2020, 22:50:24) *
...А slack, хоть и слушает много дерьма, но иногда конкретно шарит. h27001.gif

Не иногда, а Всегда 15.gif
(1) Utugg,
Oct 11 2020, 20:09:30 Manowar - Battle Hymns (1982)
ЦИТАТА(Tarelka @ Oct 11 2020, 21:44:28) *
Шо здесь не так? Мановаровский And Justice For All фактически fear.gif

А патамушта And Justice For All - дерьмо crazy.gif
(1) Katarchean,
Oct 11 2020, 19:36:05 Manowar - Battle Hymns (1982)
У Manowar лучший альбом это Sign of the Hammer
Это великий альбом. Где каждый из музыкантов показал свою неимоверною крутость. Именно каждый, и именно неимоверную...
"Чугунно-Металлический" Мэновар - это именно про этот альбом.
Дальше - xерня всякая, которую слушать не возможно, которую я и не слушаю...
(1) Kazoth,
Oct 11 2020, 19:25:50 Détente - Falke [ep] (2019)


*Artist: Détente
*Album: Falke [ep]
*Year: 2019
*Genre: Thrash/Speed Metal
*Country: United States
*Format: mp3@CBR320kbps
*Size: 31MB

Tracklist:
01. The Blood You Spill 03:38
02. Human Condition 02:45
03. Seeds 03:10
04. Fucked 03:55
******************************
Total playing time: 13:28

Preview 1

[more=Extended info]Продолжение... (начало в ЕР 2018)
Так и не уговорив Tiina и видимо смирившись, Стив таки решает продолжить...
Но тут, как на зло и Дэнис делает ему ручкой и тогда Стив набирает совершенно непонятных людей. И если барабанер ещё в адеквате, то вокалист,
если его конечно можно так назвать - полный "алес капут"...
Jeff McLeod это что-то с чем то... Вы можете услышать его на этой ЕРишке.
После сего творения, ждать нового полноформата видимо не приходится...
Когда-то всему приходит конец.
Видимо пришёл бесславный конец, когда то славной группе Détente[/more]

[more=Technical info]
Input File: 01 The Blood You Spill.mp3
Channels : 2
Sample Rate : 44100
Precision : 16-bit
Duration : 00:03:38.56 = 9638276 samples = 16391.6 CDDA sectors
File Size : 8.88M
Bit Rate : 325k
Sample Encoding: MPEG audio (layer I, II or III)
Comments :
Title=The Blood You Spill
Artist=Detente
Album=2019 Falke
Tracknumber=01/04
Year=2019
Genre=Thrash Metal

[/more]

Register
(13) after21allD, boby9052, BugEyes, caro, chipsgott, gwar, Marek, metala, Olethros, Rosen, rpa, stumpheavyrock, Wail,
Oct 11 2020, 18:36:03 Détente - Détente (2018)


*Artist: Détente
*Album: Détente
*Year: 2018
*Genre: Thrash/Speed Metal
*Country: United States
*Format: mp3@CBR320kbps
*Size: 21MB

Tracklist:
01. Blood You Spill 03:38
02. Human Condition 02:45
03. Catalepsy (2010) 02:57
******************************
Total playing time: 9:20

Preview 1

[more=Extended info]Да-да... Это тот самый, некогда славный Détente
И это инструментал, хотя для него и слова были написаны...
И здесь начинается интересная история.
Спустя 8 лет молчания, Steve Hochheiser, отец основатель, автор музыки
и текстов, решает реанимировать Détente.
Он пишет несколько песен, анонсируя их, как превью к будущему полноформату.
Вот только вокалистка - Tiina Teal наотрез отказывается присоединяться к группе... Стиву уговорить её не удаётся, а по его словам - именно для её вокала он эти песни и писал...
Видимо в надежде на будущее сотрудничество он решает издать эту ЕРишку, как инструментал...
Продолжение сей занимательной истории на следующей ЕРишке 2019 - Falke
[youtube]dFe08BcXC5s[/youtube][/more]

[more=Technical info]
Input File: 01 Blood You Spill.mp3
Channels : 2
Sample Rate : 32000
Precision : 16-bit
Duration : 00:03:36.76 = 6936288 samples ~ 16256.9 CDDA sectors
File Size : 8.78M
Bit Rate : 324k
Sample Encoding: MPEG audio (layer I, II or III)
Comments :
Title=Blood You Spill
Artist=Detente
Album=2018 Detente
Tracknumber=01/03
Year=2018
Genre=Thrash Metal

[/more]

Register
(12) after21allD, boby9052, caro, drud, gwar, Marek, metala, oldthrashman, Olethros, Rosen, rpa, Wail,
Oct 10 2020, 09:28:01 Death Angel - Under Pressure [ep] (2020)
Я люблю акустику, но здесь как то не интересно всё сделано...
Нет мощи Марка, а это сразу беда.
Много вокала Роба, а это ещё хуже.
Не нужно им акустику играть. Не получается.
У ПиВи хоть бы уроки взяли. Вот где мастер
(3) infiltrator, thenecromancer, vitaminoid,
Oct 10 2020, 08:02:33 Transmetal - El Infierno De Dante (1993)
Yandex - 320

Register
(2) Dmitry1977, frituz3,
Oct 8 2020, 19:01:15 Order From Chaos - And I Saw Eternity [ep] (1996)


*Artist: Order From Chaos
*Album: And I Saw Eternity [ep]
*Year: 1996
*Genre: Black/Death Metal
*Country: United States
*Format: mp3@CBR320kbps
*Size: 47MB

Tracklist:
01. The Edge of Forever 08:12
02. Webs of Perdition 04:31
03. Imperium 03:49
04. De Stella Nova 03:56
******************************
Total playing time: 20:28



[more=Technical info]
Input File: 04 De Stella Nova.mp3
Channels : 2
Sample Rate : 44100
Precision : 16-bit
Duration : 00:03:55.42 = 10382110 samples = 17656.6 CDDA sectors
File Size : 9.58M
Bit Rate : 326k
Sample Encoding: MPEG audio (layer I, II or III)
Comments :
Title=De Stella Nova
Artist=Order From Chaos
Album=1996 And I Saw Eternity
Tracknumber=04/04
Year=1996
Genre=Black/Death Metal

[/more]

Register
(9) cist, DarkHorde, infiltrator, Olethros, Rosen, SilentNidhogg, stumpheavyrock, Wail, wreak,
Oct 8 2020, 18:55:07 Order From Chaos - Plateau Of Invincibility [ep] (1994)


*Artist: Order From Chaos
*Album: Plateau Of Invincibility [ep]
*Year: 1994
*Genre: Black/Death Metal
*Country: United States
*Format: mp3@CBR320kbps
*Size: 42MB

Tracklist:
01. Plateau of Invincibility 07:48
02. Nuctemeron (Sodom cover) 03:05
03. Dead of the Night (Venom cover) / Senile Decay (Venom cover) 07:42
******************************
Total playing time: 18:35



[more=Technical info]
Input File: 02 Nuctemeron.mp3
Channels : 2
Sample Rate : 44100
Precision : 16-bit
Duration : 00:03:03.47 = 8091071 samples = 13760.3 CDDA sectors
File Size : 7.43M
Bit Rate : 324k
Sample Encoding: MPEG audio (layer I, II or III)
Comments :
Title=Nuctemeron (Sodom cover)
Artist=Order From Chaos
Album=1994 Plateau Of Invicibility
Tracknumber=02/03
Year=1994
Genre=Black/Death Metal

[/more]

Register
(7) infiltrator, Olethros, Rosen, SilentNidhogg, VALERY, Wail, wreak,
Oct 8 2020, 14:40:53 Entombed - To Ride, Shoot Straight And Speak The Truth [ep] (2014)
А я Х его З...
Вроде, как часть кампании по переизданию альбомов Threeman Recordings

Но раз уж такая ЕРишка есть, то пусть и на МА будет
(1) Old Vyaine,
Oct 8 2020, 11:17:46 Entombed - Clandestine [live] (2017)
Yandex

Register
(9) Bitchkiller, cancer1974, frituz3, infiltrator, legion01, Metalass, ripper33, SKuzmin, supremo,
Oct 7 2020, 20:45:16 Entombed - To Ride, Shoot Straight And Speak The Truth [ep] (2014)


*Artist: Entombed
*Album: To Ride, Shoot Straight And Speak The Truth [ep]
*Year: 2014
*Genre: Death Metal/Death 'n' Roll
*Country: Sweden
*Format: mp3@CBR320kbps
*Size: 15MB

Tracklist:
01. To Ride, Shoot Straight and Speak the Truth 03:10
02. Damn Deal Done 03:26
******************************
Total playing time: 6:36

Preview 1

[more=Technical info]
Input File: 01 To Ride, Shoot Straight And Speak The Truth.mp3
Channels : 2
Sample Rate : 44100
Precision : 16-bit
Duration : 00:03:13.50 = 8533438 samples = 14512.6 CDDA sectors
File Size : 7.88M
Bit Rate : 326k
Sample Encoding: MPEG audio (layer I, II or III)
Comments :
Title=To Ride, Shoot Straight And Speak The Truth
Artist=Entombed
Album=2014 To Ride, Shoot Straight And Speak The Truth
Tracknumber=01/02
Year=2014
Genre=Death Metal

[/more]

Register
(12) cancer1974, caro, gwar, infiltrator, Marek, Metalass, Olethros, Rosen, SKuzmin, stumpheavyrock, VALERY, wreak,
Oct 7 2020, 20:40:53 Entombed - Clandestine [live] (2017)


*Artist: Entombed
*Album: Clandestine [live]
*Year: 2017
*Genre: Death Metal/Death 'n' Roll
*Country: Sweden
*Format: mp3@CBR320kbps
*Size: 221MB

Tracklist:
Act I
01. Prelude - Clandestine 01:23
02. Living Dead 06:03
03. Sinners Bleed 06:31
04. Evilyn 06:07
05. Blessed Be 05:21
06. Interlude - The Deep Slumber 00:58
07. Stranger Aeons 04:08
08. Chaos Breed 08:03
09. Crawl 05:57
10. Severe Burns 05:28
11. Postlude - Through the Collonades 06:17
Act II
01. Intro 00:40
02. Living Dead 04:46
03. Sinners Bleed 05:38
04. Evilyn 05:37
05. Blessed Be 05:20
06. Stranger Aeons 03:44
07. Chaos Breed 05:14
08. Crawl 05:43
09. Severe Burns 05:32
10. Through the Collonades 05:47
11. Left Hand Path 07:37
******************************
Total playing time: 1:51:54

[more=Extended info]Act I - симфонический оркестр
Act II - сам Entombed
Записан 12 ноября 2016 года.[/more]

[more=Technical info]
Input File: 02 Living Dead.mp3
Channels : 2
Sample Rate : 44100
Precision : 16-bit
Duration : 00:04:46.63 = 12640207 samples = 21497 CDDA sectors
File Size : 11.6M
Bit Rate : 323k
Sample Encoding: MPEG audio (layer I, II or III)
Comments :
Title=Living Dead
Artist=Entombed
Album=2017 Clandestine
Tracknumber=02/11
Year=2017
Genre=Death Metal

[/more]

Register
(13) as71, caro, infiltrator, Marek, Metalass, Niknne, Olethros, ripper33, Rosen, Thrashman, VALERY, wreak, zyklon,
Oct 5 2020, 20:21:39 Master - God Of Thunder [live] (2019)


*Artist: Master
*Album: God Of Thunder [live]
*Year: 2019
*Genre: Death/Thrash Metal
*Country: United States
*Format: mp3@CBR320kbps
*Size: 99MB

Tracklist:
01. Master 03:26
02. Subdue the Politician 05:20
03. Slaves to Society 03:46
04. Judgement of Will 03:24
05. Sugmerged in Sin 04:48
06. Unknown Soldier 03:10
07. Re-entry and Destruction 03:12
08. Collection of Souls 03:47
09. Cut Thru the Filth 07:26
10. Children of the Grave (Black Sabbath cover) 04:54
******************************
Total playing time: 43:13

Preview 1

[more=Technical info]
Input File: 03 Slaves To Society.mp3
Channels : 2
Sample Rate : 44100
Precision : 16-bit
Duration : 00:03:45.63 = 9950107 samples = 16922 CDDA sectors
File Size : 9.18M
Bit Rate : 325k
Sample Encoding: MPEG audio (layer I, II or III)
Comments :
Title=Slaves To Society
Artist=Master
Album=2019 God of Thunder
Tracknumber=03/10
Year=2019
Genre=Death Metal

[/more]

Register
(21) Aresson, canadaspaceman, caro, infiltrator, infozahist, legion01, Niknne, Olethros, Pinhead666, popen13, Proteus_666, rakk, recber, Rosen, rpa, stumpheavyrock, supremo, Wail, wanderer73, wreak, wtk.412,
Oct 3 2020, 15:21:53 Dementia - The Insanity Chronicles (1996)


*Artist: Dementia
*Album: The Insanity Chronicles
*Year: 1996
*Genre: Thrash/Speed Metal
*Country: United States
*Format: mp3@CBR320kbps
*Size: 73MB

Tracklist:
01. Armageddon
02. The Black Widow
03. Fall from Grace
04. Celebrations of Evil
05. B.A.D. (Bondage and Discipline)
06. The Elders
07. Terror from Beneath
08. Flames of Desire
09. Till Death Do Us Part
10. Questions of Sanity
******************************
Total playing time: 32:11

[more=Extended info]Единственный и совершенно потрясающий альбом американцев

[youtube]H_b-5F5Xglg[/youtube][/more]

[more=Technical info]
Input File: 02 The Black Widow.mp3
Channels : 2
Sample Rate : 44100
Precision : 16-bit
Duration : 00:02:43.02 = 7189006 samples = 12226.2 CDDA sectors
File Size : 6.66M
Bit Rate : 327k
Sample Encoding: MPEG audio (layer I, II or III)
Comments :
Title=The Black Widow
Artist=Dementia
Album=1996 The Insanity Chronicles
Tracknumber=02/10
Year=1996
Genre=Thrash/Speed Metal

[/more]

Register
(22) after21allD, boby9052, Diflock, Evilded, gwar, infiltrator, metala, muskatnuss, Olethros, Proteus_666, Reverend, Rosen, samokot, sergsazan, stumpheavyrock, thenecromancer, THROWER666, traitor666, v.v.m, Wail, wgs73, Yarri,
Oct 3 2020, 15:15:02 Delirio - Insanity Chronicles (1996)


*Artist: Delirio
*Album: Insanity Chronicles
*Year: 1996
*Genre: Thrash/Speed Metal
*Country: United States
*Format: mp3@CBR320kbps
*Size: 73MB

Tracklist:
01. Armageddon
02. The Black Widow
03. Fall from Grace
04. Celebrations of Evil
05. B.A.D. (Bondage and Discipline)
06. The Elders
07. Terror from Beneath
08. Flames of Desire
09. Till Death Do Us Part
10. Questions of Sanity
******************************
Total playing time: 32:06

[more=Extended info]Единственный и совершенно потрясающий альбом американцев.
320 здесь сомнительны (бывает, что такие графики дают и реальные 320)
Ну что есть...

[youtube]H_b-5F5Xglg[/youtube][/more]

[more=Technical info]
Input File: 02 The Black Widow.mp3
Channels : 2
Sample Rate : 44100
Precision : 16-bit
Duration : 00:02:43.02 = 7189006 samples = 12226.2 CDDA sectors
File Size : 6.66M
Bit Rate : 327k
Sample Encoding: MPEG audio (layer I, II or III)
Comments :
Title=The Black Widow
Artist=Dementia
Album=1996 The Insanity Chronicles
Tracknumber=02/10
Year=1996
Genre=Thrash/Speed Metal

[/more]

Register
(9) boby9052, frituz3, gwar, infiltrator, metala, Olethros, Rosen, sergsazan, stumpheavyrock,
Oct 2 2020, 18:27:59 Лучший советчик МА - Часть 10 (Умнодэт) - Тур 2, Рейтингование
Странные у меня отношения с этим стилем. Техно Дэт я люблю. Вот только слушаю его
крайне редко. Стиль такой, что его надо слушать. Не фоном в машине или ещё где гонять,
а именно слушать. Вот только время на это редко когда есть. А когда случается, то ставлю
старые, проверенные временем альбомы, которые наизусть знаю. До новых дело так и не доходит. Так что здесь для меня всё услашанно впервые.

Absorbed - Reverie - 2
Отличный альбом. Так и не смог хотя бы для себя сформулировать почему не три...
Возможно помешали лёгкие заходы в прог или скорее
в эксперементал, что рвёт целостность альбома. Но в целом - отличная работа!

Alterbeast - Immortal - 2
Здесь скорее технично сыгранный прибруталенный дэт с заходом в техникал.
Подпортил впечатленния второй вокал, который скорее подходит к блэку.
Понравились. На 3 не наиграли, но очень качественно.

Angel Of Disease - Hypercube - 2
Практически гениально. Не портят впечатления ни заигрывания с модерном, ни дурацкий второй вокал, настолько всё хорошо сделано.

Anomalous - Ohmnivalent - 2
Брутал не мой стиль. Но играют здорово. Именно играют и поют, а не терзают инструменты и пердят в микрофон, как это в основном бывает в брутале.
Кто котирует данный стиль должен ставить минимум 4

Blood Dress - Beyond The Flesh - 3
Шедеврально. Возможно немного вокал не дотягивает до уровня остальной группы,
но сделано и сыграно шедеврально

Burning Inside - The Eve Of The Entities - 1
Странные ощушения от прослушивания. Как будто прослушал множество наработок
для будующих песен. Наработки шикарные, но в целостную картину так и не сложившиеся. Или так и задуманно было, или паршивая аранжировка. Если первое - то беда. Барабаны уговаривали на 2, но не смогли

Carbonized - Disharmonization - 0
Слушать это - себя пытать. Я не смог. Да и дэт здесь весьма фрагментарный.

Creepmime - Chiaroscuro - 2
Чего то техникала я здесь не услышал. Хороший, крепкий дэт метал. В дэтовой голосовалке поставил бы больше.

De Profundis - The Blinding Light of Faith -3
Мне понравилось. Тоже не сильно умнодэт, зато заходит на ура.

Deviant Process - Paroxysm - 2
Хороший альбом получился. Правда подзатянули немного. Под конец, так и вовсе надоетать стали.

Disaffected - Vast -2
Я люблю среднетемп, но здесь с этим перебор, мягко говоря. Временами так и хотелось пинка дать, чтоб не тормозили

Disembarkation - Rancorous Observision - 0
Это не есть плохо. Это есть не моё. Ну совсем не моё. Даже высочайший уровень музыкантов не смог уговорить хотя бы на 1

Disentomb - The Decaying Light - 0
Бессмысленный забой. Ничего интересного не обнаружил.

Dungortheb - Intended to… - 2
Не выдающийся, но хорошо заходящий альбом. Особенно на фонее двух предыдущих нулей, так и вовсе шикарен

Essence of Datum - Event Horizon - 2
Живо напомнили (в хорошем смысле) дрaчун0в из Драгонфорса. Без вокала скучно. Надеюсь возьмут хоть какого нибудь горлопана и будут моими кумирами ))

Exocrine - Molten Giant - 1
По уровню можно было и 3 поставить, но я как то не проникся. Возможно слишком сложно для меня. Не зашли

Gigan - Quasi-Hallucinogenic Sonic Landscapes - 1
Какофония звуков. Наверняка кому то нравится. Мне нет.

Hadal Maw - Senium - 1
Ничего интересного ни в музыке, ни в музыкантах. Зато слушается неплохо

Haunter - Sacramental Death Qualia - 1
Начало каждой песни предвещало что-то интересное. На выхлопе - затянуто, нудно, скучно. Не ноль только потому, что ноли вообще слушать не возможно.

Hellwitch - Syzygial Miscreancy - 3
Здесь больше трэша показалось. Хорошо зашли. Оказалось, что с 80х играют.
А я и не слышал. Наверстаю.

Meatus - Inner Demons (A 3 Act Noise Opera) - 0
Сразу неладное заподозрил, когда в начале альбома чувак, одним пальцем по клависину тыркать начал. Херня какая-то. Как будто на репе дурака валяли, а потом по приколу издать решили.

Naughty Nation - Cosmic Equity - 0
Как и в предыдущем чудо альбоме затянутое начало. Только не одним пальцем, а всеми 10ю по роялю знатно поюлозили, что породило надежду на чудные 3 балла.
На выхлопе - те же яйца, только в профиль, та же дурь, только позабористее. Ну и таланта побольше, хотя слушать это невозможно.

Neglected Fields - Mephisto Lettonica - 1
Колебался между 1 и 2. Излишняя (на мой вкус) мелодичность, перебор с клавишами
и вокалист, которого хотелось забить до полусмерти (я не злой) его же микрофоном,
не дали поставить два.

Orphalis - The Approaching Darkness -2
Хорошие музыканты, хороший альбом. Но, что бы ставить больше нужно любить
брутал. Я не люблю.

Phantasmagory - Anamorphosis of Dreams - 0
Если простывший человек что-то говорит в микрофон, а слегка перегруженные гитары
играют попсу, то это никак не дэт. Особенно с клависином на переднем фоне. Хрень какая то.

Posthumous Blasphemer - Fracture The Worship - 2
Сначала хотел 1 поставить, но чем дальше - тем больше нравились, хотя до 3 не наиграли

Pronostic - An Atomic Decision youtube - 3
Без идиотских закидонов, коими в основном прикрывают своё неумение писать и аранжирововать музыку. Не самый лучший образец технодета вообще, но однозначно один из лучших в этом списке.

Proteus - Personal Narrative of Cognitive Dreamscapes -0
Это ноль. Хотя на фоне других нолей - практически шедевр

Quest Of Aidance - Misanthropic Propaganda - 2
На мой вкус слегка звук перенасыщен. Много всего. Много барабанов на фоне слишком перегруженного баса. Много гитар. Эфектов всяких тоже много. Как то даже два соло одновременно запихнуть умудрились. Перебор

Scent Of Death - Of Martyrs's Agony And Hate - 1
Еденица для брутала от меня - практически похвала.

Strangulation - Between Nothing And Eternity - 2
1 - мало, 2 - много. Что бы играть техникал надо не просто умело пользовать инструменты. Нужно обладать недюженным аранжировочным талантом, чтоб органично вписать все задуманные навороты в произведение. Большинство это делать не умеют. Здесь тоже не сильно удалось

Succubus - Destiny - 3
Это то, что я жду от технодэта. Хороший, технично сыгранный дэт без излишних заумств.
Даже не здоровая тяга к симфо не испортала впечатлений

Supuration - The Cube - 1
Ничего умного не услышал. Придумленый и местами какой то придурковатый альбом.

Threnody - Bewildering Thoughts - 1
Такой себе дэт, лайт версии. Некоторые песни по структуре вообще, как хард рок сделаны.

Traumatic Voyage - Traumatic… -1
Ну - атмосферно. На этом всё...

Ulsect - Ulsect - 3
А вот зашло. Целиком альбом слушать тяжело. Навевает скуку и тоску, но каждая песня в отдельности - шедевральна.

Vale of Miscreation - Emergence Within The Corridor Of Unholy Lacerations - 0
Я не понимаю как это может не то что нравится, я не понимаю, как это вообще можно слушать.

Vielikan - A Trapped Way For Wisdom - 2
Этот и следующие два альбома я слушал в один день. И они очень похожи. Не музыкой, а моими ощущениями от них. Еденица, как максимум в начале и всё большее восхищение в конце. Здесь до трех не хватило - избыток прога, заторможенность какая то, затянутость...

Virvum - Illuminance - 2
Заигрывания с модерном, лишний второй вокал - минус. Высочайшее владение инструментами - плюс. Ну никак нельзя меньше ставить.

Vörnagar - The Bleeding Holocaust - 3
Самый неоднозначный альбом. Поначалу думал - еденица. Кор или брутал (Х его З) в избытке... Но настолько качественно сыгранно! Да - не моя музыка. Да - скорее всего никогда больше не услышу их. Да - не самые техничные...
НО! Альбом сделан бесподобно. Знают что, как и зачем они это делают! Круто

Wicked Innocence - Omnipotence - 0
Это лучший ноль из всех нолей. Но это ноль

Wormhole - The Weakest Among Us - 0
Вокалёл так забавно булькант в мкрофон, что даже хотел один поставить. Но заставить себя не смог

Понятно, что сам формат этого мероприятия подразумевает выискивание жемчужин в куче дерьма, но таки хотелось бы, что бы этих жемчужин, на килограмм
удобрений было побольше 15.gif
(9) Deze, Emm Human, Foneg, FunZombie, infiltrator, mirotvorets, Old Vyaine, Thiarnan, Un4given,
Oct 1 2020, 11:10:12 Deicidios - Primogenitvm (2019)


*Artist: Deicidios
*Album: Primogenitvm
*Year: 2019
*Genre: Old School Death/Thrash Metal
*Country: Peru
*Format: mp3@CBR320kbps
*Size: 84MB

Tracklist:
01. Intro (Marcha fúnebre) 02:07
02. 69,000 03:55
03. Mercaderes de almas 03:52
04. Eligiendo a tus verdugos 05:33
05. Guerreros 03:11
06. Mente mórbida 05:24
07. Pesadilla 03:41
08. Anonimus 03:14
09. Triunfo del infierno 05:15
******************************
Total playing time: 36:12

[more=Extended info]Шикарный олдскул от перуанцев!
Первый альбом с 1988 года

[youtube]vsSoHLdn8Ao[/youtube][/more]

[more=Technical info]
Input File: 06 Mente Morbida.mp3
Channels : 2
Sample Rate : 44100
Precision : 16-bit
Duration : 00:05:25.48 = 14353756 samples = 24411.1 CDDA sectors
File Size : 13.2M
Bit Rate : 324k
Sample Encoding: MPEG audio (layer I, II or III)
Comments :
Title=Mente Morbida
Artist=Deicidios
Album=2019 Primogenitvm
Tracknumber=06/09
Year=2019
Genre=Death Metal

[/more]

Register
(27) AHBAnep, andreikun, boby9052, cesar, chipsgott, DarkHorde, Darkness, Diflock, FartNapalm, frituz3, infiltrator, jollo, Olethros, Rosen, Samaritianin, samokot, sergsazan, Shadechaser, stumpheavyrock, troll_swamp, VALERY, vyacheslav, Wail, wanderer73, wreak, WX419, zhol,

169 Pages V   1 2 3 > » 
- Lo-Fi Version Support form
Copyrights and abuse reports form
Time is now: 22nd October 2020 - 01:33:29

Футбол рома фнк on line рома.