Welcome Guest ( Log In | Register )

История благодарностей участнику slack ::: Спасибо сказали: 18719 раз(а)
Дата поста: В теме: За сообщение: Спасибо сказали:
Jan 13 2020, 13:12:45 Abortion - Murdered Culture (1998)
Yandex - 320

Register
(3) morbidangelo, varlam4, Zhelezjaka,
Jan 10 2020, 14:26:20 Denonciator - Denonce Si Y'a Tor! (2011)


*Artist: Denonciator
*Album: Denonce Si Y'a Tor!
*Year: 2011
*Genre: Thrash Metal/Crossover
*Country: France
*Format: mp3@CBR320kbps
*Size: 63MB

Tracklist:
01. La tombe du bébé Inconu 02:53
02. Putain d'bourgeois 01:32
03. Controleur trop con 03:12
04. Curé branle-toi! 04:10
05. Denonce si y'a tor 03:02
06. Lache l'affaire 03:33
07. Arrète de t'lamenter 04:35
08. Poly p'tit chien 04:10
******************************
Total playing time: 27:07

[more=Extended info]С 1989го года группа наиграла на один альбом.

[youtube]W0BmS6Gp6_c[/youtube][/more]

[more=Technical info]
Input File: 02 Putain d\'bourgeois.mp3
Channels : 2
Sample Rate : 44100
Precision : 16-bit
Duration : 00:01:32.85 = 4094553 samples = 6963.53 CDDA sectors
File Size : 3.88M
Bit Rate : 334k
Sample Encoding: MPEG audio (layer I, II or III)
Comments :
Title=Putain d'bourgeois
Artist=Denonciator
Album=2011 Denonce si y'a tor!
Tracknumber=02/08
Year=2011
Genre=Thrash Metal/Crossover

[/more]

Register
(7) gwar, METALHUNTER, morbidangelo, Olethros, Rosen, stumpheavyrock, varlam4,
Jan 9 2020, 12:51:43 Rage - In Vain (Edition III) [ep] (1998)
Поправил.
Только это программа сама так решила при заливе...
(2) infiltrator, vosmidesijatye,
Jan 9 2020, 08:01:49 Rage - In Vain (Edition III) [ep] (1998)


*Artist: Rage
*Album: In Vain (Edition III) [ep]
*Year: 1998
*Genre: Heavy/Speed/Power Metal
*Country: Germany
*Format: mp3@CBR320kbps
*Size: 38MB

Tracklist:
01. In Vain (I Won't Go Down) - Radio Mix 03:41
02. Sent by the Devil 04:52
03. Higher than the Sky 06:17
04. Motorbreath (Metallica cover) 03:26
******************************
Total playing time: 18:16

Preview 1

[more=Technical info]
Input File: 02 Sent by the Devil.mp3
Channels : 2
Sample Rate : 44100
Precision : 16-bit
Duration : 00:04:51.83 = 12869835 samples = 21887.5 CDDA sectors
File Size : 11.8M
Bit Rate : 324k
Sample Encoding: MPEG audio (layer I, II or III)
Comments :
Title=Sent by the devil (live)
Artist=Rage
Album=1998 In vain (edition 3)
Tracknumber=02/04
Year=1998
Genre=Speed/Power Metal

[/more]

Register
(9) ASkyThatBurns, boby9052, gwar, infiltrator, kimkayoung, Olethros, Rosen, senecazm, VALERY,
Jan 9 2020, 07:59:02 Rage - In Vain (Edition II) [ep] (1998)


*Artist: Rage
*Album: In Vain (Edition II) [ep]
*Year: 1998
*Genre: Heavy/Speed/Power Metal
*Country: Germany
*Format: mp3@CBR320kbps
*Size: 43MB

Tracklist:
01. In Vain (I Won't Go Down) - Radio Mix 03:41
02. From the Cradle to the Grave 04:51
03. Alive but Dead 06:00
04. Paint It, Black (Rolling Stones cover) 04:36
******************************
Total playing time: 19:08

Preview 1

[more=Technical info]
Input File: 02 From the Cradle to the Grave.mp3
Channels : 2
Sample Rate : 44100
Precision : 16-bit
Duration : 00:04:52.04 = 12879052 samples = 21903.1 CDDA sectors
File Size : 11.8M
Bit Rate : 325k
Sample Encoding: MPEG audio (layer I, II or III)
Comments :
Title=From the cradle to the grave (live orchestral version)
Artist=Rage
Album=1998 In vain (edition 2)
Tracknumber=02/04
Year=1998
Genre=Speed/Power Metal

[/more]

Register
(9) ASkyThatBurns, boby9052, gwar, infiltrator, kimkayoung, Olethros, Rosen, senecazm, VALERY,
Jan 9 2020, 07:56:06 Rage - In Vain (Edition I) [ep] (1998)


*Artist: Rage
*Album: In Vain (Edition I) [ep]
*Year: 1998
*Genre: Heavy/Speed/Power Metal
*Country: Germany
*Format: mp3@CBR320kbps
*Size: 33MB

Tracklist:
01. In Vain (I Won't Go Down) - Radio Mix 03:41
02. Turn the Page 04:43
03. Incomplete 03:51
04. Yesterday (The Beatles cover) 02:32
******************************
Total playing time: 14:47

Preview 1

[more=Technical info]
Input File: 02 Turn the Page.mp3
Channels : 2
Sample Rate : 44100
Precision : 16-bit
Duration : 00:04:43.63 = 12508083 samples = 21272.2 CDDA sectors
File Size : 11.5M
Bit Rate : 324k
Sample Encoding: MPEG audio (layer I, II or III)
Comments :
Title=Turn the page (live acoustic version)
Artist=Rage
Album=1998 In vain (edition 1)
Tracknumber=02/04
Year=1998
Genre=Speed/Power Metal

[/more]

Register
(9) ASkyThatBurns, boby9052, gwar, infiltrator, kimkayoung, Olethros, Rosen, senecazm, VALERY,
Dec 24 2019, 20:42:53 Лучший советчик МА - Часть 4 (Блэк) - Тур 2, Рейтингование
15.gif 15.gif 15.gif

[youtube]QpLbkxEL5bs[/youtube]
(2) eternald, infiltrator,
Dec 24 2019, 20:37:46 Slayer - Christ Illusion (2006)
Лови
Yandex - 320

Register
(1) zyklon,
Dec 19 2019, 13:03:34 Auberon - Frequency Of Pain [ep] (2017)
Yandex - 320

Register
(1) trueandevil,
Dec 17 2019, 08:07:08 Auberon - Frequency Of Pain [ep] (2017)


*Artist: Auberon
*Album: Frequency Of Pain [ep]
*Year: 2017
*Genre: Melodic Death/Thrash Metal
*Country: Sweden
*Format: mp3@CBR320kbps
*Size: 38MB

Tracklist:
01. Frequency of Pain 04:28
02. I am Fire 04:02
03. Gutter 03:39
04. Satans Delight 04:35
******************************
Total playing time: 16:44

[more=Extended info]Возвращение, после 16ти летнего молчания...

[youtube]_6gKjuFTPJc[/youtube][/more]

[more=Technical info]
Input File: 02 I Am Fire.mp3
Channels : 2
Sample Rate : 44100
Precision : 16-bit
Duration : 00:04:02.00 = 10672200 samples = 18150 CDDA sectors
File Size : 9.78M
Bit Rate : 323k
Sample Encoding: MPEG audio (layer I, II or III)
Comments :
Title=I Am Fire
Artist=Auberon
Album=2017 Frequency of Pain
Tracknumber=02/04
Year=2017
Genre=Melodic Death/Thrash Metal

[/more]

Register
(14) AHBAnep, ASkyThatBurns, gwynnbleid, infiltrator, kimkayoung, Mogozoz, Olethros, Rosen, sergsazan, soulflesh, stumpheavyrock, varlam4, zhol, Сварог Барг,
Dec 13 2019, 12:07:06 Atomic - Slashing Victory (1994)
Отличный альбом. Я проникся!

320 - Yandex

Register
(1) thenecromancer,
Dec 10 2019, 23:28:07 Slayer - The Repentless Killogy [live] (2019)
Плохо помнишь! Голосят всё время.
(3) BERZERK, infiltrator, Lux,
Dec 10 2019, 11:46:54 Slayer - The Repentless Killogy [live] (2019)


*Artist: Slayer
*Album: The Repentless Killogy [live]
*Year: 2019
*Genre: Thrash Metal
*Country: United States
*Format: mp3@CBR320kbps
*Size: 212MB

Tracklist:
01. Delusions of Saviour 01:55
02. Repentless 03:25
03. The Antichrist 02:43
04. Disciple 04:31
05. Postmortem 04:05
06. Hate Worldwide 02:52
07. War Ensemble 03:46
08. When the Stillness Comes 04:21
09. You Against You 04:21
10. Mandatory Suicide 05:05
11. Hallowed Point 03:38
12. Dead Skin Mask 04:59
13. Born of Fire 03:00
14. Cast the First Stone 03:43
15. Bloodline 04:03
16. Seasons in the Abyss 06:05
17. Hell Awaits 06:50
18. South of Heaven 04:25
19. Raining Blood 02:32
20. Chemical Warfare 05:25
21. Angel of Death 05:53
******************************
Total playing time: 1:27:37

Preview 1

[more=Technical info]
Input File: 02 Repentless.mp3
Channels : 2
Sample Rate : 44100
Precision : 16-bit
Duration : 00:03:25.00 = 9040500 samples = 15375 CDDA sectors
File Size : 8.32M
Bit Rate : 325k
Sample Encoding: MPEG audio (layer I, II or III)
Comments :
Title=Repentless
Artist=Slayer
Album=2019 The Repentless Killogy
Tracknumber=02/21
Year=2019
Genre=Thrash Metal

[/more]

Register
(26) 0x13, acundof, Aresson, cancer1974, caro, cesar, chipsgott, Diflock, Hell_Is_Here, infiltrator, kimkayoung, LEGION69, Mannard, Olethros, recber, ripper33, Rosen, russ777, senecazm, sepultura39, supremo, thenecromancer, VALERY, varlam4, WX419, ZA670,
Dec 5 2019, 09:19:58 Лучший советчик МА - Часть 3 (Трэш) - Тур 2, Рейтингование
ЦИТАТА(slack @ Dec 4 2019, 10:52:08) *
Poltergeist - Behind My Mask - 0
Ещё одни клоуны из прошлого. Что тогда над ними потешались,
что теперь желание слушать пропадает сразу после включения.

Чёрт!
Это к Megace цитата. Ошибся при копировании.
Так шта не ругайтесь. Поправил 15.gif



Получилось вот так, что тоже наверное странновато 15.gif

ЦИТАТА(slack @ Dec 4 2019, 10:52:08) *
Poltergeist - Behind My Mask - 1
Как то мне не удаётся ими проникнуться. Раньше не зашли. Сейчас вот тоже никак...
(1) Yarri,
Dec 4 2019, 11:01:02 Лучший советчик МА - Часть 3 (Трэш) - Тур 2, Рейтингование
Alexis The Best, ну так на сколько я помню, наши вкусы во многом схожи...
(1) Alexis The Best,
Dec 4 2019, 08:52:08 Лучший советчик МА - Часть 3 (Трэш) - Тур 2, Рейтингование
На удивление нашел то, чего буду слушать и дальше. Есть ещё жемчуг в кучах 15.gif
Красным выделил тех, кого ранее не слышал

1986:
Sacrilege B.C. - Party With God - 2
Эти ребята мне всегда нравились. Классика, чёужтам

1987:
Apocalypse - Apocalypse - 0
Как оказалось у меня даже винил их есть... А я их совсем не помню. Видимо тогда не зашли и сейчас не интересно.
Временами вроде и ничего, особенно когда не поют.

Blessed Death - Destined For Extinction - 1
Если бы чувак хоть чуть-чуть поменьше визжал, было бы 2

Blood Feast - Kill for Pleasure - 2
Хороший альбом. Не шедевр, но всегда мне нравился.
Если кто вдруг не знаком с недавним альбомом ветеранов - срочно знакомиться.

Violent Force - Malevolent Assault of Tomorrow - 2
На пару лет запоздали ребята с этим альбомом, с этим звуком.
Иначе возможно сейчас бы иконами были.

1988:
Agony - The First Defiance - 3
Однозначно - шедевр. Не знаю, что пошло не так и группа распалась,
но этот альбом и в 80е очень котировался и сейчас слушается на одном дыхании.

Airdash - Thank God It's Monday - 1
Очень средненько, тем более, что тогда в Финляндии были групп и поинтереснее -
Faff- Bey хотя бы.

Armoros - Pieces - 2
Отличный альбом. Помню долго за ним охотился и совсем недавно только нашёл.
Но до 3 всё-таки не дотягивает

Blind Illusion - The Sane Asylum - 0
Сказочная хрень. Больше и добавить нечего.

Znowhite - Act of God - 1
Как будто банда неврастеников на серьёзных щах, перегрузив гитары играет детские песни из мультиков.
На микрофоне - Вуди Вудпеккер. Забавно, есть в этом что-то...

1989:
Drifter - Nowhere To Hide - 1
Слишком слащаво. Но стараются. За старание еденица.

LWS Inc. - Welcome To The Asylum - 3
Один из немногих альбомов, который я открыл для себя сравнительно недавно,
но знаю наизусть.

Shah - Beware - 1
Ну понастольгировать разве что. Наши группы того времени сейчас забавно слушать.

The Mist - Phantasmagoria - 3
Вокал в стиле Лемми оригинален. Внезапно понравилось.

Wrathchild America - Climbin' the Walls - 0
Хэви какой-то со звуком из начала 80х

1990:
Meliah Rage - Solitary Solitude - 2
Никогда не был их поклонником, но меньше ставить нельзя, заслужили

Wrath - Insane Society - 1
Давно не слушал. Казалось поинтересней. Плюс, вернее минус - модный в 80х вокал
а ля молодой Блитц

1991:
Attomica - Disturbing The Noise - 3
Суровые бразильцы заслуживают высшего бала. Без сомнений и вопросов.

Megace - Human Errors - 0
Ещё одни клоуны из прошлого. Что тогда над ними потешались,
что теперь желание слушать пропадает сразу после включения.
Это надо уметь так испортить хорошую музыку такими воКАЛЬНЫМИ потугами

Poltergeist - Behind My Mask - 1
Как то мне не удаётся ими проникнуться. Раньше не зашли. Сейчас вот тоже никак...

1992:
Decision D - Razon de la Muerte - 0
Слушать это - себя мучить. Я больше не буду.

Depressive Age - First Depression - 2
Эдакий проабгрейденный, ранний Хэлловин. Одобряю.

Despair - Beyond All Reason - 3
Вроде и не заслуживают 3, но меньше рука не поднялась поставить.

Thought Industry - Songs for Insects - 0
Такой музыкой можно пытать. ВИА психбольницы имени Кащенко, палата №6

1993:
Аспид - Кровоизлияние - 2
Одна из немногих наших групп, которую переодически послушиваю.

Depressive Age - Lying in Wait - 0
По сравнению с предыдущим альбомом - просто хрень

1995:
Yosh - Metaphors - 0
Очередная попытка сыграть проабгрейденную Металлику.

1996:
Testor - Ruiny - 0
Это просто не моё. Но здесь я хотя бы понимаю, за что это может нравиться.

1997:
Трупный Яд - Время убивать - 1
По первому разу не сильно зашло, но надо будет ещё послушать.

1998:
Punisher - Disillusioned - 1
Лучше тех которым поставил 0, хотя и единицы многовато.

2001:
King's Evil - Deletion Of Humanoise - 2
Хороший альбом, но слишком однообразный.

2002:
Cyst - Concussion Symphony - 0
Трэша мало. Кор какой то, да ещё и посредственный.

2004:
Speed Kill Hate - Acts Of Insanity - 2
Чего не хватило для тройки я так и не понял. Вроде всё, как я люблю, но 3 не дам

2007:
Wolfpack Unleashed - Anthems Of Resistance - 2
Ребята переслушали Рэйдж. Времен Black in Mind. Вокалист - ПиВи на минималках.
Но ведь это не плохо.

2009:
Alkoholizer - Drunk or Dead - 3
А вот это просто шедеврально. Как-то мимо меня прошли.
Мои победители в данной номинации


Cautiva - Human - 2
Очень сильная работа. Но это не совсе трэш, мягко говоря. Да и некоторый перебор
с наворотами, на мой взгляд излишен. Но хороший альбом. Буду слушать.

2010:
Cruel Force - The Rise Of Satanic Might - 1
Олдскульно, но малоинтересно.

Musica Diablo - Musica Diablo - 1
Просто - примитивно. Ни отвращения, ни эмоций. Ничего. Прости Хаммер )))

2012:
Bio-Cancer - Ear Piercing Thrash - 1
Если уж ты не поёшь, а гавкаешь, то хотя бы делай это как боевой пёс, а не шавка из подворотни.

2015:
Fog of War - Here Lies Humanity - 1
Притрэшованный павер какой-то. Хотя временами очень не плохо.

2016:
Korrosiah - The Specter - 2
Ничего выдающегося, но понравилось. Тем более всё по феншую олдскулу.

The Conjuring - Tortured Spirits - 2
Хороший Слэер, правильный.

Спасибо всем, особенно тем, кто посоветовал группы, которые раньше не слышал и которым поставил 2 - Язва, Johnix, Cooperalex
Особая благодарность Phantom_Voodoo за The Mist
И мой герой - cancer1974 за Alkoholizer 9.gif
(3) Deze, Phantom_Voodoo, Язва,
Dec 1 2019, 20:46:42 Лучший советчик МА - Часть 3 (Трэш) - Тур 2, Рейтингование
Blind Illusion это сказочное говно... Как оно может нравится?

P.S.
Даже смайлы воткнуть некуда 15.gif
(2) nadin85, Penetralia,
Nov 27 2019, 21:24:26 Dressed To Kill - Midnight Impulsion (2019)
ЦИТАТА(Samaritianin @ Nov 27 2019, 21:45:20) *
что не так у них с менталитетом в сравнении с Землянами? fear.gif crazy.gif

В сравнении с Землянами - у них нет Романова 15.gif
(2) russ777, Samaritianin,
Nov 27 2019, 12:48:44 Dementia - Dementia Live! [live] (1985)
Please re-up this
(1) thenecromancer,
Nov 25 2019, 09:15:46 Infernäl Mäjesty - Demon God [ep] (2007)
320 Yandex

Register
(2) Dmitry1977, quicksand,
Nov 22 2019, 13:29:32 Deicide - Deicide (Live In Nottingham) [live] (2010)


*Artist: Deicide
*Album: Deicide (Live In Nottingham) [live]
*Year: 2010
*Genre: Death Metal
*Country: United States
*Format: mp3@CBR320kbps
*Size: 93MB

Tracklist:
01. They Are the Children of the Underworld 03:36
02. Bastard of Christ 02:57
03. Bible Basher 02:30
04. Lunatic of God's Creation 03:08
05. Serpents of the Light 03:38
06. Sacrificial Suicide 03:03
07. Once upon the Cross 02:56
08. Deicide 04:06
09. Dead but Dreaming 03:18
10. When Satan Rules His World 03:01
11. Dead by Dawn 04:05
12. Mephistopheles 03:54
******************************
Total playing time: 40:12

Preview 1

[more=Technical info]
Input File: 04 Lunatic of God s Creation.mp3
Channels : 2
Sample Rate : 44100
Precision : 16-bit
Duration : 00:03:08.00 = 8290800 samples = 14100 CDDA sectors
File Size : 7.62M
Bit Rate : 324k
Sample Encoding: MPEG audio (layer I, II or III)
Comments :
Title=Lunatic of God's Creation
Artist=Deicide
Album=2010 Deicide (Live in Nottingham)
Tracknumber=04/12
Year=2010
Genre=Death Metal

[/more]

Register
(19) AHBAnep, AlexStorm, beast666, caro, cenzored, craP_cillA, Hell_Is_Here, infozahist, kimkayoung, KKK1488, legion01, let4ikmiha, multizwilling, Olethros, Rosen, sepultura39, VALERY, varlam4, wreak,
Nov 20 2019, 13:07:33 Deceased - Up The Tombstones!!! Live 2000 [live] (2002)


*Artist: Deceased
*Album: Up The Tombstones!!! Live 2000 [live]
*Year: 2002
*Genre: Thrash/Death Metal
*Country: United States
*Format: mp3@CBR320kbps
*Size: 128MB

Tracklist:
01. The Silent Creature 09:06
02. The Premonition 05:25
03. The 13 Frightened Souls 04:03
04. Robotic Village 02:59
05. The Triangle 05:57
06. Dark Chilling Heartbeat 06:21
07. Fearless Undead Machines 07:45
08. The Psychic 05:46
09. Headhunter (Krokus cover) 04:04
10. Sick Thrash 04:08
******************************
Total playing time: 55:34

[more=Technical info]
Input File: 01 The Silent Creature.mp3
Channels : 2
Sample Rate : 44100
Precision : 16-bit
Duration : 00:09:08.27 = 24178487 samples = 41119.9 CDDA sectors
File Size : 22.0M
Bit Rate : 321k
Sample Encoding: MPEG audio (layer I, II or III)
Comments :
Title=The Silent Creature
Artist=Deceased
Album=2002 Up the Tombstones!!! Live 2000
Tracknumber=01
Year=2000
Genre=Thrash/Death Metal

[/more]

Register
(9) AHBAnep, Hell_Is_Here, kimkayoung, Olethros, Rosen, thenecromancer, varlam4, wn129aa, wreak,
Nov 15 2019, 07:36:57 Лучший советчик МА - Часть 3 (Трэш) - Тур 2, Рейтингование
Один из лучших вокалов показал в 1985ом Paul Baloff
(2) quicksand, Yarri,
Nov 12 2019, 22:42:53 Лучший советчик МА - Часть 3 (Трэш) - Тур 2, Рейтингование
Посмотрел оценки - ну удивляют многие.
По памяти - Attomica, да, внушает...
Но конечно неадекваты зашкаливают 15.gif
(1) raattent,
Nov 7 2019, 16:22:03 Acetic - Living The Afterlife [ep] (1993)
Думаю, что зря в лов. По собственному опыту - скорее запись такая...
(1) pichileon,

161 Pages V   1 2 3 > » 
- Lo-Fi Version Support form
Copyrights and abuse reports form
Time is now: 20th January 2020 - 15:40:45

Футбол рома фнк on line рома.