Welcome Guest ( Log In | Register )

История благодарностей участнику slack ::: Спасибо сказали: 19957 раз(а)
Дата поста: В теме: За сообщение: Спасибо сказали:
Jul 31 2020, 22:11:59 Nasty Savage - Indulgence (1986)
Yandex - 320

Register
(2) kipelov999, thenecromancer,
Jul 31 2020, 11:22:21 Atomic Aggressor - Invoking The Primal Chaos [ep] (2019)


*Artist: Atomic Aggressor
*Album: Invoking The Primal Chaos [ep]
*Year: 2019
*Genre: Death Metal
*Country: Chile
*Format: mp3@CBR320kbps
*Size: 44MB

Tracklist:
01. The Primal Chaos 04:17
02. Summoners Absolution 03:54
03. Primordial Wisdom 05:00
04. Archetypal Balance 05:44
******************************
Total playing time: 18:55



[more=Technical info]
Input File: 03 Primordial Wisdom.mp3
Channels : 2
Sample Rate : 44100
Precision : 16-bit
Duration : 00:05:00.53 = 13253461 samples = 22539.9 CDDA sectors
File Size : 12.2M
Bit Rate : 324k
Sample Encoding: MPEG audio (layer I, II or III)
Comments :
Title=Primordial Wisdom
Artist=Atomic Aggressor
Album=2019 Invoking the Primal Chaos
Tracknumber=03/04
Year=2019
Genre=Death Metal

[/more]

Register
(18) cancer1974, Evilded, frostdomain, FUDEDOR, grimoir, infiltrator, Olethros, Proteus_666, Rosen, Spork, stumpheavyrock, supremo, THROWER666, troll_swamp, vader69, VALERY, Wail, wanderer73,
Jul 31 2020, 09:45:48 Argos - Final Sentence Of The Sacrilege (2017)


*Artist: Argos
*Album: Final Sentence Of The Sacrilege
*Year: 2017
*Genre: Heavy/Thrash Metal
*Country: Costa Rica
*Format: mp3@CBR320kbps
*Size: 52MB

Tracklist:
01. The Final Time
02. Ouija
03. Sentence
04. Pain
05. Sacrilegio
06. Intro
******************************
Total playing time: 22:26

[more=Extended info]Первый альбом группы, играющей с 80х
Эта версия альбома состоит из 6 песен и не включает в себя 3 песни,
дополнившие этот альбом из первого демо, как указано на архивах.[/more]

[more=Technical info]
Input File: 01 The Final Time.mp3
Channels : 2
Sample Rate : 44100
Precision : 16-bit
Duration : 00:03:43.00 = 9834300 samples = 16725 CDDA sectors
File Size : 9.02M
Bit Rate : 324k
Sample Encoding: MPEG audio (layer I, II or III)
Comments :
Title=The Final Time
Artist=Argoz
Album=2017 Final Sentence of the Sacrilege
Tracknumber=01/06
Year=2017
Genre=Heavy/Thrash Metal

[/more]

Register
(9) boby9052, HMHamster, infiltrator, Olethros, Rosen, Rover, sergsazan, stumpheavyrock, Wail,
Jul 28 2020, 08:52:41 Лучший советчик МА - Часть 10 (Умнодэт) - Тур 1, Общий сбор
Успел откинуться 15.gif

Blood Dress 2012 "Beyond the Flesh" Progressive/Technical Death Metal (меньше 200 на Ласте crazy.gif )

[youtube]QRAkk6y9CYA[/youtube]

[youtube]NkZq9LpmSr4[/youtube]

[youtube]SSDuF_bOFxU[/youtube]

Наслаждайтесь.
Хорошие гитары с умными мелодиями. Могут и подолбить, могут и сыграть душевно. Человек качественно терзает 6ти струнный басс.
Для полной душевности фрагментарно присутствует аккордеон и единично - женский вокал.
Весьма рекомендую
(1) скептик,
Jul 18 2020, 19:20:02 Metallica - Death Magnetic (2008)
Вы можете мне не верить, но я НИКОГДА не слушал этот альбом
(2) Shadowman, vo140182fav,
Jul 18 2020, 17:58:36 Лучший советчик МА - Часть 9 (Пауэр) - Тур 2, Рейтингование
Вот сейчас Kublai Khan слушаю...
И подумалось, что по вашему - его тоже, при большом желании можно было б к паверу пристегнуть...
15.gif

ЦИТАТА(hammer @ Jul 18 2020, 19:55:07) *
А Атлейн не понравился , просто потому что не понравился и все. 1488.gif

Это значит, что ты ничего в музыке не понимаешь...
Впрочем, как и я.
Но я, хотя бы, имел смелость объявить об этом всенародно 15.gif
(1) vosmidesijatye,
Jul 12 2020, 23:47:40 Death - Non:analog-On:stage Series-Detroit Mi 1993 [live] (2020)
Лучше бы семья была вовлечена, когда реально деньги на лечение нужны были...
А то собирали с миру по нитке, да так и не собрали...
(2) DarkHorde, kranger,
Jul 11 2020, 13:58:24 Agoraphobia - Sick (2005)
gorim
Спасибо, братан!
(1) kranger,
Jul 9 2020, 07:15:33 Death - Non:analog-On:stage Series-Detroit Mi 1993 [live] (2020)


*Artist: Death
*Album: Non:analog-On:stage Series-Detroit Mi 1993 [live]
*Year: 2020
*Genre: Death Metal
*Country: United States
*Format: mp3@CBR320kbps
*Size: 135MB

Tracklist:
01. Leprosy
02. The Philosopher
03. Suicide Machine
04. In Human Form
05. Living Monstrosity
06. Overactive Imagination
07. Lack of Comprehension
08. Jealousy
09. Within the Mind
10. Flattening of Emotions
11. Zombie Ritual
******************************
Total playing time: 1:00:00

[more=Technical info]
Input File: 02 The Philosopher.mp3
Channels : 2
Sample Rate : 44100
Precision : 16-bit
Duration : 00:05:29.00 = 14508900 samples = 24675 CDDA sectors
File Size : 13.3M
Bit Rate : 323k
Sample Encoding: MPEG audio (layer I, II or III)
Comments :
Title=The Philosopher
Artist=Death
Album=2020 Non:Analog-On:Stage Series-Detroit, MI 1993
Tracknumber=02/11
Year=2020
Genre=Death Metal

[/more]

Register
(16) Aresson, caro, Hell_Is_Here, infiltrator, killingod, kluval, marilin, Occultas, Olethros, recber, Rosen, supremo, VALERY, Wail, Witchmaster, WX419,
Jul 7 2020, 07:48:52 Death - Non:analog-On:stage Series-Belgium 12-23-1991 [live] (2020)


*Artist: Death
*Album: Non:analog-On:stage Series-Belgium 12-23-1991 [live]
*Year: 2020
*Genre: Death Metal
*Country: United States
*Format: mp3@CBR320kbps
*Size: 109MB

Tracklist:
01. Suicide Machine 04:29
02. Left to Die 04:53
03. Flattening of Emotions 05:41
04. Zombie Ritual 05:25
05. Together as One 04:51
06. Within the Mind 06:28
07. Lack of Comprehension 04:22
08. Living Monstrosity 06:04
09. Denial of Life 05:16
******************************
Total playing time: 47:29

[more=Extended info]И здесь Релапс на графики забил...
На других альбомах этой серии - смотрел бы и смотрел...
Ведь слушать это невозможно )))[/more]

[more=Technical info]
Input File: 02 Left to Die.mp3
Channels : 2
Sample Rate : 44100
Precision : 16-bit
Duration : 00:04:53.00 = 12921300 samples = 21975 CDDA sectors
File Size : 11.8M
Bit Rate : 323k
Sample Encoding: MPEG audio (layer I, II or III)
Comments :
Title=Left to Die
Artist=Death
Album=2020 Non:Analog-On:Stage Series-Belgium 12-23-1991
Tracknumber=02/09
Year=2020
Genre=Death Metal

[/more]

Register
(12) caro, Hell_Is_Here, infiltrator, kluval, Occultas, recber, Rosen, supremo, vader69, VALERY, Wail, WX419,
Jul 7 2020, 07:13:50 Death - Non:analog-On:stage Series-Tampa Fl 02-10-1989 [live] (2020)


*Artist: Death
*Album: Non:analog-On:stage Series-Tampa Fl 02-10-1989 [live]
*Year: 2020
*Genre: Death Metal
*Country: United States
*Format: mp3@CBR320kbps
*Size: 106MB

Tracklist:
01. Torn To Pieces
02. Denial Of Life
03. Regurgitated Guts
04. Open Casket
05. Zombie Ritual
06. Sacrificial
07. Left To Die
08. Land Of No Return
09. Choke On It
10. Scream Bloody Gore
******************************
Total playing time: 48:06

[more=Extended info]Здесь Релапс даже графики вытягивать не стал, хотя звук получше,
чем на некоторых других альбомах этой серии...
Неужели ЭТО кто то покупает???[/more]

[more=Technical info]
Input File: 10 Scream Bloody Gore.mp3
Channels : 2
Sample Rate : 44100
Precision : 16-bit
Duration : 00:05:14.00 = 13847400 samples = 23550 CDDA sectors
File Size : 12.7M
Bit Rate : 323k
Sample Encoding: MPEG audio (layer I, II or III)
Comments :
Title=Scream Bloody Gore
Artist=Death
Album=2020 Non:Analog-On:Stage Series-Tampa, FL 02-10-1989
Tracknumber=10/10
Year=2020
Genre=Death Metal

[/more]

Register
(16) Aresson, canadaspaceman, caro, craP_cillA, desekrator, FUDEDOR, Hell_Is_Here, infiltrator, kluval, Occultas, Olethros, Rosen, supremo, VALERY, Wail, WX419,
Jul 4 2020, 01:18:50 Alien Squad - Order Not Goverment (2005)
Yandex - 320

Register
(3) boby9052, Ingvar, varlam4,
Jul 4 2020, 01:15:42 Death Yell - Descent Into Hell (2017)
Yandex - 320

Register
(1) varlam4,
Jul 4 2020, 01:11:40 Alien Squad - From Alienation To An Alien Nation (2000)
Yandex - 320

Register
(3) boby9052, Ingvar, varlam4,
Jul 3 2020, 22:49:35 Лучший советчик МА - Часть 9 (Пауэр) - Тур 2, Рейтингование
Из всех представленных на голосование ВИА, знаком только с Not Fragile
Даже собственный совет оказался для меня открытием, черт знает как выплывшем из глубин подсознания,
вероятно на волне злоупотребления крепкими алкогольными напитками...
Погрузившись в пучину сего, далекого от моих интересов творчества и продолжая находиться под влиянием крепких алкогольных напитков - резюмирую:

Aevum - The Creation Of Power - 0
По началу показалось, что эти брутальные сопли даже интересны, но нет, насморк просто. Выбесили бесконечные клавиши и равнодушный вокал.

Agonizer - Birth/The End - 0
Хоровые песнопения финских туберкулёзников - самое то, что бы навсегда отвернуться от этого стиля

Arch Nemesis - Of Mind and Fantasy - 1
Играть и петь умеют. В остальном - голимая коммерция. 1 за то, что походу сами верят, что играют хорошую музыку...

Arrayan Path - Ira Imperium - 0
Каждое начало новой песни даже нравилось... пока не начиналась сама песня. Далее - бесконечные плагиаты и бездарщина.

Assailant - Wicked Dream - 0
Понамешано разной хуе хренаты. Слушать это невозможно.

Atlain - G.O.E. - 3
Шедевр. Сам посоветовал, сам и, практически, только что познакомился. Эвононокак...

Axxios - Beneath The Blood Red Sky - 2
Для меня слишком приблэковано. А так не плохо

Boomerang - Sounds of Sirens - 1
Местами, так и совсем не плохо. Но больше 1 явно не заслуживают, хотя и единица наверно перебор...

Demoniac - The Fire and the Wind - 0
0 только за сиськи на фотке на архивах. Без них - глубокий минус

Demonlord - Only The Dead Are Safe - 0
Это не павер. Это полная хрень

Divine Sin - Winterland - 0
По мысли вроде и не плохо, но настолько бездарно! В руки хорошего продюсера бы им попасть...

Dragonia - Blood, Will and Soul - 0
Уже по названию было понятно, что это полный пиз пипец. Реальность превзошла все ожидания

Drakkar - When Lightning Strikes - 0
В отличии от большинства из этого списка - люди старались. Настарались на 0

Dyslesia - Years Of Secret - 0
Название похоже на болезнь. Прослушивание альбома лишь подтвердило эту догадку

Final Chapter - The Wizard Queen - 0
Задорненько-живенько-бездарненко. Пищащее мурло на микрофоне усугубляет общую печальную картину

Ironware - Break Out - 0
Облога вселила надежду. Вступление надежду подкрепило. Но уже с первых аккордов первой песни всё стало ясно. Оставалось дождаться писклявого недовокала. Не подкачали...

Kemilon - Twisted Storm - 0
Надо им денег на бэндкампе собрать, с пометкой, что б больше не играли

Kenziner - Timescape - 1
Кроме дебильного вокала здесь ничего от павера нет. За этот дебилизм -1. Достойны гораздо большего. Очень качественные музыканты

Majestic Vanguard - Beyond the Moon - 0
Всё штамповано-стандартизовано. Скукота

Masters Of Disguise - Back With A Vengeance -1
Начало заинтриговало. Даже понравилось. С ужасом ждал вокала. Пару раз перепутал его с вступающей гитарой. И вот... снова эта пискляво-пафосная, паверная хрень... Дал бы 2. Минимум.

Miquian - Tlaltecuhtli - 1
Очень слабо в профессиональном плане. Но это их первый первый альбом. Есть надежда... Если не забуду послушаю следующий, если он конечно будет

Not Fragile - Time to Wonder - 1
Довольно известная группа с большой дискографией. Но я бы выбрал для совета 1993 "Lost in a Dream"

Pegasus ‎- The Epic Quest - 1
Ещё одна изрядно приблэкованная хрень. Но хотя бы оригинально.

Power - Justice of Fire - 0
Когда я слышу такие вопли у меня возникает только один вопрос: его в Жопу долбит слон или носорог? Ибо других объяснений таких мучений я найти не могу

Power Tale - Урфин Джюс и его деревянные солдаты - 1
Это настолько волшебная хуе хренатень, что у меня рука не поднялась 0 поставить

Satan's Host - By The Hands Of The Devil - 2
Профессионально стариканы играют. Чегоужтам

Screamer - Target: Earth - 0
Ещё один сношаемый крупным африканским животным. Но он хотя бы от этого удовольствие получает.

Sencirow - Perception of Fear - 2
Снова стариканы и снова качественно. Единственный альбом, который я прослушал не без удовольствия (ну кроме шедевра конечно))))

Skyward - Skyward - 0
Тетка на микрофоне хоть и имеет голос, но петь не умеет. К тому же, такие суровые финские парни не должны играть такую хрень

Starborn - The Dreaming City (EP) - 0
У англов лучше всего получается играть панк. Слушать это - себя пытать. Я столько не выпью

Stormhunter - An Eye for an I - 1
Ещё один редкий альбом не вызывающий рвотного рефлекса

Stranger - The Bell - 2
Музыка из детства. "Ещё одно открытие" - сказал (как оказалось) обладатель двух первопрессов... Совсем их не помню...

Sunrise - Trust Your Soul - 0
Тошнить начинает уже от обложки. Далее - по 80му, можно и не слушать

The Reign Of Terror - Sacred Ground - 0
Парни не бесталанные, но слишком уж всё по клише...

Timeless Miracle - Into The Enchanted Chamber - 0
Один не возьмёт их в валгалу. От шведов такого не ждешь, хотя где-то выше уже можно было это сказать

Yosh - 1991 - 1
На 1 явно наиграли, особенно по сравнению с подавляющим большинством из этого списка

Zigoku Quartet - Konoyo No Jigoku Monogatari - 0
Эту редкостную хрень не спасает даже редкостная оригинальность


Я сделал это!!!

Deze ты должен мне лет 5 жизни и большое количество ден. знаков. Можно в рублях 15.gif
Ибо пока я всё это слушал - извел нервных клеток, лет на пять и пару бутылок хорошего вискаря, который не собирался изводить. Напиши в личку, я скину тебе сумму и номер карты 15.gif 15.gif 15.gif

А теперь серьёзно.
Все предложившие здесь эти недоальбомы могут идти на ху... просто идти куда подальше со своими советами, кроме:
Daale за Axxios - Beneath The Blood Red Sky
Deze за Satan's Host - By The Hands Of The Devil
SAPOGi за Sencirow - Perception of Fear
И ОСОБАЯ благодарность Фо за Stranger - The Bell

Всем спасибо, все свободны
(10) Daale, Deze, Emm Human, FunZombie, infiltrator, Lux, SAPOGi, Un4given, vosmidesijatye, Фо,
Jul 3 2020, 18:25:44 Alien Squad - Stand Your Ground (2019)
Дичайше рекомендую комрады!
Из новья давно ничто так не втыкало!

Весь альбом
[youtube]9EDBbelKANQ[/youtube]

Yandex
Register
(8) 666kolobok666, atavist, boby9052, Diflock, infiltrator, Lukittaz, multizwilling, rpa,
Jul 3 2020, 18:20:47 Лучший советчик МА - Часть 9 (Пауэр) - Тур 2, Рейтингование
Жопа

Это была проверка 15.gif
Раньше и [мат->бан]а была матом 15.gif 15.gif 15.gif

Во! Второй раз не прошла! 15.gif
(3) infiltrator, Nocturnal_Grave_Desecrator, plfan93,
Jul 3 2020, 10:10:15 Alien Squad - Stand Your Ground (2019)


*Artist: Alien Squad
*Album: Stand Your Ground
*Year: 2019
*Genre: Thrash Metal/Punk
*Country: Portugal
*Format: mp3@CBR320kbps
*Size: 88MB

Tracklist:
01. One Step Forward... Miles Crawling Back
02. D.I.Y. Forces
03. Stand Your Ground
04. Lob It, Then Leggit
05. Onward' Ya Dyin' Wankers
06. Sk8 Boardin' Ain't No Crime!
07. Life O´Clock (Slaves Of The Watch)
08. Whereabouts Unknown
09. T.V. Lies
10. Red Alert... (The Genetic Games)
11. Blue Dogs
12. Raging Boys Transformation
******************************
Total playing time: 37:49

[more=Extended info]После 14ти лет молчания группа выдала просто чумовой альбом!!!
Мои жесточайшие рекомендации!!!

[youtube]RpPKGTY7mZ0[/youtube]
[youtube]ifi3Fm53DEk[/youtube][/more]

[more=Technical info]
Input File: 02 D.I.Y. Forces.mp3
Channels : 2
Sample Rate : 44100
Precision : 16-bit
Duration : 00:03:02.00 = 8026200 samples = 13650 CDDA sectors
File Size : 7.39M
Bit Rate : 325k
Sample Encoding: MPEG audio (layer I, II or III)
Comments :
Title=D.I.Y. Forces
Artist=Alien Squad
Album=2019 Stand Your Ground
Tracknumber=02/12
Year=2019
Genre=Thrash Metal/Punk

[/more]

Register
(14) andreikun, atavist, DarkHorde, Diflock, gwar, infiltrator, insufferable, juravsky, LightWizard, Lukittaz, oldvarg, Olethros, Rosen, varlam4,
Jul 1 2020, 20:29:02 Attomica - Atomica 2005 [demo] (2005)
Special for thenecromancer only 15.gif
karelia -320
Register
(3) infiltrator, thenecromancer, Wail,
Jul 1 2020, 19:55:59 Sanatorium - Na Rabot Na Razumot (1992)
Отличный альбом!

yandex - 320
Register
(1) cesar,
Jul 1 2020, 19:18:33 Лучший советчик МА - Часть 9 (Пауэр) - Тур 1, Общий сбор
Deze, влюбом случае снимаю Attacker!
Считай Atlain!!! pray.gif banana.gif pray.gif

15.gif
(2) infiltrator, Nocturnal_Grave_Desecrator,
Jul 1 2020, 18:58:29 Лучший советчик МА - Часть 9 (Пауэр) - Тур 1, Общий сбор
Мать же твою!
Сейчас их поставил...
Ну как же хорошо! metaler.gif

Все альбомы
Yandex - 320
Register


[youtube]mKkYxmd1ccQ[/youtube]
(5) Alexis The Best, Foneg, infiltrator, Yarri, Фо,
Jul 1 2020, 18:45:34 Лучший советчик МА - Часть 9 (Пауэр) - Тур 1, Общий сбор
Если Attacker не прокатит, то тогда пусть будет
Atlain 1985 "G.O.E."
Специально для Tularа - 2128 на Ласте crazy.gif
Практически клон раннего Хелловина, вот только первый альбом ещё в 1984ом выпустили.
Такшта это Хэлловин клон Атлэйна 15.gif
Здесь же предлагаю второй и последний их альбом

[youtube]mayQ4k5v0ko[/youtube]

Весьма рекомендую


(2) Alexis The Best, Foneg,
Jul 1 2020, 12:58:31 Bombers From Burundi - Bombers From Burundi (1989)
Вот можно же в куче дерьма отыскать жемчужину banana.gif

Yandex - 320
Register


(2) troll_swamp, varlam4,
Jun 29 2020, 08:09:33 Sanatorium - Limited Single Edition [ep] (2015)


*Artist: Sanatorium
*Album: Limited Single Edition [ep]
*Year: 2015
*Genre: Thrash/Speed Metal
*Country: Macedonia
*Format: mp3@CBR320kbps
*Size: 26MB

Tracklist:
01. Молк
02. Kажи "НЕ"
03. Moлитва
******************************
Total playing time: 11:16

Preview 1

[more=Extended info]После почти 20 летнего молчания ребята выдали шикарную ЕРишку!

[youtube]V_4FNWjSFDA[/youtube]

[youtube]WK1IFkqbmvo[/youtube][/more]

[more=Technical info]
Input File: 01 Molk.mp3
Channels : 2
Sample Rate : 32000
Precision : 16-bit
Duration : 00:04:14.20 = 8134368 samples ~ 19064.9 CDDA sectors
File Size : 10.3M
Bit Rate : 324k
Sample Encoding: MPEG audio (layer I, II or III)
Comments :
Title=Molk
Artist=Sanatorium
Album=2015 Limited Single Edition
Tracknumber=01/03
Year=2015
Genre=Thrash Metal

[/more]

Register
(9) boby9052, cesar, gwar, infiltrator, Lukittaz, Olethros, Rosen, stumpheavyrock, varlam4,

167 Pages V   1 2 3 > » 
- Lo-Fi Version Support form
Copyrights and abuse reports form
Time is now: 3rd August 2020 - 15:53:18

Футбол рома фнк on line рома.