Welcome Guest ( Log In | Register )

История благодарностей участнику slack ::: Спасибо сказали: 22412 раз(а)
Дата поста: В теме: За сообщение: Спасибо сказали:
Oct 16 2021, 12:15:37 Sacred Thrash - Mueranse [ep] (2017)


*Artist: Sacred Thrash
*Album: Mueranse [ep]
*Year: 2017
*Genre: Thrash Metal
*Country: Argentina
*Format: mp3@CBR320kbps
*Size: 21MB

Tracklist:
01. Atrapados
02. Enemigo
03. A desalambrar (Daniel Viglietti cover)
******************************
Total playing time: 34:35

Preview 1

[more=Extended info]Группа играет без перерывов с 1988 года.

[youtube]Bt_-YnYI0oM[/youtube][/more]

[more=Technical info]
Input File: 02 Enemigo.mp3
Channels : 2
Sample Rate : 32000
Precision : 16-bit
Duration : 00:03:39.42 = 7021536 samples ~ 16456.7 CDDA sectors
File Size : 8.94M
Bit Rate : 326k
Sample Encoding: MPEG audio (layer I, II or III)
Comments :
Title=Enemigo
Artist=Sacred Thrash
Album=2017 Mueranse
Tracknumber=02/03
Year=2017
Genre=Thrash Metal

[/more]

Register
(7) artscald, boby9052, dermarsoran, Olethros, sergsazan, stumpheavyrock, Svafrlami,
Oct 16 2021, 12:09:54 Sacred Thrash - Legalizando Poder... Incrementando (1998)


*Artist: Sacred Thrash
*Album: Legalizando Poder... Incrementando
*Year: 1998
*Genre: Thrash Metal
*Country: Argentina
*Format: mp3@CBR320kbps
*Size: 77MB

Tracklist:
01. Intro
02. NN
03. 23 de julio
04. María Juana
05. Revolución armada II
06. El Eskabio
07. Revolución armada I
08. La raya
09. La diosa
10. Invasión
11. Sueño Zapatista
12. Himno del Congreso Nacional Africano
******************************
Total playing time: 34:35

Preview 1

[more=Extended info]Группа играет без перерывов с 1988 года.
Это их первый и единственный полноформат.

[youtube]IPnLdF3YPeA[/youtube][/more]

[more=Technical info]
Input File: 04 Maria Juana.mp3
Channels : 2
Sample Rate : 48000
Precision : 16-bit
Duration : 00:04:11.62 = 12077712 samples ~ 18871.4 CDDA sectors
File Size : 10.2M
Bit Rate : 325k
Sample Encoding: MPEG audio (layer I, II or III)
Comments :
Title=Maria Juana
Artist=Sacred Thrash
Album=1998 Legalizando Poder...Incrementando Miseria
Tracknumber=04/12
Year=1998
Genre=Thrash Metal

[/more]

Register
(10) artscald, boby9052, caro, dermarsoran, metala, Olethros, Proteus_666, sergsazan, stumpheavyrock, Svafrlami,
Oct 10 2021, 08:27:22 Inquisidor - Antología 1.3 (2014)


*Artist: Inquisidor
*Album: Antología 1.3
*Year: 2014
*Genre: Thrash/Speed Metal
*Country: Mexico
*Format: mp3@CBR320kbps
*Size: 141MB

Tracklist:
01. Atrapados al poder 04:39
02. Fila de muerte 03:10
03. Descansa en paz 05:30
04. El silencio llegará 04:59
05. Es mi vida 03:47
06. Fhürer 04:30
07. Cerdos enfermos de poder 03:48
08. Inquisidor 04:57
09. Jack 05:33
10. Mutilación 05:28
11. Palacio negro 04:38
12. Sobre tu cadáver 05:05
13. Transplante de cerebro 06:01
******************************
Total playing time: 1:02:05

Preview 1


[more=Technical info]
Input File: 03 Descansa en Paz.mp3
Channels : 2
Sample Rate : 44100
Precision : 16-bit
Duration : 00:05:30.00 = 14553000 samples = 24750 CDDA sectors
File Size : 13.3M
Bit Rate : 322k
Sample Encoding: MPEG audio (layer I, II or III)
Comments :
Title=Descansa en Paz
Artist=Inquisidor
Album=2014 Antologia 1.3
Tracknumber=03/13
Year=2014
Genre=Thrash Metal

[/more]

Register
(5) boby9052, Olethros, stumpheavyrock, Svafrlami, Xtohar,
Oct 8 2021, 07:53:53 Stratuz - Dawn [single] (2021)


*Artist: Stratuz
*Album: Dawn [single]
*Year: 2021
*Genre: Death Metal
*Country: Venezuela
*Format: mp3@CBR320kbps
*Size: 12MB

Tracklist:
01. Dawn 05:06
******************************
Total playing time: 5:06

Preview 1

[more=Extended info]Первый релиз с 2000 года

[youtube]BRSmFtUgghg[/youtube][/more]

[more=Technical info]
Input File: 01 Dawn.mp3
Channels : 2
Sample Rate : 44100
Precision : 16-bit
Duration : 00:05:06.00 = 13494600 samples = 22950 CDDA sectors
File Size : 12.5M
Bit Rate : 326k
Sample Encoding: MPEG audio (layer I, II or III)
Comments :
Title=Dawn
Artist=Stratuz
Album=Dawn
Tracknumber=01/01
Year=2021
Genre=Death Metal

[/more]

Register
(5) caro, chipsgott, julianotidre, Olethros, wanderer73,
Oct 8 2021, 07:49:30 Stratuz - In Nomine... (1994)


*Artist: Stratuz
*Album: In Nomine...
*Year: 1994
*Genre: Death Metal
*Country: Venezuela
*Format: mp3@CBR320kbps
*Size: 83MB

Tracklist:
01. Falling 04:20
02. Social Explosion 03:51
03. Painfull Sleep 04:39
04. Apocrypha 05:06
05. Obitus 04:37
06. Stratuz 05:18
07. Summit Of Hatred 03:15
08. Nigthmare 04:30
******************************
Total playing time: 35:36

Preview 1


[more=Technical info]
Input File: 02 Social Explotion.mp3
Channels : 2
Sample Rate : 44100
Precision : 16-bit
Duration : 00:03:51.00 = 10187100 samples = 17325 CDDA sectors
File Size : 9.37M
Bit Rate : 325k
Sample Encoding: MPEG audio (layer I, II or III)
Comments :
Title=Social Explotion
Artist=Stratuz
Album=1994 In Nomine...
Tracknumber=02/08
Year=1994
Genre=Death Metal

[/more]

Register
(16) andreikun, caro, chipsgott, jollo, metala, Mist13Signifier, Olethros, Proteus_666, smysl, stumpheavyrock, supremo, Svafrlami, VALERY, vyacheslav, wanderer73, wtk.412,
Oct 2 2021, 13:27:18 Inferia - Dickstroyer [ep] (2018)


*Artist: Inferia
*Album: Dickstroyer [ep]
*Year: 2018
*Genre: Death Metal/Grindcore
*Country: Finland
*Format: mp3@CBR320kbps
*Size: 29MB

Tracklist:
01. Dead Foreskin Mask 02:56
02. Banging 00:56
03. Sexxxes 01:19
04. Porn to Be Wild 01:03
05. Orgy 01:41
06. Enemy of the Pubic Pussyness 00:47
07. Pet Sementary 00:57
08. Wulvarine 01:04
09. The Dildomat 00:51
10. To Idiot 00:56
******************************
Total playing time: 12:30

[more=Technical info]
Input File: 03 Sexxxes.mp3
Channels : 2
Sample Rate : 48000
Precision : 16-bit
Duration : 00:01:19.03 = 3793680 samples ~ 5927.62 CDDA sectors
File Size : 3.27M
Bit Rate : 331k
Sample Encoding: MPEG audio (layer I, II or III)
Comments :
Title=Sexxxes
Artist=Inferia
Album=2018 Dickstroyer
Tracknumber=03/10
Year=2018
Genre=Death Metal

[/more]

Register
(4) caro, Olethros, Proteus_666, Taakeferd,
Oct 2 2021, 13:22:01 Inferia - Explosive Copulation [ep] (2004)


*Artist: Inferia
*Album: Explosive Copulation [ep]
*Year: 2004
*Genre: Death Metal/Grindcore
*Country: Finland
*Format: mp3@CBR320kbps
*Size: 23MB

Tracklist:
01. Distort to Pieces 01:28
02. Discharging Porn 02:19
03. Orgasm Through the Dead 03:00
04. Naked, Tasted, Crushed 03:26
05. Explosive Copulation 02:12
******************************
Total playing time: 12:25

[more=Technical info]
Input File: 02 Discharging Porn.mp3
Channels : 2
Sample Rate : 44100
Precision : 16-bit
Duration : 00:02:18.33 = 6100309 samples = 10374.7 CDDA sectors
File Size : 5.65M
Bit Rate : 327k
Sample Encoding: MPEG audio (layer I, II or III)
Comments :
Title=Discharging Porn
Artist=Inferia
Album=2004 Explosive Copulation
Tracknumber=02/05
Year=2004
Genre=Death Metal

[/more]

Register
(7) caro, Olethros, Proteus_666, Reverend, scrollbar, Svafrlami, Taakeferd,
Oct 2 2021, 13:18:41 Inferia - Masterpiece (1996)


*Artist: Inferia
*Album: Masterpiece
*Year: 1996
*Genre: Death Metal/Grindcore
*Country: Finland
*Format: mp3@CBR320kbps
*Size: 68MB

Tracklist:
01. Assortment Memorial 02:24
02. Covered in Semen 01:44
03. Onslet 02:05
04. Mallet Rape 02:22
05. An Image of Masturbate So Brutally 02:14
06. Unbridled Messy Perversity Revealed 02:34
07. Contusions Around the Vagina 02:08
08. Cystous Gullet 02:17
09. The Roiling of Excrement Baths 02:23
10. Illicit Intercourse 02:11
11. Mortify One's Flesh 02:17
12. Tears More than Cuts 02:40
13. Place Was Full of Bodies 01:47
******************************
Total playing time: 29:06



[more=Technical info]
Input File: 02 Covered in Semen.mp3
Channels : 2
Sample Rate : 44100
Precision : 16-bit
Duration : 00:01:44.13 = 4592265 samples = 7809.97 CDDA sectors
File Size : 4.32M
Bit Rate : 332k
Sample Encoding: MPEG audio (layer I, II or III)
Comments :
Title=Covered in Semen
Artist=Inferia
Album=1996 Masterpiece
Tracknumber=02/13
Year=1996
Genre=Death Metal

[/more]

Register
(9) andreikun, caro, Olethros, Proteus_666, Reverend, stumpheavyrock, supremo, Svafrlami, Taakeferd,
Oct 2 2021, 13:13:15 Inferia - Spawned At The Dawn [ep] (1993)


*Artist: Inferia
*Album: Spawned At The Dawn [ep]
*Year: 1993
*Genre: Death Metal/Grindcore
*Country: Finland
*Format: mp3@CBR320kbps
*Size: 24MB

Tracklist:
01. Under the Skin of the Split Body 02:20
02. The Art of Self-Mutilation 02:02
03. Lunatics Anal Fanatics 01:27
04. Spawned at the Dawn 02:09
05. They Bleed and Bleed 02:23
******************************
Total playing time: 10:21



[more=Technical info]
Input File: 02 The Art of Self-Mutilation.mp3
Channels : 2
Sample Rate : 44100
Precision : 16-bit
Duration : 00:02:02.00 = 5380200 samples = 9150 CDDA sectors
File Size : 5.02M
Bit Rate : 329k
Sample Encoding: MPEG audio (layer I, II or III)
Comments :
Title=The Art of Self-Mutilation
Artist=Inferia
Album=1993 Spawned at the Dawn
Tracknumber=02/05
Year=1993
Genre=Death Metal

[/more]

Register
(8) caro, Olethros, Reverend, rominow, stumpheavyrock, Svafrlami, Taakeferd, thenecromancer,
Sep 29 2021, 08:57:12 Transmetal - Supervivencia En El Mexico Barbaro-En Vivo [live] (2019)


*Artist: Transmetal
*Album: Supervivencia En El Mexico Barbaro-En Vivo [live]
*Year: 2019
*Genre: Thrash/Death Metal
*Country: Mexico
*Format: mp3@CBR320kbps
*Size: 125MB

Tracklist:
01. México Bárbaro
02. Dios Nos Agarre Confesados
03. Arboleda de los Ahorcados
04. El Llanto del Paraíso
05. Poder y Pudrición
06. Ángel Enfermo
07. Fariseos
08. El Mito de la Sangre
09. Miserable
10. Ceveline
11. Río Rojo
12. Elegíaco
13. Maldito Rock and Roll
******************************
Total playing time: 54:24

[more=Technical info]
Input File: 03 Arboleda de Ahorcados.mp3
Channels : 2
Sample Rate : 44100
Precision : 16-bit
Duration : 00:04:37.00 = 12215700 samples = 20775 CDDA sectors
File Size : 11.2M
Bit Rate : 324k
Sample Encoding: MPEG audio (layer I, II or III)
Comments :
Title=Arboleda de Ahorcados (En Vivo)
Artist=Transmetal
Album=2019 Supervivencia en el Mexico Barbaro (En Vivo)
Tracknumber=03/13
Year=2019
Genre=Thrash Metal

[/more]

Register
(5) kimkayoung, Olethros, Reverend, sergsazan, Xtohar,
Sep 29 2021, 08:53:15 Transmetal - Maldito Rock And Roll (2019)


*Artist: Transmetal
*Album: Maldito Rock And Roll
*Year: 2019
*Genre: Thrash/Death Metal
*Country: Mexico
*Format: mp3@CBR320kbps
*Size: 95MB

Tracklist:
01. Maldito rock and roll 04:00
02. Monarca negro 03:27
03. Tierra 05:12
04. El clavo martillado 04:06
05. De esencia negra y cruel 03:41
06. Bajo el tejado del infierno 03:40
07. Lumen de lumine 03:02
08. En el hedor de la espesa noche 03:14
09. Vestido para ir al campo santo 03:38
10. Más duro que un roble 03:04
11. Cauteriza tu alma 04:01
******************************
Total playing time: 41:05



[more=Technical info]
Input File: 03 Tierra.mp3
Channels : 2
Sample Rate : 44100
Precision : 16-bit
Duration : 00:05:12.00 = 13759200 samples = 23400 CDDA sectors
File Size : 12.6M
Bit Rate : 324k
Sample Encoding: MPEG audio (layer I, II or III)
Comments :
Title=Tierra
Artist=Transmetal
Album=2019 Maldito Rock and Roll
Tracknumber=03/11
Year=2019
Genre=Thrash Metal

[/more]

Register
(10) andreikun, caro, hornache, julianotidre, METALHUNTER, Reverend, sergsazan, supremo, Taakeferd, vyacheslav,
Sep 24 2021, 12:44:05 Infamous Sinphony - 2013 Sampler [ep] (2013)


*Artist: Infamous Sinphony
*Album: 2013 Sampler [ep]
*Year: 2013
*Genre: Thrash Metal/Crossover
*Country: United States
*Format: mp3@CBR320kbps
*Size: 49MB

Tracklist:
01. It Only Takes a Second 03:51
02. Therapy 02:24
03. False Agenda 02:40
04. Cold Blood 02:45
05. Hypertension 02:17
06. EMBO (re-mastered) 04:46
07. Anti-Buse (re-mastered( 02:44
******************************
Total playing time: 21:27

Preview 1

[more=Technical info]
Input File: 02 Therapy.mp3
Channels : 2
Sample Rate : 44100
Precision : 16-bit
Duration : 00:02:21.41 = 6236225 samples = 10605.8 CDDA sectors
File Size : 5.80M
Bit Rate : 328k
Sample Encoding: MPEG audio (layer I, II or III)
Comments :
Title=Therapy
Artist=Infamous Sinphony
Album=2013 2013 Sampler
Tracknumber=02/07
Year=2013
Genre=Thrash Metal

[/more]

Register
(14) boby9052, canadaspaceman, caro, chipsgott, gwar, julianotidre, Marek, METALHUNTER, Olethros, stumpheavyrock, Svafrlami, varlam4, wreak, Xtohar,
Sep 20 2021, 23:48:26 AngelKill - Lady Cadaver [ep] (1995)
Yandex 320

Register
(3) NathanSS, stumpheavyrock, Xtohar,
Sep 20 2021, 10:34:18 In The Colonnades - In The Colonnades [ep] (1986)


*Artist: In The Colonnades
*Album: In The Colonnades [ep]
*Year: 1986
*Genre: Gothic/Doom/Heavy Metal
*Country: Sweden
*Format: mp3@CBR320kbps
*Size: 60MB

Tracklist:
01. Talk for an Hour 04:21
02. Black Soul 05:50
03. Beating 04:36
04. Kill the Sun 03:45
05. Fox Hill 04:53
06. Total Destruction 04:24
******************************
Total playing time: 27:49

Preview 1


[more=Technical info]
Input File: 02 Black Soul.mp3
Channels : 2
Sample Rate : 44100
Precision : 16-bit
Duration : 00:05:52.67 = 15552923 samples = 26450.5 CDDA sectors
File Size : 14.3M
Bit Rate : 324k
Sample Encoding: MPEG audio (layer I, II or III)
Comments :
Title=Black Soul
Artist=In The Colonnades
Album=1986 In The Colonnades
Tracknumber=02/06
Year=1986
Genre=Heavy Metal

[/more]

Register
(14) caro, chipsgott, julianotidre, kluval, metala, Olethros, sergsazan, Svafrlami, VALERY, varlam4, Wail, Winterdark, wreak, Xutun,
Sep 17 2021, 07:59:15 Rage - Live In Poland-February 16Th 2016 Warsaw [live] (2020)


*Artist: Rage
*Album: Live In Poland-February 16Th 2016 Warsaw [live]
*Year: 2020
*Genre: Heavy/Speed/Power Metal
*Country: Germany
*Format: mp3@CBR320kbps
*Size: 124MB

Tracklist:
01. Black in Mind 04:59
02. Sent by the Devil 06:11
03. End of All Days 05:04
04. Back in Time 05:29
05. Down 05:48
06. My Way 05:18
07. Until I Die 05:44
08. Don't Fear the Winter 04:55
09. Higher Than the Sky 10:35
******************************
Total playing time: 54:03

Preview 1

[more=Technical info]
Input File: 03 End of All Days.mp3
Channels : 2
Sample Rate : 44100
Precision : 16-bit
Duration : 00:05:03.41 = 13380205 samples = 22755.5 CDDA sectors
File Size : 12.3M
Bit Rate : 324k
Sample Encoding: MPEG audio (layer I, II or III)
Comments :
Title=End of All Days
Artist=Rage
Album=2020 Live in Poland (Live, Warsaw, February 16th 2016)
Tracknumber=03/09
Year=2020
Genre=Heavy/Speed/Power Metal

[/more]

Register
(12) Aresson, caro, dulak, infozahist, kluval, Marek, Olethros, Reverend, Rover, VALERY, Wail, wreak,
Sep 13 2021, 08:40:47 Ilti Milta - Sectors (2013)


*Artist: Ilti Milta
*Album: Sectors
*Year: 2013
*Genre: Progressive/Thrash Metal
*Country: Norway
*Format: mp3@CBR320kbps
*Size: 92MB

Tracklist:
01. Sectors Red 01:31
02. Masquerade 04:43
03. My Last Mistress 02:33
04. Maze 04:04
05. Like the Sun 04:06
06. The Ravensburger Nightmare '13 03:55
07. Vibes 04:45
08. B.O.B. 01:50
09. Love of My Life 04:20
10. Tides 07:22
11. Sector Green 01:26
******************************
Total playing time: 40:35



[more=Technical info]
Input File: 02 Masquerade.mp3
Channels : 2
Sample Rate : 44100
Precision : 16-bit
Duration : 00:04:43.00 = 12480300 samples = 21225 CDDA sectors
File Size : 11.4M
Bit Rate : 322k
Sample Encoding: MPEG audio (layer I, II or III)
Comments :
Title=Masquerade
Artist=Ilti Milta
Album=2013 Sectors
Tracknumber=02/11
Year=2013
Genre=Thrash Metal

[/more]

Register
(23) after21allD, boby9052, cancer1974, caro, grimmstone, gwar, HMHamster, Marek, metala, METALHUNTER, MMMMM, Mogozoz, Olethros, Progressist, SaintVitus, Storky, stumpheavyrock, supremo, Svafrlami, Wail, wreak, Yarri, yuratroll,
Sep 13 2021, 08:35:30 Ilti Milta - Wolves (1990)


*Artist: Ilti Milta
*Album: Wolves
*Year: 1990
*Genre: Progressive/Thrash Metal
*Country: Norway
*Format: mp3@CBR320kbps
*Size: 114MB

Tracklist:
01. A Cultural Speech 03:39
02. Assimulating Disease 05:27
03. War to the Knife 06:05
04. Wolves 03:31
05. Invaders of Society 06:10
06. Survival of the Fittest 04:26
07. Notify the Situation 05:15
08. Glory, Greed & Guaranty 07:00
09. The Ravensburger Nightmare 02:44
10. The Final Step 05:22
******************************
Total playing time: 49:39



[more=Technical info]
Input File: 01 A Cultural Speech.mp3
Channels : 2
Sample Rate : 44100
Precision : 16-bit
Duration : 00:03:39.00 = 9657900 samples = 16425 CDDA sectors
File Size : 8.87M
Bit Rate : 324k
Sample Encoding: MPEG audio (layer I, II or III)
Comments :
Title=A Cultural Speech
Artist=Ilti Milta
Album=1990 Wolves
Tracknumber=01/10
Year=1990
Genre=Thrash Metal

[/more]

Register
(9) grimmstone, gwar, metala, Olethros, stumpheavyrock, Svafrlami, thenecromancer, Wail, Z28517,
Sep 10 2021, 18:41:37 Executioner - Break The Silence (1987)
Yandex 320

Register
(3) stumpheavyrock, wreak, Xtohar,
Sep 6 2021, 09:46:27 Iced Earth - 5 Songs [ep] (2011)


*Artist: Iced Earth
*Album: 5 Songs [ep]
*Year: 2011
*Genre: Power/Thrash Metal
*Country: United States
*Format: mp3@CBR320kbps
*Size: 44MB

Tracklist:
01. Anthem 04:02
02. Days of Rage 02:16
03. Declaration Day (live) 04:33
04. The Hunter (live) 03:55
05. Stormrider (live) 04:12
******************************
Total playing time: 18:58

Preview 1

[more=Technical info]
Input File: 01 Anthem.mp3
Channels : 2
Sample Rate : 32000
Precision : 16-bit
Duration : 00:04:02.32 = 7754208 samples ~ 18173.9 CDDA sectors
File Size : 9.82M
Bit Rate : 324k
Sample Encoding: MPEG audio (layer I, II or III)
Comments :
Title=Anthem
Artist=Iced Earth
Album=2011 5 Songs
Tracknumber=01/05
Year=2011
Genre=Power/Thrash Metal

[/more]

Register
(20) caro, dulak, gwar, gwynnbleid, jahbless, Kaamos, kluval, korovakaska, METALHUNTER, Olethros, Reverend, Samaritianin, Shadechaser, Svafrlami, Taakeferd, thenecromancer, VALERY, varlam4, Wail, wreak,
Sep 3 2021, 12:29:38 I.M.C. - Enter Delirium (1992)


*Artist: I.M.C.
*Album: Enter Delirium
*Year: 1992
*Genre: Industrial Death Metal
*Country: Switzerland
*Format: mp3@CBR320kbps
*Size: 89MB

Tracklist:
01. Jungle / Beach Party : That's Life 04:10
02. The Collector 02:08
03. Drunk, Ugly & Proud 02:44
04. Respectable Rascals 02:33
05. Lone Wolf 02:09
06. The Stranger 02:07
07. Sick & Tired 02:19
08. No Escape 01:54
09. Beer Bong 02:20
10. Lost Cause 02:48
11. Nihilist 01:32
12. Burning Hate / Les Porcs 04:38
13. Left-Right 02:25
14. Enter Delirium 03:30
******************************
Total playing time: 37:17



[more=Technical info]
Input File: 02 The Collector.mp3
Channels : 2
Sample Rate : 32000
Precision : 16-bit
Duration : 00:02:14.82 = 4314336 samples ~ 10111.7 CDDA sectors
File Size : 5.47M
Bit Rate : 325k
Sample Encoding: MPEG audio (layer I, II or III)
Comments :
Title=The Collector
Artist=I.M.C.
Album=1992 Enter Delirium
Tracknumber=02/14
Year=1992
Genre=Death Metal

[/more]

Register
(22) as71, Carcharoth, caro, chipsgott, gwar, hell_armageddon, kimkayoung, metala, Olethros, Sanctus, Shadechaser, supremo, Svafrlami, Taakeferd, Tino, VALERY, varlam4, vyacheslav, Wail, wreak, WX419, Xtohar,
Sep 3 2021, 12:26:08 I.M.C. - Lethal Sunrise [ep] (1991)


*Artist: I.M.C.
*Album: Lethal Sunrise [ep]
*Year: 1991
*Genre: Industrial Death Metal
*Country: Switzerland
*Format: mp3@CBR320kbps
*Size: 36MB

Tracklist:
01. Lethal Sunrise 02:58
02. Necronomicon 02:25
03. Beach Party 01:40
04. Life 01:05
05. Dead Brain Dreaming 05:52
06. Les Porcs 01:27
******************************
Total playing time: 15:27



[more=Technical info]
Input File: 02 Necronomicon.mp3
Channels : 2
Sample Rate : 48000
Precision : 16-bit
Duration : 00:02:24.60 = 6940944 samples ~ 10845.2 CDDA sectors
File Size : 5.92M
Bit Rate : 328k
Sample Encoding: MPEG audio (layer I, II or III)
Comments :
Title=Necronomicon
Artist=I.M.C.
Album=1991 Lethal Sunrise
Tracknumber=02/06
Year=1991
Genre=Death Metal

[/more]

Register
(5) gwar, kimkayoung, Svafrlami, Wail, Xtohar,
Sep 2 2021, 19:02:37 Hysteria - No Hay Vuelta Atras [ep] (2015)


*Artist: Hysteria
*Album: No Hay Vuelta Atras [ep]
*Year: 2015
*Genre: Thrash/Death Metal
*Country: Chile
*Format: mp3@CBR320kbps
*Size: 42MB

Tracklist:
01. Intro
02. Psicosis
03. No Hay Vuelta Atras
04. Holocausto
05. Histeria
******************************
Total playing time: 17:59

[more=Extended info]Группа играет с 1989 года и это их второй релиз

[youtube]N7OdmHEsdAo[/youtube][/more]

[more=Technical info]
Input File: 02 Psicosis.mp3
Channels : 2
Sample Rate : 44100
Precision : 16-bit
Duration : 00:06:02.20 = 15973020 samples = 27165 CDDA sectors
File Size : 14.5M
Bit Rate : 320k
Sample Encoding: MPEG audio (layer I, II or III)
Comments :
Title=Psicosis
Artist=Hysteria
Album=2015 No Hay Vuelta Atras
Tracknumber=02/05
Year=2015
Genre=Thrash/Death Metal

[/more]

Register
(12) boby9052, caro, chipsgott, METALHUNTER, Olethros, Razorbladeswaltz, Svafrlami, Taakeferd, varlam4, Wail, wanderer73, wreak,
Sep 2 2021, 18:58:53 Hysteria - Crisis Mental [ep] (2014)


*Artist: Hysteria
*Album: Crisis Mental [ep]
*Year: 2014
*Genre: Thrash/Death Metal
*Country: Chile
*Format: mp3@CBR320kbps
*Size: 50MB

Tracklist:
01. Intro
02. Crisis Mental
03. Horror Terror
04. Corrupcion
05. Vives De Las Mentiras
06. Persecucion
07. Holocausto
******************************
Total playing time: 21:29

Preview 1

[more=Extended info]Группа играет с 1989 года и это их первый релиз

[youtube]Pq7pM5EPRK8[/youtube][/more]

[more=Technical info]
Input File: 02 Crisis mental.mp3
Channels : 2
Sample Rate : 32000
Precision : 16-bit
Duration : 00:03:22.36 = 6475488 samples ~ 15176.9 CDDA sectors
File Size : 8.26M
Bit Rate : 326k
Sample Encoding: MPEG audio (layer I, II or III)
Comments :
Title=Crisis mental
Artist=Hysteria
Album=2014 Crisis Mental
Tracknumber=02/07
Year=2014
Genre=Thrash/Death Metal

[/more]

Register
(11) boby9052, caro, METALHUNTER, Olethros, Razorbladeswaltz, Svafrlami, Taakeferd, varlam4, Wail, wanderer73, wreak,
Aug 26 2021, 10:03:05 Hunter - Xxv Lat Później [live] (2001)


*Artist: Hunter
*Album: Xxv Lat Później [live]
*Year: 2001
*Genre: Thrash/Heavy Metal
*Country: Poland
*Format: mp3@CBR320kbps
*Size: 480MB

Tracklist:
01. Intro
02. Strasznik
03. $mierci$miech
04. Labirynt Fauna
05. Plytki Dolek
06. Wyznawcy
07. Misery
08. So...
09. Greed
10. Freedom
11. Kiedy Umieram...
12. BaRock
13. Osiem
14. Dura Lex Sed Lex
15. Duch Epoki
16. Zbawienie
17. Czarny Mis
18. Fallen
19. T.E.L.I....
20. TshaZshyC
21. Marsz Marsz Turecki (Live)
22. Requiem (Suita) (I Demo-1990)
23. Misery (Demo-1993)
24. Slepiec (Demo-1995)
25. Kiedy Umieram (demo-1997)
26. Why...? (Demo-1997)
27. Karawan (Outro)
28. T.E.L.I....
29. Plytki Dolek
30. BaRock
31. The Cuckoo's Nest
32. Deer Hunter
33. Mirror Of War
34. Freedom
35. Requiem
36. So...
37. Greed
38. Grabaszszsz
39. Kiedy Umieram...
40. Osiem
41. Fallen
42. Hey Ya!
******************************
Total playing time: 3:29:59

Preview 1

[more=Technical info]
Input File: 02 Strasznik.mp3
Channels : 2
Sample Rate : 44100
Precision : 16-bit
Duration : 00:04:02.77 = 10706245 samples = 18207.9 CDDA sectors
File Size : 9.81M
Bit Rate : 323k
Sample Encoding: MPEG audio (layer I, II or III)
Comments :
Title=Strasznik
Artist=Hunter
Album=2011 XXV Lat Pozniej
Tracknumber=02/42
Year=2011
Genre=Thrash Metal

[/more]

Register
(7) caro, METALHUNTER, Olethros, stumpheavyrock, Svafrlami, Wail, wreak,
Aug 26 2021, 09:58:28 Hunter - Live [live] (2001)


*Artist: Hunter
*Album: Live [live]
*Year: 2001
*Genre: Thrash/Heavy Metal
*Country: Poland
*Format: mp3@CBR320kbps
*Size: 95MB

Tracklist:
01. Intro 01:57
02. Big Bang (Bad Religion cover) 02:46
03. Blindman 03:30
04. Freedom 05:55
05. Misery 06:09
06. Introduction 01:19
07. Screamin' Whispers 03:46
08. Enter Sandman (Metallica cover) 05:41
09. Żniwiarze Umysłów 05:21
10. Kiedy Umieram... 05:12
******************************
Total playing time: 41:36

Preview 1

[more=Technical info]
Input File: 03 Blindman.mp3
Channels : 2
Sample Rate : 44100
Precision : 16-bit
Duration : 00:03:31.02 = 9306114 samples = 15826.7 CDDA sectors
File Size : 8.52M
Bit Rate : 323k
Sample Encoding: MPEG audio (layer I, II or III)
Comments :
Title=Blindman
Artist=Hunter
Album=2001 Live
Tracknumber=03/10
Year=2001
Genre=Thrash Metal

[/more]

Register
(6) Olethros, Reverend, stumpheavyrock, Svafrlami, thenecromancer, Wail,

175 Pages V   1 2 3 > » 
- Lo-Fi Version Support form
Copyrights and abuse reports form
Time is now: 24th October 2021 - 13:22:53