Welcome Guest ( Log In | Register )

История благодарностей участнику slack ::: Спасибо сказали: 18528 раз(а)
Дата поста: В теме: За сообщение: Спасибо сказали:
Nov 7 2019, 16:22:03 Acetic - Living The Afterlife [ep] (1993)
Думаю, что зря в лов. По собственному опыту - скорее запись такая...
(1) pichileon,
Nov 7 2019, 13:09:09 Tysondog - Hammerhead 2012 [ep] (2012)


*Artist: Tysondog
*Album: Hammerhead 2012 [ep]
*Year: 2012
*Genre: Heavy Metal
*Country: United Kingdom
*Format: mp3@CBR320kbps
*Size: 45MB

Tracklist:
01. Hammerhead 03:57
02. The Inquisitor 03:33
03. In the End 05:51
04. Painted Heroes 05:59
******************************
Total playing time: 19:20

[more=Extended info]Собравшись впервые, более чем за четверть века, в оригинальном составе,
группа переиграла 4 песни со своего дебютного альбома 1984го года.

[youtube]PpJWU_2cBis[/youtube][/more]

[more=Technical info]
Input File: 02 The Inquisitor.mp3
Channels : 2
Sample Rate : 44100
Precision : 16-bit
Duration : 00:03:34.01 = 9437841 samples = 16050.8 CDDA sectors
File Size : 8.69M
Bit Rate : 325k
Sample Encoding: MPEG audio (layer I, II or III)
Comments :
Title=The Inquisitor
Artist=Tysondog
Album=2012 Hammerhead 2012
Tracknumber=02/04
Year=2012
Genre=Heavy Metal

[/more]

Register
(6) metalwoman, Olethros, Rosen, sergsazan, stumpheavyrock, Wail,
Nov 4 2019, 20:13:37 Deathonator - No Heaven On Earth (2008)


*Artist: Deathonator
*Album: No Heaven On Earth
*Year: 2008
*Genre: Gothic/Melodic Death Metal
*Country: Russian Federation
*Format: mp3@CBR320kbps
*Size: 118MB

Tracklist:
01. Lily of the Black Valley 05:22
02. Plethora of Sundown 04:05
03. Hatebird 05:20
04. Megalomania 05:33
05. No Heaven on Earth 05:06
06. No Pain 04:01
07. Forgotten Hero 05:49
08. D-Day 04:08
09. Born to Be Free 04:00
10. Dreams Empire 05:13
11. Inner Voice 03:23
******************************
Total playing time: 52:00

[more=Technical info]
Input File: 03 Hatebird.mp3
Channels : 2
Sample Rate : 44100
Precision : 16-bit
Duration : 00:05:20.64 = 14140004 samples = 24047.6 CDDA sectors
File Size : 12.9M
Bit Rate : 323k
Sample Encoding: MPEG audio (layer I, II or III)
Comments :
Title=Hatebird
Artist=Deathonator
Album=2008 No Heaven on Earth
Tracknumber=03/11
Year=2008
Genre=Gothic/Melodic Death Metal

[/more]

Register
(3) Cartman223, metalwoman, Rosen,
Nov 2 2019, 23:30:11 Лучший советчик МА - Часть 3 (Трэш) - Тур 1, Общий сбор
Хренасе у S.D.I. (Satan's Defloration Incorporated) - 5046 на Ласте...
Я думал раз в 10 больше 15.gif

Совершенно потрясающая песня!

[youtube]xPhxoKB7HvU[/youtube]

Взять в 320 можно здесь

Register
(2) metala, Old Vyaine,
Nov 2 2019, 22:57:17 Лучший советчик МА - Часть 3 (Трэш) - Тур 1, Общий сбор
Ещё подкину раров...

Loss For Words 1989 "Prey"

[youtube]peIjyzuUBwM[/youtube]

Взять в 320 можно здесь

Register
(1) troll_swamp,
Nov 2 2019, 19:35:30 Лучший советчик МА - Часть 3 (Трэш) - Тур 1, Общий сбор
Хе... Ну пока для себя ничего нового не увидел...

Deze, как отец-основатель голосовалок на МА я хочу для себя преференций 15.gif

Засчитай мне ещё одну группу, ибо она нереально хороша! Из новых, молодых...

Demonztrator 2017 "Forgotten Acts Of Aggression"

[youtube]dE3v27wTrlA[/youtube]

ЦИТАТА(vosmidesijatye @ Nov 2 2019, 18:04:27) *
...Вы не шарите просто.)

Шарящий 80й - это шедеврально!
Тёма, извини bye.gif
(1) troll_swamp,
Nov 1 2019, 21:37:54 Лучший советчик МА - Часть 3 (Трэш) - Тур 1, Общий сбор
Про LWS Inc. пару слов.
Ребята записали этот альбом и разбежались. Вокалёр спустя пару лет собрал новый состав и в середине 90х группа записала ещё один альбом.
Но его можно не слушать. Мне лично не хочется...
А вот дебютник - хорош!
Из всех музыкантов дебютного альбома никто больше нигде не играл. Кроме Dennis Hartogа,
С 2011 года гитарист известных всем и многими любимыми Sinister.
(2) Diflock, quicksand,
Nov 1 2019, 20:54:17 Лучший советчик МА - Часть 3 (Трэш) - Тур 1, Общий сбор
Блин! Sacrilege B.C. , Znowhite, Blessed Death наизусть знать надо! Это ж иконы в своём роде...
Ладно, может кто реально что присоветует...

От себя ткну действительно шедевральную редкость. У них на Ласте не то что 10К нет, у них и 1К нет!
А между тем это действительно шедевр!
Открыл их для себя в 2016ом году только, когда тему про олдкульный трэш здесь пилил...
Может кто и запомнил их с тех пор... В общем - слушать обязательно!

LWS Inc. (Lunatics Without Skateboards Inc.) 1989 "Welcome To The Asylum"

[youtube]7PWjhwXO9kA[/youtube]

Взять альбом в 320 можно здесь:

Register
(2) Diflock, quicksand,
Oct 26 2019, 07:17:49 Death Strike - Fuckin' Live [live] (2017)


*Artist: Death Strike
*Album: Fuckin' Live [live]
*Year: 2017
*Genre: Death Metal
*Country: United States
*Format: mp3@CBR320kbps
*Size: 107MB

Tracklist:
01. The Truth 06:02
02. Mangled Dehumanization 06:56
03. Pledge of Alliance 05:02
04. Terrorizer 04:32
05. The Final Conflict 03:08
06. Unknown Soldier 05:09
07. Re-Entry And Destruction 04:02
08. Cut Thru The Filth 01:44
09. Remorseless Poison 01:12
10. Pay to Die 04:07
11. Children Of The Grave 04:45
******************************
Total playing time: 46:39

[more=Technical info]
Input File: 02 TerrorizerPledge Of Allegiance.mp3
Channels : 2
Sample Rate : 44100
Precision : 16-bit
Duration : 00:06:53.68 = 18243068 samples = 31025.6 CDDA sectors
File Size : 16.6M
Bit Rate : 322k
Sample Encoding: MPEG audio (layer I, II or III)
Comments :
Title=Terrorizer/Pledge Of Allegiance
Artist=Death Strike
Album=2017 Fuckin' Live
Tracknumber=02/11
Year=2107
Genre=Death Metal

[/more]

Register
(16) Appie_Thrasher, artscald, canadaspaceman, cancer1974, FUDEDOR, infiltrator, Leshiy666, multizwilling, Olethros, pedrohell, Pinhead666, Rosen, stumpheavyrock, VALERY, Wail, wtk.412,
Oct 25 2019, 11:16:53 Acheron - The Pain Dominion (1993)
Yandex - 320

Register
(2) thenecromancer, Tino,
Oct 25 2019, 08:15:34 Abax - Zlatej Ráj [ep] (2008)
Послушал сей недоальбом, зашел черкануть, а его оказывается я и залил 17.gif

Ну, в общем нет здесь никакого Speed/Thrash. Есть Heavy, может чуть утяжелённый местами...
Это первый альбом группы из 80х после воссоединения, да и вообще первый. До этого одни демки, где видимо и был Speed/Thrash.
Хрень на чешском - это если коротко. Если чуть подробнее - то совершенно никому не нужная, наверное и самим чехам, хрень на чешском crazy.gif

Зачем я об этом пишу? Есть одно НО. Это третья песня в альбоме "Nezahynu"
Если кто ценит баллады - обязательно должен услышать эту вещь!
Откуда что взялось? Оказывается и вокалист умеет петь, а музыканты играть. И песня - выверена-вылизана до совершенства просто, когда ни одной лишней ноты.
И ведущая партия виолончели, не для того, чтобы сказать - "о как мы могём и большую скрипку для понтов в музло наше припиндюрить".
И чешский вдруг очень красиво в этой песне зазвучал... В общем если кто балуется сборниками балладными - просто обязан "Nezahynu" туда включить.
Ну и очень рекомендую эту песню просто послушать. Хотя бы здесь.

[youtube]eq4wtybigz8[/youtube]

Друзья превращаются в прах, а тебя я встречаю только во сне ... Я не умру, я не умру...


Abax 2008 "Zlatej Raj" - 320 Yandex

Register


(1) MICRONTHEMACHINE,
Oct 22 2019, 12:45:05 Death Omens - Age of Decay [ep] (2018)


*Artist: Death Omens
*Album: Age of Decay [ep]
*Year: 2018
*Genre: Thrash Metal
*Country: Chile
*Format: mp3@CBR320kbps
*Size: 63MB

Tracklist:
01. Overthure of Dogma
02. Our Apocalypse
03. The King
04. Kill for Sacrifice
05. The King (Demo)
06. Our Apocalypse (Live)
******************************
Total playing time: 26:30



[more=Technical info]
Input File: 02 Our Apocalypse.mp3
Channels : 2
Sample Rate : 44100
Precision : 16-bit
Duration : 00:05:09.57 = 13651949 samples = 23217.6 CDDA sectors
File Size : 12.7M
Bit Rate : 328k
Sample Encoding: MPEG audio (layer I, II or III)
Comments :
Title=Our Apocalypse
Artist=Death Omens
Album=Age of Decay
Tracknumber=02/06
Year=2018
Genre=Thrash Metal

[/more]

Register
(11) artscald, boby9052, gwar, marilin, Mogozoz, Olethros, Rosen, scorpionmk, sergsazan, stumpheavyrock, Wail,
Oct 19 2019, 21:30:43 Death Squad - Noise Commands Respect [ep] (1990)


*Artist: Death Squad
*Album: Noise Commands Respect [ep]
*Year: 1990
*Genre: Thrash Metal/Crossover
*Country: United States
*Format: mp3@CBR320kbps
*Size: 22MB

Tracklist:
01. Don't Push 02:37
02. Open Your Eyes 03:05
03. So You Want to Be a Hero 01:48
04. March to Your Death 01:33
05. Memo to the P.M.R.C. 02:09
******************************
Total playing time: 11:12



[more=Technical info]
Input File: 01 Dont push.mp3
Channels : 2
Sample Rate : 44100
Precision : 16-bit
Duration : 00:02:41.68 = 7129956 samples = 12125.8 CDDA sectors
File Size : 6.64M
Bit Rate : 328k
Sample Encoding: MPEG audio (layer I, II or III)
Comments :
Title=Don´t push
Artist=Death Squad
Album=1990 Noise commands Respect
Tracknumber=01/05
Year=1990
Genre=Thrash Metal

[/more]

Register
(11) artscald, boby9052, gwar, infiltrator, Olethros, pichileon, Rosen, sergsazan, stumpheavyrock, Warzwulf, Z28517,
Oct 18 2019, 22:19:53 Death Courier - Die Hard [live] (2016)


*Artist: Death Courier
*Album: Die Hard [live]
*Year: 2016
*Genre: Thrash/Death Metal
*Country: Greece
*Format: mp3@CBR320kbps
*Size: 74MB

Tracklist:
01. Mass Impalement 04:02
02. Lunatic Messiah 04:39
03. Death Courier 03:34
04. Necrophania 04:38
05. Sodomy & Lust (Sodom cover) 04:59
06. Assaulted 01:29
07. Demise 04:12
08. Copkiller 02:32
09. Swamplife 03:53
10. Resurrection (Terrorizer cover) 03:27
11. Necrorgasm 02:26
12. Bioartificial Lusts 03:28
******************************
Total playing time: 43:19

[more=Extended info]Самопальная запись концертов, переработанная в 2016 г.
Качество соответствующее...

Tracks 01-06 recorded Live in Athens 02-05-1989.
Tracks 07-12 recorded Live at Villa Amalias Squat, Athens 4/27/91.[/more]

[more=Technical info]
Input File: 03 Death Courier.mp3
Channels : 2
Sample Rate : 44100
Precision : 16-bit
Duration : 00:03:34.87 = 9475855 samples = 16115.4 CDDA sectors
File Size : 8.69M
Bit Rate : 323k
Sample Encoding: MPEG audio (layer I, II or III)
Comments :
Title=Death Courier
Artist=Death Courier
Album=2016 Die Hard
Tracknumber=03/12
Year=2016
Genre=Thrash/Death Metal

[/more]

Register
(7) artscald, canadaspaceman, FUDEDOR, Hell_Is_Here, Olethros, Rosen, tireheb,
Oct 18 2019, 09:04:11 Post Mortem - Message From The Dead (2009)


*Artist: Post Mortem
*Album: Message From The Dead
*Year: 2009
*Genre: Thrash Metal
*Country: United States
*Format: mp3@CBR320kbps
*Size: 112MB

Tracklist:
01. Message from the Dead 02:38
02. Dana Hersey 02:59
03. Crispy Monsters 01:59
04. Human Pinata 04:19
05. Pray Before You DIe 06:20
06. Field Trip 04:20
07. Never Rat 01:04
08. Babble On 02:21
09. A Happy Life 01:28
10. Forthright Tuna 03:50
11. Oh So Evil 03:50
12. Message from the Dead 02:39
13. Field Trip 04:27
14. Never Rat 01:12
15. A Happy Life 01:30
16. Oh So Evil 03:49
******************************
Total playing time: 48:45



[more=Technical info]
Input File: 02 Dana Hersey.mp3
Channels : 2
Sample Rate : 44100
Precision : 16-bit
Duration : 00:02:59.63 = 7921727 samples = 13472.3 CDDA sectors
File Size : 7.34M
Bit Rate : 327k
Sample Encoding: MPEG audio (layer I, II or III)
Comments :
Title=Dana Hersey
Artist=Post Mortem
Album=2009 Message from the Dead
Tracknumber=02/16
Year=2009
Genre=Thrash Metal

[/more]

Register
(10) artscald, boby9052, FUDEDOR, gwar, infiltrator, Kowalski, Mogozoz, Olethros, Rosen, sergsazan,
Oct 10 2019, 16:08:29 Intoxicate - Retrogressive [ep] (2014)


*Artist: Intoxicate
*Album: Retrogressive [ep]
*Year: 2014
*Genre: Speed/Thrash Metal
*Country: Sweden
*Format: mp3@CBR320kbps
*Size: 78MB

Tracklist:
01. Monomania 06:49
02. In-sect-icide 04:10
03. Tango of Nietzsche 03:03
04. Donkeyshot 05:57
05. Four Walls 07:04
06. C for Yourself 07:10
******************************
Total playing time: 34:13



[more=Technical info]
Input File: 02 In-Sect-Icide.mp3
Channels : 2
Sample Rate : 44100
Precision : 16-bit
Duration : 00:04:11.00 = 11069100 samples = 18825 CDDA sectors
File Size : 10.1M
Bit Rate : 323k
Sample Encoding: MPEG audio (layer I, II or III)
Comments :
Title=In-Sect-Icide
Artist=Intoxicate
Album=2015 Retrogressive
Tracknumber=02/06
Year=2015
Genre=Speed/Thrash Metal

[/more]

Register
(9) AHBAnep, artscald, gwar, infiltrator, infozahist, Mogozoz, Olethros, Rosen, sergsazan,
Oct 6 2019, 17:19:49 Deadly Vision - Vicious Circle [ep] (2017)
Yandex

Register
(2) Corpuscul, MP101M,
Oct 5 2019, 11:16:15 Deadly Vision - Vicious Circle [ep] (2017)


*Artist: Deadly Vision
*Album: Vicious Circle [ep]
*Year: 2017
*Genre: Death Metal
*Country: Poland
*Format: mp3@CBR320kbps
*Size: 42MB

Tracklist:
01. Bliss
02. Gray
03. Momentary Lapse
04. Survival
******************************
Total playing time: 18:03

[more=Extended info]320 здесь нет.

Очень старая банда из 80х...
Это их первый альбом

[youtube]s1dhHF6NF54[/youtube][/more]

[more=Technical info]
Input File: 01 Bliss.mp3
Channels : 2
Sample Rate : 44100
Precision : 16-bit
Duration : 00:04:16.69 = 11319853 samples = 19251.5 CDDA sectors
File Size : 10.4M
Bit Rate : 325k
Sample Encoding: MPEG audio (layer I, II or III)
Comments :
Title=Bliss
Artist=Deadly Vision
Album=2017 Vicious Circle
Tracknumber=01/04
Year=2017
Genre=Death Metal

[/more]

Register
(4) Olethros, Rosen, soulflesh, stumpheavyrock,
Oct 3 2019, 17:38:40 Juggernaut - Baptism Under Fire (1986)
Yandex 320 - 74 метра

Register
(1) ripper33,
Oct 1 2019, 15:16:51 Risk - Hell's Animals (1989)
Yandeks 320 - 87 метров

Register
(1) pedrohell,
Sep 27 2019, 22:41:29 Acid Reign - The Age Of Entitlement (2019)
Вот и мне тоже понравилось.
И хоть это не совсем моё направление трэша, но понравилось.
Если одним словом, то - задорно!
Как будто молодёжь играет. Правда, в отличии от metala, я бы не сказал, что прямо классика...
Нотки модернизма явно присутствуют, хотя может это лишь для моих ушей 15.gif
Но лёгкий модерн явно в хорошем смысле этого слова.
В общем я доволен. Послушаю, и не раз, чего и всем советую...
(3) Diflock, metala, Samaritianin,
Sep 25 2019, 23:55:56 Sodom - Obsessed By Cruelty (1986)
Хочется поставить некую точку в данной дискуссии.
Я старый поклонник этого альбома. Не Содома в целом, а именно этого их альбома...
Уж не знаю почему так вышло, возможно потому что, далёкой, поздней осенью 1986го года мне привезли и я купил два альбома -
Pleasure to kill и Obsessed by Cruelty, которые перевернули мои музыкальные пристрастия, которым я верен до сих пор.
С тех пор прошло много лет, но именно эти два альбома я люблю больше всех остальных вместе взятых...
И если к качеству Pleasure to kill претензий не было, то Obsessed by Cruelty вызывал некоторые вопросы.
Мне повезло - мне досталось издание от Steamhammer. Хотя то, что повезло я понял лишь спустя много лет.
И вот здесь начинается прямо таки детективная история, которую многие возможно знают, а многие даже и не догадываются о её существовании.
Официальных версий несколько. Самая красивая и самая не правдоподобная изложена на Архивах, где любой желающий может с ней ознакомиться.
Так что же случилось на самом деле?
В конце 1985го года Том (который тогда ещё не был дядюшкой) Angel Ripper - вокал, бас, Destructor - гитара и Witch Hunter - барабаны,
приступают к записи своего первого полноформата в славном городе Берлине.
Записывал альбом Horst Müller для лейбла Metal Blade Records, который должен был выпустить альбом весной 1986го.
Что уж там произошло с записью - теперь доподлинно узнать не возможно. Кто говорит, что это у Мюллера руки из жoпы росли, а уши оттуда же,
откуда и руки, кто поговаривает о том, что в тираж пошла черновая запись альбома, но факт остаётся фактом - то, что вышло в мае 1986го года на
Metal Blade Records слушать без слёз невозможно. И ладно бы так, но дело в том, что ВСЕ дальнейшие официальные переиздания этого альбома,
включая многочисленные ремастеры произошли именно с этой матрицы от Metal Blade Records.
Том (который тогда ещё не был дядюшкой) услышав готовый к тиражу альбом пришёл в ярость. Но так как на тот момент он ещё не имел
того влияния, которое имеет сейчас, ничего поделать не смог. Однако его таки хватило на то, что бы договориться на запись этого альбома со Steamhammer, чьи права ограничивались лишь территорией Германии. По началу Том хотел полностью переиграть альбом заново.
Но Steamhammer быстро остудил его пыл, отказавшись финансировать эту затею. К тому же Destructor, в миру Michael Wulf, уже одной ногой
был в Kreator и попросту послал Тома сказав, что деньги за альбом он получил, а на остальное ему накашлять...
Дело кончилось тем, что Steamhammer позволил Тому дополнить альбом одной новой песней After the Deluge, а остальной материал был
существенно переработан Bobby Bachinger в Ньюнбергской студии и частично переигран при участии гитариста Uwe Christoffers, который так никогда и не стал полноправным членом коллектива. Сам Том сыграл два соло на Equinox и Volcanic Slut.
До сих пор версия Steamhammer остаётся только на первопрессе, вышедшем в 1986ом году, а мир заполонило Metal Blade'овское дерьмищe
во всевозможных версиях, с разной степенью удачливости ремастированное.

Лучший рип этого альбома, что можно найти в сети это, как здесь было справедливо замечено рип от Ревичи.
Единственный его недостаток - плохое состояние винила.

У меня винил - практически идеальный. Ну и используемый аппарат на порядок лучше. Вот только руки покривее и голова поглупее 15.gif
Тем не менее тешу себя мыслью, что рип у меня получился...

Yandex 320 - 93,8 метра

Register
(9) 6666666, Eisbar, gongshow, maxmagmas, older68, samokot, thenecromancer, Фо, Язва,
Sep 24 2019, 07:24:45 Dead Head - The Shark Tapes [ep] (2019)
Всё работает 23.gif

Yandex

Register
(1) dafya328,
Sep 22 2019, 19:46:09 Dead Head - The Shark Tapes [ep] (2019)


*Artist: Dead Head
*Album: The Shark Tapes [ep]
*Year: 2019
*Genre: Thrash/Death Metal
*Country: Netherlands
*Format: mp3@CBR320kbps
*Size: 30MB

Tracklist:
01. Sunshine 03:08
02. Phoenix Rising 03:57
03. Sprayed into Oblivion 03:22
04. Where Silence Dwells 02:53
******************************
Total playing time: 13:20

[more=Technical info]
Input File: 02 Phoenix Rising.mp3
Channels : 2
Sample Rate : 44100
Precision : 16-bit
Duration : 00:03:57.00 = 10451700 samples = 17775 CDDA sectors
File Size : 9.58M
Bit Rate : 323k
Sample Encoding: MPEG audio (layer I, II or III)
Comments :
Title=Phoenix Rising (Shark Tapes)
Artist=Dead Head
Album=2019 The Shark Tapes
Tracknumber=02/04
Year=2019
Genre=Thrash/Death Metal

[/more]

Register
(20) artscald, boby9052, cancer1974, dafya328, desekrator, Diflock, Hell_Is_Here, infiltrator, kauyumari, kryptor, metala, METALHUNTER, Olethros, Rosen, Samaritianin, sergsazan, TeamatSE, THROWER666, Tino, wreak,
Sep 17 2019, 10:55:04 Abduction - Juego De Sangre (2019)
Банда называется Abduction R
(2) Diflock, infiltrator,

160 Pages V   1 2 3 > » 
- Lo-Fi Version Support form
Copyrights and abuse reports form
Time is now: 12th November 2019 - 19:25:04

Футбол рома фнк on line рома.