Welcome Guest ( Log In | Register )

История благодарностей участнику slack ::: Спасибо сказали: 19042 раз(а)
Дата поста: В теме: За сообщение: Спасибо сказали:
Apr 3 2020, 10:36:35 Лучший советчик МА - Часть 6 (Хеви) - Итоги
Это я сам виноват. Просто нет времени. Пырить не хотел. Слушать - нет времени. Ну а тупо 0 ставить - это не моё 15.gif
(3) Exorcist, infiltrator, Yarri,
Apr 1 2020, 13:15:36 Seventh Angel - Heed The Warning - Live & Demo Recordings [compilation] (2005)


*Artist: Seventh Angel
*Album: Heed The Warning - Live & Demo Recordings [compilation]
*Year: 2005
*Genre: Thrash/Doom Metal
*Country: United Kingdom
*Format: mp3@CBR320kbps
*Size: 157MB

Tracklist:
01. Forbidden Desires 04:07
02. Seven Angels 06:31
03. I of the Needle 05:30
04. Heed the Warning 05:29
05. Tormented Forever 03:34
06. Seven Angels 05:08
07. Dark Shadows 05:07
08. Dr. Hatchet 05:18
09. Woken by Silence 06:15
10. Life in All Its Emptiness 05:23
11. Katie 08:52
12. No Longer a Child 05:57
******************************
Total playing time: 1:07:11

[more=Extended info]Tracks 1-4 from the Heed The Warning demo.
Tracks 5-7 from Wolverhampton, UK - April 17, 1992.
Tracks 8-11 from Greeenbelt Fest, UK - August 28, 1992.
Track 12 from Crushing Hell Fest, Holland -November 20, 1992.

[youtube]n3jo0IxruY4[/youtube][/more]

[more=Technical info]
Input File: 01 Forbidden Desires.mp3
Channels : 2
Sample Rate : 32000
Precision : 16-bit
Duration : 00:04:08.44 = 7950048 samples ~ 18632.9 CDDA sectors
File Size : 10.2M
Bit Rate : 329k
Sample Encoding: MPEG audio (layer I, II or III)
Comments :
Title=Forbidden Desires
Artist=Seventh Angel
Album=Heed the Warning Demo & Live Recordings
Tracknumber=01/12
Year=2005
Genre=Thrash Metal

[/more]

Register
(3) infiltrator, Olethros, stub888,
Mar 29 2020, 20:20:51 Kreator - 666 - World Divided [single] (2020)
Плевать на всех.
Мне песня понравилась. Вокал Милле все лучше и лучше. Умеет петь, а не просто вопить-хрипеть в микрофон.

(3) avather, Faust_Vulkan_16, verner,
Mar 29 2020, 17:26:36 Forté - Vae Solis [ep] (2010)


*Artist: Forté
*Album: Vae Solis [ep]
*Year: 2010
*Genre: Power/Thrash Metal
*Country: United States
*Format: mp3@CBR320kbps
*Size: 26MB

Tracklist:
01. Vae Solis
02. Unholy War
03. Dead To Me
04. Stronger Than Death
******************************
Total playing time: 11:20

Preview 1

[more=Technical info]
Input File: 02 Unholy War.mp3
Channels : 2
Sample Rate : 44100
Precision : 16-bit
Duration : 00:03:10.83 = 8415603 samples = 14312.2 CDDA sectors
File Size : 7.80M
Bit Rate : 327k
Sample Encoding: MPEG audio (layer I, II or III)
Comments :
Title=Unholy War
Artist=Forte
Album=2010 Vae Solis
Tracknumber=02/04
Year=2010
Genre=Thrash Metal

[/more]

Register
(7) aviacademy, boby9052, gwar, infiltrator, MAYH, stumpheavyrock, zhol,
Mar 18 2020, 23:34:15 Bloodstar - Anytime - Anywhere (1992)
Yandex - 320

Register
(3) dimmannius, thenecromancer, varlam4,
Mar 18 2020, 23:31:36 Bloodstar - Bloodstar (1988)
Yandex - 320

Register
(4) dimmannius, varlam4, wendigo, Z28517,
Mar 17 2020, 14:59:02 Testament - Titans Of Creation (2020)
ЦИТАТА(Alexis The Best @ Mar 17 2020, 15:41:09) *
Он для меня один из фаворитов 2017 года, наряду с альбомом чилийцев Death Yell "Descent Into Hell" true_black.gif metaler.gif

Он у меня один из фаворитов ХХI вообще
(2) Alexis The Best, infiltrator,
Mar 17 2020, 11:58:39 Testament - Titans Of Creation (2020)
Да в общем то всё вкусовщина, по большому счёту.
Не хочу спорить, доказывать и пытаться убеждать - всё равно бесполезно...
Просто высказываю своё мнение - Террор нивчем не уступает Школьнику во владении инструментом - это как минимум.
А по песням, так я не могу вспомнить что это за песня у Тестаментов, хотя гонял альбом и вчера и утром сегодня, а риффы Инферналов так и сидят в голове...
Ну вкусовщина же 15.gif

ЦИТАТА(troll_swamp @ Mar 17 2020, 12:40:01) *
...и я теперь ещё больше убедился что я не зря не слушаю всё то что после первого альбома, но это всего лишь моё мнение. 9.gif

А мне вот наоборот последний их альбом больше всего нравится.
Очень рекомендую послушать.
(2) Alexis The Best, infiltrator,
Mar 17 2020, 10:25:56 Testament - Titans Of Creation (2020)
ЦИТАТА(hammer @ Mar 17 2020, 12:16:41) *
Да хоть бы тот же Dream Deceiver

Ну и сравни, хотя бы с этим

[youtube]WsawO-PXli4[/youtube]

Каждая нота, как хитовый гвоздь в голову metaler.gif
(2) Alexis The Best, infiltrator,
Mar 17 2020, 08:15:31 Testament - Titans Of Creation (2020)
Мне не понравилось. Мне вообще Тестамент не нравится. Никогда не нравился. Вот Х.З. почему.
Что естественно не отменяет их величия и крутости. Просто - не нравится мне...
Сыграно - шикарно. Спето - бесподобно. Но - не нравится.
Многие их альбомы я вообще слушать не могу, другие раз в год включаю, что бы убедиться - нет, ничего не изменилось и мне не нравится...
Здесь то же. Слушать тяжело. Хитов нет. Вспомнить после прослушки ничего невозможно...
Может они слишком сложны для меня? Нет. Один из любимейших моих альбомов за многие последние года - Infernal Majesty 2017 "No God"
Уж у них то музыка посложней для восприятия, а как заходит!
Вспомнил про Инферналов не случайно. Мне показалось, что этот Тестамент очень на них похож. Только хуже во всём.
Начиная с аранжировок и заканчивая исполнительским мастерством на всех инструментах, кроме разве микрофона...
(3) Alexis The Best, DarkHorde, infiltrator,
Mar 15 2020, 13:38:44 Unleashed - And The Laughter Has Died.... [ep] (1991)
Yandex

Register
(12) cancer1974, cist, FUDEDOR, infiltrator, morbidangelo, multizwilling, Olethros, stumpheavyrock, thenecromancer, Wail, wanderer73, wtk.412,
Mar 15 2020, 10:29:40 Unleashed - And The Laughter Has Died.... [ep] (1991)


*Artist: Unleashed
*Album: And The Laughter Has Died.... [ep]
*Year: 1991
*Genre: Death Metal
*Country: Sweden
*Format: mp3@CBR320kbps
*Size: 20MB

Tracklist:
01. The Dark One 03:46
02. Where Life Ends 04:48
******************************
Total playing time: 8:34

Preview 1

[more=Extended info]Recorded in December, 1990 at Nobel Studios in Bielefeld, Germany.[/more]

[more=Technical info]
Input File: 01 The Dark One.mp3
Channels : 2
Sample Rate : 44100
Precision : 16-bit
Duration : 00:03:46.86 = 10004658 samples = 17014.7 CDDA sectors
File Size : 9.23M
Bit Rate : 326k
Sample Encoding: MPEG audio (layer I, II or III)
Comments :
Title=The Dark One
Artist=Unleashed
Album=1991 And The Laughter Has Died....
Tracknumber=01/02
Year=1991
Genre=Death Metal

[/more]

Register
(12) beast666, Froze, infiltrator, kim666, Mannard, morbidangelo, peppuzzo, recber, sergsazan, Shadechaser, wanderer73, wn129aa,
Mar 15 2020, 10:17:06 Testament - Live At Dynamo Open Air 1997 [live] (2019)


*Artist: Testament
*Album: Live At Dynamo Open Air 1997 [live]
*Year: 2019
*Genre: Thrash Metal
*Country: United States
*Format: mp3@CBR320kbps
*Size: 85MB

Tracklist:
01. Demonic Refusal 06:03
02. Low 04:00
03. Over the Wall 04:12
04. Burnt Offerings 05:39
05. Into the Pit 02:48
06. The New Order 04:45
07. Dog Faced Gods 04:15
08. Disciples of the Watch 05:33
******************************
Total playing time: 37:15

[more=Extended info]Recorded live at the Dynamo Festival, Eindhoven, Netherlands on May 18, 1997.[/more]

[more=Technical info]
Input File: 02 Low.mp3
Channels : 2
Sample Rate : 44100
Precision : 16-bit
Duration : 00:04:01.00 = 10628100 samples = 18075 CDDA sectors
File Size : 9.75M
Bit Rate : 324k
Sample Encoding: MPEG audio (layer I, II or III)
Comments :
Title=Low
Artist=Testament
Album=2019 Live At Dynamo Open Air 1997
Tracknumber=02/08
Year=2019
Genre=Thrash Metal

[/more]

Register
(15) AHBAnep, Aresson, Brann, cancer1974, infiltrator, kefka, morbidangelo, Old Vyaine, Olethros, recber, Samaritianin, Tino, varlam4, vo140182fav, Wail,
Mar 3 2020, 16:21:45 Лучший советчик МА - Часть 6 (Хеви) - Тур 2, Рейтингование
ЦИТАТА(Emm Human @ Mar 3 2020, 18:11:08) *
Да лан, прог вон чуть-ли не 1,5 месяца слушали/оценивали, неужели пару недель не подождать - сейчас времени мало для прослушки!

Пока этот прог вкуришь - может и 1,5 года пройти. А может и вся жизнь...
Я вот до сих пор не вкурил и уже наверное не получится. Посему и не лезу в то, что не слушаю, а то в блэке одни 0 наставил бы... 15.gif
Но хэви надо попробовать осилить
(3) Alexis The Best, Emm Human, infiltrator,
Feb 22 2020, 19:06:57 Лучший советчик МА - Часть 6 (Хеви) - Тур 1, Общий сбор
К своему совету. Кто из ваших так может? 15.gif

[youtube]UGCZr4UsD-0[/youtube]
(1) Alexis The Best,
Feb 22 2020, 18:47:28 Лучший советчик МА - Часть 6 (Хеви) - Тур 1, Общий сбор
НЕТ!
Хэви - это Самый Главный Стиль из которого выросли все остальные...
(4) Alexis The Best, infiltrator, Lux, Yarri,
Feb 21 2020, 10:20:35 Лучший советчик МА - Часть 6 (Хеви) - Тур 1, Общий сбор
ЦИТАТА(Penetralia @ Feb 21 2020, 12:05:19) *
Никогда такого не было и вот опять. Сейчас как в треше нафталина из восьмидесятых как понасоветуют

А чем плохо, если музыка хорошая?
Уж всяк лучше новодельной дристни 15.gif
(5) Alexis The Best, avather, infiltrator, maxmagmas, Фо,
Feb 21 2020, 10:17:45 Gravestone - Back To Attack (1985)
320 - 105 метров

Register
(5) cesar, Deze, Eisbar, morbidangelo, Wail,
Feb 21 2020, 10:01:51 Лучший советчик МА - Часть 6 (Хеви) - Тур 1, Общий сбор
Не совсем моя тема, но есть, что из закромов достать 15.gif
Gravestone 1985 "Back To Attack"

Классический немецкий хэви из 80х.
Наполнен бешеной энергетикой, перемешанный прекрасными баладами, вкупе с потрясающими гитарами и классическим вокалом.

[youtube]huD47MtoZWU[/youtube]

Ссылку обновил
(5) aGoo, Alexis The Best, Daale, infiltrator, Yarri,
Feb 10 2020, 09:53:46 Разлогинивает
А у меня, вроде всё починилось.
Нихрена не делал, но сегодня всё пока работает без сбоев.
(1) Borderline1991,
Feb 9 2020, 14:32:49 S.D.I. - Satans Defloration Incorporated (1986)
Yandex - 320

Register
(3) EvgeniusLongus, Sordes, varlam4,
Feb 7 2020, 07:28:48 Assassin - Bestia Immundis (2020)
Долбёжка. Бессмысленная и беспощадная 15.gif
Как бы музыки хотелось бы...
Но здесь - бригада строителей собралась у работающего бульдозера, включила отбойный молоток и начала хором гавкать на прораба 15.gif
(7) infiltrator, maxmagmas, Metalass, MorganaLefayFan, ruslanok, Samaritianin, verner,
Feb 6 2020, 16:38:47 Assassin
Пока отмодерят - состариться можно 15.gif
(1) Ingvar,
Feb 6 2020, 13:29:37 Desolator - Last Wish (2012)


*Artist: Desolator
*Album: Last Wish
*Year: 2012
*Genre: Death Metal
*Country: Poland
*Format: mp3@CBR320kbps
*Size: 78MB

Tracklist:
01. Intro (Eternal Damnation) 02:03
02. Last Wish (3) 04:40
03. Capital Punishment (7) 03:10
04. Merciless Dementia (2) 03:20
05. Born of Sin (9) 03:48
06. Soul to Machine (4) 05:39
07. Again (6) 03:23
08. Behind the Mask (8) 03:30
09. Turned Around (Sickness) [5] 04:15
******************************
Total playing time: 33:48

[more=Technical info]
Input File: 02 Last Wish (3).mp3
Channels : 2
Sample Rate : 44100
Precision : 16-bit
Duration : 00:04:41.10 = 12396334 samples = 21082.2 CDDA sectors
File Size : 11.4M
Bit Rate : 324k
Sample Encoding: MPEG audio (layer I, II or III)
Comments :
Title=Last Wish
Artist=Desolator
Album=2012 Last Wish
Tracknumber=02/09
Year=2012
Genre=Death Metal

[/more]

Register
(21) AHBAnep, andreikun, ASkyThatBurns, atavist, BugEyes, caro, Corpuscul, infiltrator, jollo, MMMMM, morbidangelo, MP101M, multizwilling, Olethros, Rosen, soulflesh, stumpheavyrock, vov7609, vyacheslav, WX419, Герб,
Feb 5 2020, 11:57:45 Разлогинивает
Ещё удобен, если у тебя почта, облака, и прочая хрень от Яндекс
(1) garmonbozia,

163 Pages V   1 2 3 > » 
- Lo-Fi Version Support form
Copyrights and abuse reports form
Time is now: 5th April 2020 - 07:52:53

Футбол рома фнк on line рома.