Welcome Guest ( Log In | Register )

История благодарностей участнику Хогги ::: Спасибо сказали: 63873 раз(а)
Дата поста: В теме: За сообщение: Спасибо сказали:
Oct 14 2018, 20:39:02 K.F.R - Death March (2014)
Added links by LazarShadow
(2) Borderline1991, varg-38ru,
Aug 19 2018, 12:43:09 Somali Yacht Club - The Sun (2014)
Added links by necroscum
(1) Borderline1991,
Apr 21 2018, 11:27:31 Earth Flight - Riverdragons & Elephant Dreams (2018)


*Artist: Earth Flight
*Album: Riverdragons & Elephant Dreams
*Year: 2018
*Genre: Progressive Rock
*Country: Germany
*Format: mp3@CBR320kbps
*Size: 120MB

Tracklist:
01. Ulysses 1:52
02. Mirai 8:20
03. Harbinger 6:30
04. Sinus 8:51
05. Premonition 5:56
06. Tempter 7:47
07. Bedlam 9:29
******************************
Total playing time: 48:45



[more=Technical info]
Input File: 02. Mirai.mp3
Channels : 2
Sample Rate : 44100
Precision : 16-bit
Duration : 00:08:20.40 = 22067596 samples = 37529.9 CDDA sectors
File Size : 20.1M
Bit Rate : 321k
Sample Encoding: MPEG audio (layer I, II or III)
Comments :
Title=Mirai
Artist=Earth Flight
Album=Riverdragons & Elephant Dreams
Tracknumber=2
Year=2018
Genre=Progressive Rock

[/more]

Register
(11) Black Cat, Diflock, gena, MetalW, Mplast, muskatnuss, skepticist, VALERY, veselchak_u, Yarri, yuratroll,
Mar 4 2018, 17:16:03 Sacriversum - The Shadow Of The Golden Fire (1994)
Added links by RUDACHUR
(1) SyncestrA,
Feb 12 2018, 23:44:42 Stabat Mater - Give Them Pain [compilation] (2016)
Added links by LazarShadow
(3) Fenrirsson, kauyumari, LazarShadow,
Feb 12 2018, 10:56:12 Golgothan Remains - Perverse Offerings To The Void (2018)


*Artist: Golgothan Remains
*Album: Perverse Offerings To The Void
*Year: 2018
*Genre: Death Metal
*Country: Australia
*Format: mp3@CBR320kbps
*Size: 82MB

Tracklist:
01. Vehemence (Through Pain Divine) 4:12
02. From Chaos It Has Come 4:02
03. Vile Blasphemy 2:41
04. Bone From Dust 3:02
05. Phantom Earth 3:29
06. Void 1:23
07. Timeless Eradicator 3:12
08. Looped Depraved Spell 3:32
09. Golgothan Remains 2:42
10. Flagellation (Torrid Tongues) 5:22
******************************
Total playing time: 33:37



[more=Technical info]
Input File: 01. Vehemence (Through Pain Divine).mp3
Channels : 2
Sample Rate : 44100
Precision : 16-bit
Duration : 00:04:12.29 = 11126033 samples = 18921.8 CDDA sectors
File Size : 10.2M
Bit Rate : 323k
Sample Encoding: MPEG audio (layer I, II or III)
Comments :
Title=Vehemence (Through Pain Divine)
Artist=Golgothan Remains
Album=Perverse Offerings to the Void
Tracknumber=1
Year=2018
Genre=Death Metal

[/more]

Register
(36) Amsterdam, An226, andreikun, as71, Beazth, cesar, cryptal, Doooomed, Fenrirsson, Hell_Is_Here, jollo, judaz, kauyumari, Kehl05, metala, metalfanatic666, metaljosue, mirotvorets, MMMMM, necromasochist, Ostinato, Precaria, Purestenchkvlt, ripper33, Rosen, Spork, Spunkynut, Storky, StrixPT, terron, Tino, Torlof, Tyrone, VALERY, varlam4, vyacheslav,
Feb 5 2018, 22:08:28 Angra - ØMNI (2018)
ЦИТАТА(aesteticvice @ Feb 5 2018, 23:59:57) *
Явно транскод crazy.gif

Iced Earth - Incorruptible (2017) [post #2085420] здесь не транскод, а тут транскод. Ты уж определись 1488.gif
(1) vosmidesijatye,
Jan 7 2018, 09:58:46 Cynabare Urne - In The Cremation Ground [ep] (2018)


*Artist: Cynabare Urne
*Album: In The Cremation Ground [ep]
*Year: 2018
*Genre: Death Metal
*Country: Finland
*Format: mp3@CBR320kbps
*Size: 44MB

Tracklist:
1. Conquisitadors of Death 4:33
2. Ereshkigal 3:31
3. Shmashana Sadhana 3:38
4. Martyrs in a Deathless World 5:25
******************************
Total playing time: 17:07



[more=Technical info]
Input File: 01. Conquisitadors of Death.mp3
Channels : 2
Sample Rate : 44100
Precision : 16-bit
Duration : 00:04:32.64 = 12023512 samples = 20448.1 CDDA sectors
File Size : 11.1M
Bit Rate : 327k
Sample Encoding: MPEG audio (layer I, II or III)
Comments :
Title=Conquisitadors of Death
Artist=Cynabare Urne
Album=In the Cremation Ground (EP)
Tracknumber=1
Year=2018
Genre=Death Metal

[/more]

Register
(19) AHBAnep, Borderline1991, cesar, gardenofdemise, Immortality, Infidel, infiltrator, marilin, milosdjor, Mist13Signifier, necromasochist, Ostinato, Pinhead666, Rosen, SymbyoticEntity, Tino, VALERY, varlam4, vyacheslav,
Jan 7 2018, 09:55:59 Cynabare Urne - Fire The Torches [ep] (2016)


*Artist: Cynabare Urne
*Album: Fire The Torches [ep]
*Year: 2016
*Genre: Death Metal
*Country: Finland
*Format: mp3@CBR320kbps
*Size: 18MB

Tracklist:
1. Fire the Torches 3:26
2. Triangle of Essence 3:50
******************************
Total playing time: 7:16



[more=Technical info]
Input File: 01. Fire the Torches.mp3
Channels : 2
Sample Rate : 44100
Precision : 16-bit
Duration : 00:03:25.74 = 9072958 samples = 15430.2 CDDA sectors
File Size : 8.34M
Bit Rate : 324k
Sample Encoding: MPEG audio (layer I, II or III)
Comments :
Title=Fire the Torches
Artist=Cynabare Urne
Album=Fire the Torches (EP)
Tracknumber=1
Year=2016
Genre=Death Metal

[/more]

Register
(18) AHBAnep, Beazth, Borderline1991, cesar, gardenofdemise, infiltrator, marilin, METALHUNTER, milosdjor, Mist13Signifier, necromasochist, Ostinato, Pinhead666, Rosen, SymbyoticEntity, Tino, varlam4, vyacheslav,
Jan 5 2018, 10:09:59 Doomortalis - Splendor... Then Gloominess (2017)


*Artist: Doomortalis
*Album: Splendor... Then Gloominess
*Year: 2017
*Genre: Death/Doom Metal
*Country: Mexico
*Format: mp3@CBR320kbps
*Size: 121MB

Tracklist:
1. Paradise Where Pain Reigns 5:03
2. Shadows and Silence Ceremony 4:49
3. Maze of Immortality 6:00
4. Portal to Gloominess 5:32
5. Doom’s Day Splendor 5:04
6. Dead Magnetism 5:18
7. Doomortalis 5:39
8. Transcendence Into the Final Eclipse 4:28
9. The Pleasures of Immuted Zombies 8:01
******************************
Total playing time: 49:54



[more=Technical info]
Input File: 01. Paradise Where Pain Reigns.mp3
Channels : 2
Sample Rate : 44100
Precision : 16-bit
Duration : 00:05:02.71 = 13349599 samples = 22703.4 CDDA sectors
File Size : 12.2M
Bit Rate : 322k
Sample Encoding: MPEG audio (layer I, II or III)
Comments :
Title=Paradise Where Pain Reigns
Artist=Doomortalis
Album=Splendor... Then Gloominess
Tracknumber=1
Year=2017
Genre=Death/Doom Metal

[/more]

Register
(16) analbleeding, BERZERK, bobo66, cesar, cryptal, cuimit1349, Doooomed, marilin, metala, Rosen, RUDACHUR, Sanc, THROWER666, VALERY, varlam4, vyacheslav,
Jan 1 2018, 20:43:33 Главная страница
ЦИТАТА(Arashi @ Jan 1 2018, 22:09:09) *
На обычном 23" 1920х1080 всё смотрелось со старыми шрифтами дико мелко.

Обычный 24" 1920х1080 все смотрелось зашибись 13.gif
(5) Deze, Igor Filth, infiltrator, MeatWolf, Абигор,
Dec 15 2017, 16:58:13 Evilfeast - Elegies Of The Stellar Wind (2017)


*Artist: Evilfeast
*Album: Elegies Of The Stellar Wind
*Year: 2017
*Genre: Atmospheric Black Metal
*Country: Poland
*Format: mp3@CBR320kbps
*Size: 166MB

Tracklist:
1. The Second Baptism... Shores in Fire and Ice 12:14
2. Winter Descent's Eve... I Become the Journey 8:18
3. Lunar Rites... Beholding the Towers of Barad-Dur 12:40
4. From the Northern Wallachian Forest... Tyranny Returns 9:47
5. Archaic Magic... A Cenotaph Below the Cursed Moon 9:21
6. Inclinata Resurgit... Rebirth of My Noble Dark Kingdom 15:04
******************************
Total playing time: 1:07:24



[more=Technical info]
Input File: 02. Winter Descent's Eve... I Become the Journey.mp3
Channels : 2
Sample Rate : 44100
Precision : 16-bit
Duration : 00:08:18.13 = 21967357 samples = 37359.5 CDDA sectors
File Size : 20.6M
Bit Rate : 331k
Sample Encoding: MPEG audio (layer I, II or III)
Comments :
Title=Winter Descent's Eve... I Become the Journey
Artist=Evilfeast
Album=Elegies of the Stellar Wind
Tracknumber=2
Year=2017
Genre=Atmospheric Black Metal

[/more]

Register
(117) 1968_janeart, 666days, 99ea, acerbus, andivi, Andrew, Black Cat, Blut aus Nord, Boozer, Borderline1991, corer, cryptal, deadterror, demonosz, djsema4, doomTemplar, Doooomed, Emhyr var Emreis, Evilded, Evjenne, featb, Femto, Fess, Filosofem91, garml2, garmonbozia, GAS, gav-gafi, gena, Golodomor, HA7tur, Ildjarn, Indamage, Infidel, judaz, Jurmagund, Kazoth, kim666, kimkayoung, Korpse, Lamby90, LEGION69, lestllk, lordbathor, lucifix, Ludwig Hagen, maochen, metalfanatic666, metaljinie, MMMMM, Moonshtook, MortSathynr, NachtWulf, Narasimha, necromasochist, Nerevar, neurogrim, Noxius, nsk2008, nygga, Occultas, Old Vyaine, Orkkh, Orphan, Ostinato, peppuzzo, princeshr, QuadenThyrane, RADeus, Reverend, rom666, Rosen, RUDACHUR, RUSP73, Samogon, satanist666, Scuns, ShmiT, SilentNidhogg, simonalacacarisa, simvolist777, Skog1349, Skrilava, smes, smysl, Spunkynut, StabWound, stone88, suseka, svartalf, talismanFS, TeamatSE, thenecromancer, thrashes, Thunderbird, Tino, toly1917, trabantfan, Tular, Unscarted, VALERY, varg-38ru, varlam4, vasiljev_sergej, VECTOR, Victim of fate, Vidder242, vovenom, Wolfera, wolverine, Xor, xska, ZA670, ZambuL, zargonath, Zenial, Например,
Dec 15 2017, 13:17:12 Tristitia - Lamentations From The Beginning [compilation] (2017)


*Artist: Tristitia
*Album: Lamentations From The Beginning [compilation]
*Year: 2017
*Genre: Doom Metal
*Country: Sweden
*Format: mp3@CBR320kbps
*Size: 135MB

Tracklist:
1. Dancing Souls 4:38
2. Burn the Witch 2:08
3. Winds of Sacrifice 5:21
4. The Other Side 3:24
5. Envy the Dead 5:17
6. Reminiscences of the Mourner 7:45
7. Ashes of the Witch 5:30
8. Mark My Words 6:39
9. Doomdaze 4:22
10. River of the Cross 3:58
11. Winds of Sacrifice (2016) 4:30
******************************
Total playing time: 53:32

Preview 1

[more=Technical info]
Input File: 06. Reminiscences of the Mourner.mp3
Channels : 2
Sample Rate : 44100
Precision : 16-bit
Duration : 00:07:45.00 = 20506500 samples = 34875 CDDA sectors
File Size : 19.2M
Bit Rate : 331k
Sample Encoding: MPEG audio (layer I, II or III)
Comments :
Title=Reminiscences of the Mourner
Artist=Tristitia
Album=Lamentations From the Beginning (Compilation)
Tracknumber=6
Year=2017
Genre=Doom Metal

[/more]

Register
(24) doomTemplar, dulak, EvilSurround, Hairad, Hell_Is_Here, infozahist, kimkayoung, Lux, marilin, MAYH, Mogozoz, Ostinato, paganheart, popen13, Rosen, russ777, StoneTemple, stub888, thenecromancer, VALERY, varg-38ru, varlam4, vasilisk, Zenial,
Dec 15 2017, 11:27:32 Bunkur & Mordor - Split [split] (2017)


*Artist: Bunkur & Mordor
*Album: Split [split]
*Year: 2017
*Genre: Drone Doom Metal | Industrial Doom Metal
*Country: Netherlands | Switzerland
*Format: mp3@CBR320kbps
*Size: 93MB

Tracklist:
Bunkur:
1. The Subhuman (Carnivore Cover) 21:01
Mordor:
2. In League With Wotan (Venom Cover) 16:33
******************************
Total playing time: 37:34



[more=Technical info]
Input File: 02. Mordor - In League With Wotan.mp3
Channels : 2
Sample Rate : 44100
Precision : 16-bit
Duration : 00:16:33.64 = 43819392 samples = 74522.8 CDDA sectors
File Size : 40.8M
Bit Rate : 329k
Sample Encoding: MPEG audio (layer I, II or III)
Comments :
Title=In League With Wotan
Artist=Mordor
Album=Split
Tracknumber=2
Year=2017
Genre=Doom Metal

[/more]

Register
(22) Boozer, Cruor, Doooomed, FUDEDOR, gena, Hell_Is_Here, kefka, Lanceatum, marilin, Mist13Signifier, nadin85, necromasochist, Orphan, Ostinato, Panacea, Rosen, Sickrites, stub888, thenecromancer, the_cleanser, varlam4, wtk.412,
Nov 23 2017, 20:45:33 Holy Hell - Kill Jesus [demo] (1989)
Added links by Proteus_666
(1) kauyumari,
Nov 7 2017, 09:31:36 Anatomia - Cranial Obsession (2017)


*Artist: Anatomia
*Album: Cranial Obsession
*Year: 2017
*Genre: Death/Doom Metal
*Country: Japan
*Format: mp3@CBR320kbps
*Size: 167MB

Tracklist:
1. Necrotic Incision 4:25
2. Fiend 3:10
3. Vanishment 11:44
4. Morbid Hallucination 5:30
5. Excarnated 9:37
6. Uncanny Descension 8:02
7. Abysmal Decay 15:27
8. Recurrence 10:38
******************************
Total playing time: 1:08:33



[more=Technical info]
Input File: 01. Necrotic Incision.mp3
Channels : 2
Sample Rate : 44100
Precision : 16-bit
Duration : 00:04:24.65 = 11670977 samples = 19848.6 CDDA sectors
File Size : 10.7M
Bit Rate : 324k
Sample Encoding: MPEG audio (layer I, II or III)
Comments :
Title=Necrotic Incision
Artist=Anatomia
Album=Cranial Obsession
Tracknumber=1
Year=2017
Genre=Death/Doom Metal

[/more]

Register
(47) Ainar, analbleeding, andreikun, as71, BERZERK, Borderline1991, Buregon, cesar, Demonologist, Doooomed, FUDEDOR, Grimwight, Hell_Is_Here, jpvalentim, kauyumari, kefka, killingod, LEGION69, Lux, Maximvs, MeathookSeed, metalboll, milosdjor, Mist13Signifier, mizantrophist, MMMMM, morbidangelo, nadin85, necromasochist, Noobsaibot71, Ostinato, ripper33, Rosen, Sanc, SatanicPanzer, smysl, sperminator, Spunkynut, StoneTemple, THROWER666, Tino, Tyrone, VALERY, varlam4, vyacheslav, wtk.412, zotyo1975,
Oct 29 2017, 14:11:11 Profetus - Coronation Of The Black Sun (2009)
Added links by RUDACHUR
(2) marilin, thenecromancer,
Sep 29 2017, 20:27:26 Sathamel - Sathamel [ep] (2015)
Added links by rom666
(1) rom666,
Sep 15 2017, 17:18:03 Caronte - Yoni (2017)
ЦИТАТА(aesteticvice @ Sep 15 2017, 19:16:01) *
основной рифф тут конкретный и четкий

Хорошее описание стонера
(1) Black Cat,
Sep 15 2017, 17:02:13 Caronte - Yoni (2017)
ЦИТАТА(aesteticvice @ Sep 15 2017, 16:42:36) *
вот классический стонер дум
[youtube]UsHtMCs6Lww[/youtube]

Эм, нет. Вообще ни разу bye.gif
(3) Black Cat, vosmidesijatye, Wise.man,
Sep 10 2017, 21:21:19 Immortal & Throne Of Ahaz & Crematory - Funeral Cult Rehearsals [bootleg] (2011)
Added links by Proteus_666
(1) Ostinato,
Sep 9 2017, 15:22:02 Assesor - Assesor [demo] (1989)
Added links by slack
(1) thenecromancer,
Aug 5 2017, 11:13:24 Under Threat - The Prison Within (2017)


*Artist: Under Threat
*Album: The Prison Within
*Year: 2017
*Genre: Melodic Death Metal
*Country: Colombia
*Format: mp3@CBR320kbps
*Size: 130MB

Tracklist:
1. A.I. Aftermath 02:42
2. A New Myth 05:39
3. The Delusionals (In the Name of Faith) 07:22
4. A Marionette's Lament 05:13
5. Terror Management Theory 06:11
6. The Clymb of Sisyphus 05:21
7. Empire of Ashes 05:13
8. The Prison Within 05:11
9. The Existencialist 05:27
10. Dawn of Reason 03:02
******************************
Total playing time: 51:21




[more=Technical info]
Input File: 02. A New Myth.mp3
Channels : 2
Sample Rate : 44100
Precision : 16-bit
Duration : 00:05:38.61 = 14932569 samples = 25395.5 CDDA sectors
File Size : 14.2M
Bit Rate : 335k
Sample Encoding: MPEG audio (layer I, II or III)
Comments :
Title=A New Myth
Artist=Under Threat
Album=The Prison Within
Tracknumber=2
Year=2017
Genre=Melodic Death Metal

[/more]

Register
(21) AHBAnep, Buregon, DarkHorde, DenisKov, Farung, light, MeatWolf, METALHUNTER, Mogozoz, Mplast, Phlebotomized, Rodriga, Rosen, SymbyoticEntity, valafar, VALERY, varlam4, Vovannn, wanderer73, Xaradonth, Нигилист,
Aug 2 2017, 16:55:14 Candlemass - Ancient Dreams (1988)
ЦИТАТА(Lux @ Aug 2 2017, 18:44:41) *
что Лейф не любит из-за звука как раз таки сабж...

Да он и некоторые треки не особо то долюбливает.

(1) Lux,
Jul 26 2017, 11:45:19 Endless River - Sundered Time (2016)


*Artist: Endless River
*Album: Sundered Time
*Year: 2016
*Genre: Progressive Death Metal
*Country: Hungary
*Format: mp3@CBR320kbps
*Size: 85MB

Tracklist:
1. Every Drop of Blood in Me 5:47
2. What We Deserve 5:30
3. Midwife of New Hope 7:17
4. End of All Days 3:38
5. Ordinary Day 6:23
6. Awakening 5:48
******************************
Total playing time: 34:23



[more=Technical info]
Input File: 01. Every Drop of Blood in Me.mp3
Channels : 2
Sample Rate : 44100
Precision : 16-bit
Duration : 00:05:46.92 = 15298952 samples = 26018.6 CDDA sectors
File Size : 14.2M
Bit Rate : 327k
Sample Encoding: MPEG audio (layer I, II or III)
Comments :
Title=Every Drop of Blood in Me
Artist=Endless River
Album=Sundered Time
Tracknumber=1
Year=2016
Genre=Progressive Death Metal

[/more]

Register
(18) AHBAnep, andreikun, Badmutherfucker, Buregon, Evilded, Forest, Geralder, Hallelucination, kimkayoung, metala, MMMMM, Ostinato, Rosen, SymbyoticEntity, VALERY, vyacheslav, wreak, yuratroll,

120 Pages V   1 2 3 > » 
- Lo-Fi Version Support form
Copyrights and abuse reports form
Time is now: 16th July 2019 - 03:05:25