Welcome Guest ( Log In | Register )

История благодарностей участнику Galactus ::: Спасибо сказали: 621 раз(а)
Дата поста: В теме: За сообщение: Спасибо сказали:
Feb 28 2018, 11:22:33 Группа Death и последователи Чака
Интервью с Чаком (перевод на русском):
[youtube]3S63-69VDhk[/youtube]
[youtube]SNXK0F5kllw[/youtube]
[youtube]LxLzYpGOkkU[/youtube]
[youtube]Ixojjdvl4mw[/youtube]
[youtube]9vQOitaOM80[/youtube]
(2) raritetum, Язва,
Jun 25 2017, 12:31:39 Psychedelic Occult Doom / Blues / Rock / Heavy Psych / Acid Rock / 60`s & 70`s Worshipping...
Просто чудесный ансамбль WINDHAND pray.gif pray.gif pray.gif

[youtube]41PSZRxcOSs[/youtube]
[youtube]ziZ9w5OiyKo[/youtube]
(1) avkruchinin,
Jun 25 2016, 15:06:56 Morbid Angel - Altars Of Madness (1989)
Так называемый "Fan Art" 15.gif


(2) Aresson, infiltrator,
Feb 28 2016, 14:15:49 Electric Wizard - Live At Hellfest 2014 (Pro-shot HD Video)


ELECTRIC WIZARD - Live At Hellfest 2014 June 20th, France, Clisson
Setlist:
Supercoven
Satanic Rites of Drugula
Dopethrone
Witchcult Today
Black Mass
Return Trip
The Chosen Few
Funeralopolis

Video: MPEG-4, 1920*1080, 25 fps, 6000 Kbps
Audio: AAC, 44.1 KHz, Stereo, 152 Kbps
Duration: 01:12:45
Size: 3.12 GB
Register
(3) El_Chibo, Rosen, vosmidesijatye,
Jan 9 2016, 12:52:49 Carnivore - Sex And Violence / Race War - Live at Wacken 2006 (Video)


Video: MPEG (Pal), 720*576 (16:9), 25 fps, 4027 Kbps
Audio 1: AC-3, 48.0 KHz, Stereo, 448 Kbps
Audio 2: AC-3, 48.0 KHz, 6 channels, 448 Kbps

Length: 11:35
Size: 417 Mb

Register
(2) fabriziomagno, Rosen,
Dec 6 2015, 08:25:16 Babymetal - Legend 2015 - New Year Fox Festival (Live at Saitama Super Arena, January 10, 2015)




Babymetal - Legend "2015" - New Year Fox Festival (Live at Saitama Super Arena, January 10, 2015)
01. Megitsune (メギツネ)
02. Iine! (いいね!)
03. Awadama Fever (あわだまフィーバー)
04. Akatsuki (紅月-アカツキ-)
05. Onedari Daisakusen (おねだり大作戦)
06. Catch Me If You Can
07. Uki Uki ★ Midnight (ウ・キ・ウ・キ★ミッドナイト)
08. Song 4 (4の歌)
09. Mischiefs of metal gods -KAMI Band Instrumental-
10. Rondo of Nightmare (悪夢の輪舞曲)
11. Headbangeeeeerrrrr!!! (ヘドバンギャー!!)
12. Gimme Chocolate!! (ギミチョコ!!)
13. Ijime, Dame, Zettai (イジメ、ダメ、ゼッタイ)
14. BABYMETAL DEATH
15. Doki Doki ☆ Morning (ド・キ・ド・キ☆モーニング)
16. Road of Resistance

Total time 1:29:02

mp3 320kbps, size 203 MB
Register
(1) satyro1980,
Nov 1 2015, 23:45:50 Electric Wizard


Шварц и Медвед дичайше котируют "Dopethrone" например.
(1) Lucifer,
May 10 2015, 18:40:59 Anthrax
[youtube]H_6fI2vxW8M[/youtube]

Новая вещь, например. 20.gif
(1) Emm Human,
May 2 2015, 07:29:35 Riff Action Family - Crocodile (2015)


*Artist: Riff Action Family
*Album: Crocodile
*Year: 2015
*Genre: Stoner/Groove Metal
*Country: Russian Federation
*Format: mp3@CBR320kbps
*Size: 88MB

Tracklist:
01. Get Down
02. Barbara
03. Prick
04. Abbadon
05. Shake The Bones
06. Fatman
07. WAR
08. See You In Hell
09. Bill
******************************
Total playing time: 38:33



[more=Technical info]
Input File: 01 - Get Down.mp3
Channels : 2
Sample Rate : 44100
Precision : 16-bit
Duration : 00:03:16.57 = 8668561 samples = 14742.5 CDDA sectors
File Size : 7.86M
Bit Rate : 320k
Sample Encoding: MPEG audio (layer I, II or III)
Comments :
Title=Get Down
Artist=Riff Action Family
Album=Crocodile
Tracknumber=1
Year=2015

[/more]

Register
(7) marilin, Rosen, snot, StabWound, Unkle Jonny, VALERY, wreak,
Apr 9 2015, 21:29:28 Acid King - Middle Of Nowhere, Center Of Everywhere (2015)
Долгих 10 лет ждали с прошлого альбома. Сижу слушаю, сознание уже где-то в космосе. 28.gif
(1) vosmidesijatye,
Feb 22 2015, 13:02:55 BabyMetal - Babymetal (2014)









with Bill Steer (Carcass)


with Jeff Walker (Carcass) 15.gif
(3) clublen, Genuine Thrashiac, vosmidesijatye,
Feb 8 2015, 10:56:20 Electric Wizard
[youtube]dtYZ0g0JoAc[/youtube]
Атлична!-атлична! например. banana.gif
(3) Shub, Tular, Wolfera,
Jan 31 2015, 20:58:03 Dublin Death Patrol - Death Sentence (2012)
10. Butcher Baby - Plasmatics cover genius.gif
[youtube]Q2eynNh5xHM[/youtube]
(1) Genuine Thrashiac,
Jan 28 2015, 22:26:01 2Cellos - Celloverse (2015)
2CELLOS - Thunderstruck (AC/DC) - клип угарный! banana.gif
[youtube]uT3SBzmDxGk[/youtube]

Эти каверы тоже доставили:
2CELLOS - Highway To Hell feat. Steve Vai
[youtube]qfGggAGITwg[/youtube]

2CELLOS - Back in Black
[youtube]30acNwXJNts[/youtube]

2CELLOS - Smells Like Teen Spirit
[youtube]jS826PwLHdQ[/youtube]
(2) Black Cat, Metropolis,
Jan 7 2015, 15:59:03 Blues Pills - Live at Hammer of Doom Festival 2013 (DVD)




Tracklist:
01. Bliss
02. Dig In
03. Devil Man
04. Little Sun
05. Mind Exit
06. Astralplane
07. Black Smoke
+ Interview

Total time: 0:50:05
Size: 2.9 GB
Video: PAL 16:9 (720x576), 8 300 Kbps, 25.000 fps
Audio: LinearPCM, 1 536 Kbps, 48.0 KHz, 2 ch

Стиль так указан на http://www.nuclearblast.de smile1.gif

Register
(1) fragment,
Nov 2 2014, 10:28:46 Rabies Caste - Rabies Caste (2006)
Био:
В конце 1994 года русские иммигранты в Тель-Авиве (Израиль), скрывающиеся под псевдонимами Dale Rabid (барабаны/вокал) и Dave K (гитара), основали нойзкор-группу To Kill Mother, позже переименованную в Cradle Noise. Тогда же они записали демку из трёх трэков. Осенью 1995 года к группе присоединился басист Russell Bear, команда сменила название на Rabies Caste и стала играть более проДУМанную музыку в стиле Melvins. Их первый концерт, запланированный на 11 ноября, был отменён из-за убийства премьер-министра.

Летом 1996 года Rabies Caste записали 10-трэковое демо "Self Portrait of the Madness". Запись как таковая заняла всего два часа студийного времени и прошла 4 июля. Как явствует с их официального вэбсайта, этот "альбом" демонстрирует heavy-as-fuck (оставляю без перевода) хардкор/гранджевые корни группы. В сентябре группа засела в студии для записи нового трэка "Mouthwash", однако человек, который занимался сведением материала, их кинул. В общем, Rabies Caste начали работать над новым материалом, который оказался более металлическим и замедленным, чем ранее. Летом 1997 года группа записывала EP "Children Can Fall into Bucket and Drown" в полуподвальных условиях при невыносимой жаре. Тогда Dale Rabid решил больше не петь и ограничиться лишь драммингом. Группа распространяла своё EP на концертах в кассетном формате, и надо сказать, данная запись до сих пор не переиздавалась.

В начале 1998 года команда работала над материалом для своего первого альбома: из 35 записанных трэков были отобраны лишь 6. За две недели до записи альбома к группе присоединился гитарист Pigface Kazzz (экс-Ausweis), принявший участие в записи 4 трэков на альбоме. Альбом получил название "For the Vomiting Tractor Drivers", был растиражирован в количестве 260 штук и разослан журналам и лэйблам. Что же касается Pigface Kazzz, то он покинул группу сразу после их первого выступления. Спустя год американский лэйбл Infernal Racket Records выпустил в продажу альбом "For the Vomiting Tractor Drivers".

В начале 2000 года Rabies Caste выступали на разогреве у ливерпульцев dBh, после чего последовали концерты с Freebase. Примерно в это время команда арендовала студию Southern Studio в Лондоне для записи очередного полноформатника с продюсером Харви Бирелом. С ноября 2000 по май 2001 года группа записывала альбом, получивший название "Let the Soul out and Cut the Vein". Rabies Caste подписали контракт с Earache Records на выпуск альбома, после чего проехались в турне с Charger. Дата европейского релиза альбома - 28 августа 2001 года, американского - 2 октября. На песню "Got It from Blake" также снят видеоклип, который естественно нельзя было показывать по ТВ, и поэтому его выложили на официальный сайт Rabies Caste, но и там его запретил Internet Service Provider. В различных журналах "Let the Soul out..." получил достаточно высокие оценки: Terrorizer - 8/10, Metal Hammer - 7/10, Kerrang - 4/5 и т.д.

В поддержку альбома группа отправилась в продолжительное турне по Европе, длившееся более полугода, в компании с Dillinger Escape Plan, Biohazard, Nasum, Candiria и Earthtone9. В ноябре 2001 года Rabies Caste впервые за два года выступили хэдлайнерами на концерте в Израиле. Однако по техническим причинам были отменены выступления в Нью-Джерси и на фестивале Milwaukee Metalfest. В середине 2002 года Russell ненадолго покинул группу, в это время его заменял Ram_R из нью-йоркской грайндкор команды bARBARA. Вплоть до настоящего времени Rabies Caste занимались концертной деятельностью. (с) neformat.com.ua


Register



2001 - "Let the Soul out and Cut the Vein"
Register
(2) denver, marilin,
Nov 2 2014, 10:24:07 Rabies Caste - For The Vomiting Tractor Drivers (1998)


Register
(2) denver, marilin,
Oct 19 2014, 07:28:09 Hermano - One For The Road (2002)
Kambou, сам выдумал название альбома? Правильное "...Only A Suggestion", даже на обложке видно.
http://www.discogs.com/Hermano--Only-A-Sug...ion/master/8330
Это же классика жанра, вокал John Garcia pray.gif (Kyuss, Slo Burn, Unida, Vista Chino).
(1) crackedbrain,
Sep 21 2014, 15:40:50 Demonauta - Vol. I (2012)
Demonauta - Vol. I (2011)
mp3@CBR 320kbps, 81MB
Register

Альбом вышел 31 декбря 2011 года.
(2) MEmethuselah, varlam4,
Sep 21 2014, 15:08:56 Demonauta - Caminando En La Luna (2012)


*Artist: Demonauta
*Album: Caminando En La Luna
*Year: 2012
*Genre: Stoner Metal
*Country: Chile
*Format: mp3@CBR320kbps
*Size: 92MB

Tracklist:
01. Hotel
02. Hacia el 6to Sol
03. Caminando en la Luna
04. Mr. Magnet
05. Al Viento Entender
06. Camaleon
07. El Refugio
08. Kom-v
09. Seamos Libres
******************************
Total playing time: 39:59



[more=Extended info][youtube]hbbdqoGnHEc[/youtube][/more]

[more=Technical info]
Input File: 05. Al Viento Entender.mp3
Channels : 2
Sample Rate : 44100
Precision : 16-bit
Duration : 00:03:51.73 = 10219469 samples = 17380 CDDA sectors
File Size : 9.27M
Bit Rate : 320k
Sample Encoding: MPEG audio (layer I, II or III)
Comments :
Title=Al Viento Entender
Artist=Demonauta
Album=Caminando en la Luna
Tracknumber=5
Year=2012
Genre=93

[/more]

Register
(7) marilin, MEmethuselah, Rosen, Sabbathian, SatanicPanzer, VALERY, varlam4,
Sep 14 2014, 12:07:23 Sortilège - Métamorphose [reissued 1997] (1984)




French version, MP3, 320kbps:
Register
(4) eyes0re, fragment, metalboll, Typhoid,
Sep 7 2014, 13:44:59 Electric Wizard
Electric Wizard - live at Roskilde Festival 2014 July 3th
[youtube]4xOhzeaZk58[/youtube]
[youtube]EU0TUR-o6gE[/youtube]
Отличное видео например!
(3) Black Cat, Rotten Goat, vosmidesijatye,
Jul 20 2014, 09:36:23 Blues Pills - Blues Pills (2014)
[youtube]0HwPtLgJGg8[/youtube]

Великолепно! У девушки вокал супер.
(3) Black Cat, denver, Элиар,
May 2 2014, 17:57:04 Lowrider - Ode To Io (2000)


CD-rip mp3 320kbps
Register
(5) abob, crackedbrain, helvetestoner, marilin, trifixon,
Apr 29 2014, 21:04:39 Salem's Pot - ...Lurar Ut Dig På Prärien (2014)
По-моему, отличный бэнд, всё по канонам жанра. Любителям E.W. дико ценить.
(1) vosmidesijatye,

10 Pages V   1 2 3 > » 
- Lo-Fi Version Support form
Copyrights and abuse reports form
Time is now: 23rd August 2019 - 20:33:08