Welcome Guest ( Log In | Register )

История благодарностей участнику AskeFjell ::: Спасибо сказали: 1511 раз(а)
Дата поста: В теме: За сообщение: Спасибо сказали:
Dec 23 2016, 12:02:08 Obfuscation - A Document Of Dysphoria (1992-1995) [best of/compilation] (2016)


*Artist: Obfuscation
*Album: A Document Of Dysphoria (1992-1995) [best of/compilation]
*Year: 2016
*Genre: Death Metal/Grindcore
*Country: Finland
*Format: mp3@CBR320kbps
*Size: 157MB

Tracklist:
1. Enjoy
2. Swansong
3. Dreamtime Over
4. Values
5. Obfuscation
6. Manifest
7. Deborn
8. Dreamtime Over
9. The Curse
10. Sanity Prison
11. Disorder
12. Childhood's End
13. Blissful
14. In Democracy (Of Ignorance)
15. Sanctus
16. An Imaginary Conversation
17. Greed
18. Obfuscation
19. Enjoy
20. Values
21. Swansong
22. Stalemate ( Napalm Death cover)
******************************
Total playing time: 1:09:16

[more=Technical info]
Input File: Obfuscation - 01 - Enjoy.mp3
Channels : 2
Sample Rate : 44100
Precision : 16-bit
Duration : 00:03:15.76 = 8633192 samples = 14682.3 CDDA sectors
File Size : 7.83M
Bit Rate : 320k
Sample Encoding: MPEG audio (layer I, II or III)
Comments :
Title=Enjoy
Artist=Obfuscation
Album=A Document of Dysphoria (1992-1995)
Tracknumber=1/22
Year=2016
Genre=Death Metal

[/more]

Register
(16) andreikun, Boozer, Evilded, FUDEDOR, lawronchik, morbidangelo, Ostinato, repulssion, Rosen, satanist666, sperminator, thenecromancer, Tino, varlam4, vyacheslav, wgs73,
Sep 18 2016, 10:45:32 Devotion - Necrophiliac Cults (2016)


*Artist: Devotion
*Album: Necrophiliac Cults
*Year: 2016
*Genre: Death Metal
*Country: Spain
*Format: mp3@VBR297kbps
*Size: 78MB

Tracklist:
1. The Grand Miscarriage 01:12
2. World Made Flesh 05:31
3. Abused the Herd 05:38
4. We, the Fallen 04:59
5. Thrones of Elders 04:45
6. Beneath the Aonian Mount 02:13
7. Risen Ghouls 03:48
8. Hierarchy of Worms 04:30
9. Pandemonium 04:43
10. Brooding the Vast Abyss 02:01
******************************
Total playing time: 39:20



Register
(33) AHBAnep, An225, andgrek28, andreikun, Buregon, cuimit1349, Darkthronefoad, Hammaren, Hell_Is_Here, Indamage, infiltrator, jollo, judaz, Kehl05, KVRT, metala, Metalass, Mist13Signifier, MMMMM, oldvarg, Ostinato, rom666, Rosen, satanist666, sperminator, TeamatSE, Tino, VALERY, varlam4, vosmidesijatye, vov7609, vyacheslav, wgs73,
Sep 16 2016, 11:42:24 Wombbath & Departed Souls - Embracing The Cold... [split] (2016)


*Artist: Wombbath & Departed Souls
*Album: Embracing The Cold... [split]
*Year: 2016
*Genre: Death Metal | Death Metal
*Country: Sweden | Netherlands
*Format: mp3@VBR297kbps
*Size: 37MB

Tracklist:
1. Wombbath - Embrace Death 04:26
2. Departed Souls - Cold Deep Waters 04:04
3. Wombbath - Punisher of Broken Oaths 04:36
4. Departed Souls - Fear... Pin Head (remix) 03:02
5. Departed Souls - Cold Deep Waters (live) 04:22
******************************
Total playing time: 20:30

Preview 1

Register
(23) AHBAnep, ALEXSATHANAS, Anhra Mainyu, Darkthronefoad, desekrator, Evgundel, Hell_Is_Here, marilin, MeathookSeed, MetallWarriorRus, Mist13Signifier, morbidangelo, Ostinato, potap03020100, Rosen, RUSP73, SKuzmin, SymbyoticEntity, Tino, VALERY, vyacheslav, wtk.412, Zenial,
Aug 12 2016, 13:04:37 Incantation - Unholy Massacre [best of/compilation] (2016)


*Artist: Incantation
*Album: Unholy Massacre [best of/compilation]
*Year: 2016
*Genre: Death Metal
*Country: United States
*Format: mp3@CBR320kbps
*Size: 299MB

Tracklist:
Disc 1
1. Profanation
2. Devoured Death
3. Entrantment of Evil
4. Eternal Torture
5. Unholy Massacre
6. Profanation
7. Unholy Massacre
8. Third of the Storms
9. Entrantment of Evil
10. Eternal Torture
11. Third of the Storms
12. Profanation
13. Unholy Massacre
14. Third of the Storms/Profanation
Disc 2
1. Blasphemous Cremation
2. Christening the Afterbirth
3. Unholy Massacre
4. Emaciated Holy Figure
5. Deliverance of Horrific Prophecies
6. Blasphemous Cremation
7. Blissful Bloodshower
8. Rotting Spiritual Embodiment
9. Immortal Cessation
10. Devoured Death
11. Rotting Spiritual Embodiment
12. Entrantment of Evil
13. Christening the Afterbirth
14. Profanation
15. Devoured Death
16. Blasphemous Cremation
17. Eternal Torture
******************************
Total playing time: 2:12:08

[more=Extended info]Disc 1 : Contains the original mix of "Demo # 1 - 1990 " featuring Will Rahmer from Mortician on vocals and a live soundboard recording with Will on vocals, which was recorded in Buffalo,NY, in late 1990. This CD also features the 1st live recording with members of Profanatica from early 1990. Also included is the 1st rehearsal demo of Incantation with Paul Ledney on vocals in its uncut format.

Disc 2 : Contains an unreleased 2 song demo from 1990 with Craig Pillard on vocals and a live soundboard from New Jersey. as well as previously unreleased pre- "Onward to Golgotha" line up rehearsals from early 1991.[/more]

[more=Technical info]
Input File: Incantation - 01 - Profanation.mp3
Channels : 2
Sample Rate : 44100
Precision : 16-bit
Duration : 00:04:59.71 = 13216991 samples = 22477.9 CDDA sectors
File Size : 12.0M
Bit Rate : 320k
Sample Encoding: MPEG audio (layer I, II or III)
Comments :
Title=Profanation
Artist=Incantation
Album=Unholy Massacre (Disc 1)
Tracknumber=1/14
Year=2016
Genre=Death Metal[/more]
Register
(41) AlexRotten, andrey010577, BeerBear, cesar, Chasm, Corpse_Of_The_Christ, dad, Evilded, Exxie, Fenrirsson, FUDEDOR, Golfzilla, igore2911, infiltrator, jpvalentim, killingod, kolar666, metalfanatic666, MetallWarriorRus, milosdjor, Mist13Signifier, morbidangelo, Necroeire, Ostinato, Pinhead666, princeshr, respect, rom666, Rosen, RUSP73, SatanicPanzer, SKuzmin, Tino, VALERY, varlam4, Vlosinssrigg, Wolfera, wtk.412, zotyo1975, Варонъ, Герб,
Aug 12 2016, 12:10:05 Sarcastic Terror - The Last Act Of Subsidence [best of/compilation] (2016)


*Artist: Sarcastic Terror
*Album: The Last Act Of Subsidence [best of/compilation]
*Year: 2016
*Genre: Death Metal
*Country: Greece
*Format: mp3@CBR320kbps
*Size: 101MB

Tracklist:
1. Intro
2. Putrescence
3. The Last Act of Subsidence
4. Infernal Hatred
5. Intro (deadly version)
6. Putrescence (deadly version)
7. The Last Act of Subsidence (deadly version)
8. Intro
9. Enchained
10. Encefalomalacia
11. Mind Spinning
12. Putrescence
13. Earslaughter
14. Fallen Life
15. Outro
16. Abuse
17. Deranged Remnants
******************************
Total playing time: 48:31

[more=Technical info]
Input File: Sarcastic Terror - 01 - Intro.mp3
Channels : 2
Sample Rate : 44100
Precision : 16-bit
Duration : 00:01:01.36 = 2706152 samples = 4602.3 CDDA sectors
File Size : 2.45M
Bit Rate : 320k
Sample Encoding: MPEG audio (layer I, II or III)
Comments :
Title=Intro
Artist=Sarcastic Terror
Album=The Last Act of Subsidence
Tracknumber=1/17
Year=2016
Genre=Death Metal

[/more]

Register
(15) andreikun, Darkthronefoad, Evilded, Exxie, Gylve, infiltrator, komhs, morbidangelo, Ostinato, Rosen, Stringer, Tino, troll_swamp, VALERY, varlam4,
Jul 10 2016, 10:18:00 Voidkush - Stay Close To The Fire (2016)


*Artist: Voidkush
*Album: Stay Close To The Fire
*Year: 2016
*Genre: Death/Black/Doom Metal
*Country: Spain
*Format: mp3@VBR291kbps
*Size: 72MB

Tracklist:
1. Marching to the Void 02:06
2. Stay Close to the Fire 04:39
3. Isolated Soul 03:55
4. Botxins 03:38
5. Evil Madness 03:54
6. Under a Dense Haze 01:16
7. Through the Shadows I Come 03:56
8. Ophis Defied the Gods 03:13
9. Into the Voidkush 03:51
10. Inheritance 03:43
11. Petrified 04:04
******************************
Total playing time: 38:15



Register
(15) Buregon, DarkHorde, Darkthronefoad, Kehl05, marilin, metala, Ostinato, Rosen, Sabbathian, Tino, VALERY, varg-38ru, varlam4, vyacheslav, wreak,
May 29 2016, 11:20:53 Eructation - The Fumes Of Putrefaction (1992-1995) [compilation] (2016)


*Artist: Eructation
*Album: The Fumes Of Putrefaction (1992-1995) [compilation]
*Year: 2016
*Genre: Death Metal
*Country: Sweden
*Format: mp3@VBR294kbps
*Size: 75MB

Tracklist:
1. Day of Confusion 06:00
2. Foul Feast 02:57
3. Consider to Die 03:49
4. Failed Humankind 04:02
5. Ancient Fall 04:08
6. Day of Confusion (1994 version) 04:48
7. Sworn in Blood 04:18
8. M.C. 01:58
9. Sadistic Mind 03:49
10. Invincible Dream 04:35
******************************
Total playing time: 40:24

[more=Extended info]-Tracks 1-3 taken from "Demo #1" (1992).
-Tracks 4-8 taken from a late 1993 recording session (meant to be out in 1994 as an EP that unfortunately never got to see the light of day).
-Tracks 9-10 taken from the last recording session in 1995.[/more]

Register
(31) AHBAnep, andreikun, Asle, Darkthronefoad, enslaver, Evilded, Exxie, infiltrator, magikart, Mist13Signifier, Moonshtook, morbidangelo, neoatheist, Ostinato, Proteus_666, Rosen, RUSP73, Sickrites, skeletron215, snake, sperminator, Stringer, SymbyoticEntity, Tino, varlam4, Velmi, vyacheslav, Waste_burst, wgs73, zdcaixao, Герб,
May 29 2016, 11:08:38 Eructation 2016
Yes, I will upload for you true_black.gif
(1) Waste_burst,
May 24 2016, 16:01:47 Adetar - Sinister Resurrection Of The Morbid Necrotzar [best of/compilation] (2015)


*Artist: Adetar
*Album: Sinister Resurrection Of The Morbid Necrotzar [best of/compilation]
*Year: 2015
*Genre: Death Metal
*Country: Netherlands
*Format: mp3@VBR293kbps
*Size: 91MB

Tracklist:
1. Intro 01:10
2. Crucify the Priest 04:32
3. Interrogation 04:51
4. The Triangle 05:45
5. Apathetic Indecision 06:18
6. Intro 00:48
7. The World Is Damned 05:16
8. Obscure Death 05:33
9. Mortal Society 07:43
10. Sectarian 04:03
******************************
Total playing time: 45:59

[more=Extended info]CD rip. Lame.

Tracks 1 to 5 taken from "Death Deified" Demo 1991.
Tracks 6 to 10 taken from "The World Is Damned" Demo 1990.[/more]

Register
(17) AHBAnep, andreikun, Boozer, Darkthronefoad, Hell_Is_Here, morbidangelo, neoatheist, Ostinato, Rosen, samokot, Storky, TeamatSE, Tino, varlam4, wgs73, zotyo1975, Герб,
May 24 2016, 15:46:37 Adversary - Forgotten Remains Of Death - Demo Collection 1990-1991 [best of/compilation] (2016)


*Artist: Adversary
*Album: Forgotten Remains Of Death - Demo Collection 1990-1991 [best of/compilation]
*Year: 2016
*Genre: Death Metal
*Country: Sweden
*Format: mp3@VBR297kbps
*Size: 59MB

Tracklist:
1. Succumb To Putrefaction 04:08
2. Remains Of An Art Forgotten 03:24
3. Beyond All Blessings 03:13
4. Serpent Of Twilight 03:26
5. Twice Dead 03:22
6. Grim Vision 03:35
7. Adversary 00:07
8. The Blood Of Those Who Failed 03:16
9. Torn To Sherds 03:35
10. Dying Again 02:16
11. Outro: After The Rain 00:58
******************************
Total playing time: 31:20

[more=Extended info]CD rip. Lame.

-Tracks 1 to 4 taken from "Remains Of An Art Forgotten" Demo 1991
-Tracks 5 to 8 taken from "Beyond Death" Demo 1990
-Tracks 9 to 11 taken from "The Blood Of Those Whon Failed" Demo 1990[/more]

Register
(25) AHBAnep, andreikun, Boozer, Borderline1991, cuimit1349, Darkthronefoad, enslaver, Evilded, Exxie, Hell_Is_Here, marilin, MeathookSeed, Mist13Signifier, morbidangelo, Proteus_666, repulssion, Rosen, sperminator, Stringer, Tino, troll_swamp, varlam4, vyacheslav, wgs73, Герб,
Apr 29 2016, 04:07:01 Graveyard - ...For Thine Is The Darkness (2016)


*Artist: Graveyard
*Album: ...For Thine Is The Darkness
*Year: 2016
*Genre: Death Metal
*Country: Spain
*Format: mp3@VBR286kbps
*Size: 90MB

Tracklist:
1. Almulk Biallawn Al'Asfar 01:28
2. With Fear and Thirst 05:31
3. Threshold I 00:13
4. Mine Is the Shining Light 04:17
5. Threshold II 00:19
6. The Mighty Columns of Irem 05:14
7. Threshold III 00:25
8. Hidden Amidst the Stars 04:14
9. Threshold IV 00:13 instrumental
10. To Earth and Death 04:05
11. Threshold V 00:21
12. Defy & Conquer 04:50
13. Threshold VI 00:17
14. The Womb of the Desert 05:16
15. Threshold VII 00:37
16. Son of the Aeon / Sun of the Daemon 04:58
17. Alqabr Al'Abdi 00:46
******************************
Total playing time: 43:04

Register
(36) andreikun, Ballisargon, Barricade, Boozer, Buregon, CRUNCH, cuimit1349, DarkHorde, Darkthronefoad, desekrator, Dmitry1977, Hammaren, igore2911, infiltrator, jollo, Kehl05, Luka, marilin, MeathookSeed, metala, metalboll, metaljan, MMMMM, nab, oldvarg, realexxx75, respect, Rosen, Spunkynut, Tino, varlam4, vosmidesijatye, Wolfera, Zaephar, Zenial, Герб,
Apr 24 2016, 13:38:53 Burial - Burial Exhumed [best of/compilation] (2015)


*Artist: Burial
*Album: Burial Exhumed [best of/compilation]
*Year: 2015
*Genre: Death Metal
*Country: United Kingdom
*Format: mp3@VBR271kbps
*Size: 78MB

Tracklist:
1. Intro / Effigy 04:16
2. Reticent Roleplay 03:27
3. Ice Enshrouded Walls 03:39
4. Intro / Impending Writ of the Last Rites 04:40
5. Deceived by the Eye of Sanctiy 05:21
6. Practices of Infidelity 02:41
7. Devaluated Life 04:09
8. Inherited Fate 03:02
9. Seasons End 04:18
10. Void in Time 03:50
******************************
Total playing time: 39:23

Register
(15) andreikun, Darkthronefoad, Hell_Is_Here, Kazoth, marilin, morbidangelo, Ostinato, Proteus_666, Rosen, sperminator, Tino, varlam4, vyacheslav, wreak, Герб,
Mar 12 2016, 17:12:11 Nominon - Chaos In The Flesh...Live! [live] (2016)


*Artist: Nominon
*Album: Chaos In The Flesh...Live! [live]
*Year: 2016
*Genre: Death Metal
*Country: Sweden
*Format: mp3@CBR320kbps
*Size: 117MB

Tracklist:
1. In the Name of Gomorrah 03:38
2. Sodom's Fall 04:26
3. Mantra Reverse 04:45
4. Hordes of Flies 04:01
5. Malicious Torment 04:45
6. Undead Beast 05:08
7. Submit to Evil 03:38
8. Blaspheming the Dead 04:56
9. The Cleansing 02:23
10. Mausoleum 05:07
11. Release in Death 04:21
12. The Hammer (Motörhead cover) 03:29
******************************
Total playing time: 50:37

[more=Extended info]Ripped from Master CD.[/more]

[more=Technical info]
Input File: Hexed Cemetery Records - NOMINON - Chaos in The Flesh....Live! - 01 In the Name of Gomorrah.mp3
Channels : 2
Sample Rate : 44100
Precision : 16-bit
Duration : 00:03:38.82 = 9650050 samples = 16411.6 CDDA sectors
File Size : 8.94M
Bit Rate : 327k
Sample Encoding: MPEG audio (layer I, II or III)
Comments :
Title=In the Name of Gomorrah
Artist=Nominon
Album=Chaos in the Flesh!...Live!
Tracknumber=1
Year=2016

[/more]

Register
(16) AHBAnep, aserius, desekrator, Hell_Is_Here, kolar666, marilin, morbidangelo, Ostinato, rom666, Rosen, samokot, VALERY, varlam4, wreak, Zenial, Герб,
Oct 19 2015, 14:07:21 Megadeth - Fatal Illusion [single] (2015)


*Artist: Megadeth
*Album: Fatal Illusion [single]
*Year: 2015
*Genre: Heavy Metal/Thrash Metal
*Country: United States
*Format: mp3@VBR288kbps
*Size: 26MB

Tracklist:
1. Fatal Illusion 04:17
2. Symphony of Destruction (Live) 03:46
3. Peace Sells (Live) 04:18
******************************
Total playing time: 12:21

Register
(24) Aresson, boby9052, cancer1974, csgmnk, deathpurple, dulak, gwar, gwynnbleid, heinz88, Jurmagund, LightWizard, max_stalingradsky, Mplast, Old Vyaine, recber, Reverend, Rosen, varlam4, vazerdou, wanderer73, wgs73, wreak, xxdarkmanxx, Язва,
Oct 8 2015, 13:36:01 Funeration & Anathema - Demo Tapes 1990 - 1991 [split] (2015)


*Artist: Funeration & Anathema
*Album: Demo Tapes 1990 - 1991 [split]
*Year: 2015
*Genre: Death Metal | Death Metal
*Country: Finland | Finland
*Format: mp3@CBR320kbps
*Size: 74MB

Tracklist:
1. Envoy of Hypocrisy 03:43
2. Higher Form's Game 03:58
3. Yellow Phlegm 04:09
4. Perdition 03:48
5. Enigma of Departed 03:55
6. The First Symptoms of Rotting 04:48
7. Perdition 03:47
8. The First Symptoms of Rotting 04:34
******************************
Total playing time: 32:42



[more=Extended info]Tracks 1-2 taken from 1991 promo (as Anathema)
Tracks 3-6 taken from 1991 demo II (as Anathema)
Tracks 7-8 taken from 1990 demo (as Funeration)[/more]

[more=Technical info]
Input File: 02 - Anathema - Higer From\'s Game.mp3
Channels : 2
Sample Rate : 44100
Precision : 16-bit
Duration : 00:04:02.39 = 10689487 samples = 18179.4 CDDA sectors
File Size : 9.70M
Bit Rate : 320k
Sample Encoding: MPEG audio (layer I, II or III)
Comments :
Title=Higer From's Game
Artist=Anathema
Album=Demo Tapes 1990 - 1991
Tracknumber=2/8
Year=2015
Genre=Death Metal

[/more]

Register
(12) cuimit1349, Darkthronefoad, Evilded, Hell_Is_Here, igore2911, Lanceatum, Proteus_666, Rosen, VALERY, varlam4, wreak, Герб,
Sep 18 2015, 11:57:11 Embryon - Clonation Remains [demo] (1995)


*Artist: Embryon
*Album: Clonation Remains [demo]
*Year: 1995
*Genre: Death Metal
*Country: Spain
*Format: mp3@VBR201kbps
*Size: 62MB

Tracklist:
Side A
1. Outside Bodies into the reality 08:16
2. Crepuscular Creatures 06:11
3. Death Temple 07:17
Side B
4. Ultratumb Voices 05:16
5. Putrefact Genetic Cells 05:50
6. The Eye of Destruction 04:03
7. Total Eclipse 05:32
******************************
Total playing time: 42:25

Register
(11) andreikun, Darkthronefoad, Evilded, Exxie, Hell_Is_Here, MeathookSeed, Rosen, varlam4, vyacheslav, wreak, Герб,
May 17 2015, 13:40:08 Graveyard - The Coffin Years [best of/compilation] (2015)


*Artist: Graveyard
*Album: The Coffin Years [best of/compilation]
*Year: 2015
*Genre: Death Metal
*Country: Spain
*Format: mp3@CBR320kbps
*Size: 157MB

Tracklist:
1. Into the Mausoleum 05:35
2. One of Them 04:41
3. Wormfeast 03:27
4. Cenotaph (Bolt Thrower cover) 04:15
5. What Dwells Beneath 05:56
6. Deaf Forever (Motörhead cover) 04:14
7. The Usurper (Celtic Frost cover) 03:17
8. Ye Incantation 03:29
9. Silent Whispers of the Graveless 06:20
10. Corporal Jigsore Quandary (Carcass cover) 05:16
11. In the Shadow of the Horns (Darkthrone cover) 05:56
12. Remember the Fallen (Sodom cover) 03:57
13. Walking Horrors of the Undead (live) 04:16
14. Blood of Vengance (live) 03:39
15. Riding a Pale Horse (live) 04:53
******************************
Total playing time: 1:09:11

[more=Extended info]Compilation CD with tracks from various split 7"EPs, rare, unreleased, exclusive cover versions and live material.[/more]

[more=Technical info]
Input File: Graveyard - 07 - The Usurper.mp3
Channels : 2
Sample Rate : 44100
Precision : 16-bit
Duration : 00:03:17.72 = 8719584 samples = 14829.2 CDDA sectors
File Size : 7.91M
Bit Rate : 320k
Sample Encoding: MPEG audio (layer I, II or III)
Comments :
Title=The Usurper
Artist=Graveyard
Album=The Coffin Years
Tracknumber=7/15
Year=2015
Genre=Death Metal

[/more]

Register
(20) AHBAnep, andreikun, Boozer, Exxie, Hell_Is_Here, jpvalentim, marilin, Ostinato, rebornflms95, Rosen, RUSP73, Stringer, VALERY, varlam4, WOLAND, Wolfera, wreak, wtk.412, zotyo1975, Герб,
May 5 2015, 18:09:40 Embryo & Stigmata - Damnatory-Cacophony/Deceived Minds [split] (2012)


*Artist: Embryo & Stigmata
*Album: Damnatory-Cacophony/Deceived Minds [split]
*Year: 2012
*Genre: Death Metal | Death Metal
*Country: Sweden | Sweden
*Format: mp3@VBR233kbps
*Size: 90MB

Tracklist:
Embryo:
1. Brutality of Sickness 05:08
2. Grotesque Life 06:30
3. Bible of Hypocrisy 06:31
4. Lord of the Dead* 04:28
5. Grotesque Life* 03:35
6. Exmortis* 04:44
7. Brutality of Sickness* 05:39
Stigmata:
8. Decieved Minds 05:51
9. The Dead End of Morality 05:24
10. Overwhelming Grief 05:08
******************************
Total playing time: 52:58

[more=Extended info]2015 CD version by Dark Symphonies (USA).

Tracks 1 to 3 from Embryo "Damnatory Cacophony" Demo 1991.
Tracks 4 to 7 are bonus from Embryo Live in Strängnäs - March 5, 1993.
Tracks 8 to 10 from Stigmata "Decieved Minds" Demo 1992.[/more]

Register
(10) Darkthronefoad, Lanceatum, morbidangelo, Reverend, Rosen, Stringer, varlam4, vyacheslav, wreak, Герб,
Dec 21 2014, 17:57:08 Mortal Mutilation - Demon's Lust 1991 - 1994 [best of/compilation] (2013)


*Artist: Mortal Mutilation
*Album: Demon's Lust 1991 - 1994 [best of/compilation]
*Year: 2013
*Genre: Death Metal
*Country: Spain
*Format: mp3@CBR320kbps
*Size: 153MB

Tracklist:
1. Merlin 05:19
2. A Black Mass for Satanas 03:10
3. Outro/Prelude 01:39
4. Materialization 04:43
5. Words of Brutal Death 03:29
6. The Stepfather 02:49
7. To the Dreamer (The Dead Path) 03:56
8. Ebon 04:37
9. A Black Mass for Satanas 03:01
10. Maggots (intro) 01:26
11. Spirit Waking 04:13
12. Inri Die 04:23
13. The Stepfather 03:19
14. Zombie 05:48
15. Mortal Mutilation 06:48
16. Merlin III 03:58
17. La Ira del Desconcierto 05:40
******************************
Total playing time: 1:08:18

[more=Extended info]DigiCD that compiles everything that this ancient Spanish band ever recorded: "Dawn of the dead" demo (1992), the previously unreleased "Demon´s lust" EP (1993), "Katie King" EP (1993), the 3 songs featured on the "Death Metal party" compilation CD (1994) and 2 previously unreleased rehearsal songs. 17 songs of obscure and satanic Death Metal with hints of Thrash, Doom and Black Metal. This fantastic set also features 2 posters, a sticker and a huge 28-page booklet including lyrics, tons of photos, Spanish/English interviews and liner notes by the band members.

1-3 Demon's Lust EP (1993)
4-6 Katie King EP (1993)
7-9 Death Metal Party compation (1994)
10-15 Dawn of the Dead demo (1992)
16-17 Rehearsal[/more]

[more=Technical info]
Input File: Mortal Mutilation - 03 - Outro - Prelude....mp3
Channels : 2
Sample Rate : 44100
Precision : 16-bit
Duration : 00:01:38.59 = 4347775 samples = 7394.18 CDDA sectors
File Size : 3.94M
Bit Rate : 320k
Sample Encoding: MPEG audio (layer I, II or III)
Comments :
Title=Outro / Prelude...
Artist=Mortal Mutilation
Album=Demon's Lust 1991 - 1994
Tracknumber=3/17
Year=2013
Genre=Death Metal

[/more]

Register
(24) Alex5, andreikun, Boozer, Darkthronefoad, Evilded, goregrindexx, killingod, KVRT, marilin, morbidangelo, potap03020100, Proteus_666, queimada, Redesecretor, Reverend, Rosen, sperminator, Spork, troll_swamp, varlam4, vyacheslav, wgs73, wreak, Герб,
Dec 20 2014, 14:59:04 Deathrune - Those Who Choose The Falen [best of/compilation] (2013)


*Artist: Deathrune
*Album: Those Who Choose The Falen [best of/compilation]
*Year: 2013
*Genre: Death Metal
*Country: United States
*Format: mp3@CBR320kbps
*Size: 291MB

Tracklist:
Disc 1
1. De som väljer dom fallna (Intro) 01:14
2. Plague March 05:02
3. Undead Ways 04:37
4. Memories of the Exhumed 03:32
5. Ghostwinds 05:28
6. Shadow of the Headsman 03:42
7. Llanreithan (Instr) 01:57
8. Forgotten Path 03:51
9. Remain Forever Entangled 03:43
10. Deserted Churchyards 04:22
11. Choosers of the Slain 03:16
12. Beneath the Cypress Groves 04:55
13. Dark Tides of Yuggoth 06:51


Disc 2
1. Fear in My Eyes 04:43
2. Mass Grave 04:33
3. I Await 04:14
4. Netherworld 04:46
5. Shrouded in Disbelief 05:22
6. Eyes of Hate 04:20
7. The Lake of Endless Sleep 05:08
8. Beneath the Cypress Groves 06:05
9. Possession Nocturne 06:15
10. Beneath the Cypress Groves 05:38
11. From the Land of Cold and Mist 03:32
12. Memories of the Exhumed 03:30
13. Forgotten Path 03:46
14. Undead Ways 04:22
15. Shadow of the Headsman 03:32
16. Promise of Heaven 03:26
17. Choosers of the Slain 03:08
18. Remain Forever Entangled
******************************
Total playing time: 2:08:50

[more=Extended info]Disc 1 is an unreleased full-length album recorded in 1996.

Disc 2 contains the bands first four demos:
Tracks 1-4 are taken from Demo 1991.
Tracks 5-9 are taken from the Beneath the Cypress Groves demo.
Tracks 10-13 are taken from the Memories of the Exhumed demo.
Tracks 14-18 are taken from the Remain Forever Entangled demo[/more]

[more=Technical info]
Input File: 01 - de som valjer dom fallna (intro).mp3
Channels : 2
Sample Rate : 44100
Precision : 16-bit
Duration : 00:01:18.81 = 3475697 samples = 5911.05 CDDA sectors
File Size : 3.15M
Bit Rate : 320k
Sample Encoding: MPEG audio (layer I, II or III)
Comments :
Title=De som väljer dom fallna (Intro)
Artist=Deathrune
Album=Those Who Choose the Fallen (CD 1)
Tracknumber=01
Year=2013
Genre=Death Metal

[/more]

Register
(24) AHBAnep, andreikun, Darkthronefoad, Evilded, Fryz, Hell_Is_Here, igore2911, jorgeguldur, lawronchik, marilin, Mist13Signifier, morbidangelo, Ostinato, Proteus_666, Rosen, Spork, Tino, troll_swamp, VALERY, varlam4, vyacheslav, wanderer73, wreak, Герб,
Dec 13 2014, 13:01:50 Megadeth - Public Enemy No.1 [single] (2011)


*Artist: Megadeth
*Album: Public Enemy No.1 [single]
*Year: 2011
*Genre: Thrash Metal
*Country: United States
*Format: mp3@VBR297kbps
*Size: 17MB

Tracklist:
1. Public Enemy No.1 (Radio Edit) 04:00
2. Public Enemy No.1 04:15
******************************
Total playing time: 8:15

Register
(5) BeerBear, gwynnbleid, Jurmagund, Rosen, wreak,
Dec 3 2014, 15:34:48 Megadeth - The Right To Go Insane [single] (2009)


*Artist: Megadeth
*Album: The Right To Go Insane [single]
*Year: 2009
*Genre: Thrash Metal
*Country: United States
*Format: mp3@CBR320kbps
*Size: 21MB

Tracklist:
1. The Right to Go Insane (Alt Version) 03:26
2. The Right to Go Insane (Album Version) 04:18
******************************
Total playing time: 7:44

[more=Technical info]
Input File: Megadeth - 01 - The Right to Go Insane (Alt Version).mp3
Channels : 2
Sample Rate : 44100
Precision : 16-bit
Duration : 00:03:26.79 = 9119351 samples = 15509.1 CDDA sectors
File Size : 8.27M
Bit Rate : 320k
Sample Encoding: MPEG audio (layer I, II or III)
Comments :
Title=The Right to Go Insane (Alt Version)
Artist=Megadeth
Album=The Right to Go Insane
Tracknumber=1/2
Year=2009
Genre=Metal

[/more]

Register
(9) BeerBear, gwynnbleid, Jurmagund, martintrue, mika, morbidangelo, potap03020100, Rosen, wreak,
Sep 5 2014, 00:23:06 Bombs Of Hades - Through The Dark Past [best of/compilation] (2014)


*Artist: Bombs Of Hades
*Album: Through The Dark Past [best of/compilation]
*Year: 2014
*Genre: Death Metal
*Country: Sweden
*Format: mp3@CBR320kbps
*Size: 132MB

Tracklist:
1. Necronomicus Kanth (The Hounds of Hell)
2. Twisted Decay
3. Slaughter the Dead
4. Disrespect Their Bones
5. Coffin
6. Carnivores
7. Prolog (The Ecstacy of Blood)
8. Into the Eternal Pit of Fire
9. The Day Man Lost
10. Confessor
11. Ice Cold Grave
12. Clean Your Head
13. Until Death (Hanged by the Neck)
14. Inside Teradome
15. Burn
16. I’ll Be Your Sister
17. Mangled Dehumanization
18. Crossturner
19. Evil Dead
20. Kill! Kill! Kill!
21. Epilog
******************************
Total playing time: 57:04

[more=Extended info]Remastered compilation archiving right from the "Carnivores" 7" vinyl EP up till the "No Life" 10" vinyl split with Sweden's Mordbrand, also includes four brand new tracks exclusively for this release.[/more]

[more=Technical info]
Input File: bombs of hades - through the dark past [compilation] - 01 - necronomicus kanth (the hounds of hell).mp3
Channels : 2
Sample Rate : 44100
Precision : 16-bit
Duration : 00:02:12.35 = 5836679 samples = 9926.32 CDDA sectors
File Size : 5.66M
Bit Rate : 342k
Sample Encoding: MPEG audio (layer I, II or III)
Comments :
Title=Necronomicus Kanth (The Hounds Of Hell) (Carnivores - EP 2008)
Artist=Bombs Of Hades
Album=Through The Dark Past [Compilation]
Tracknumber=1
Year=2014
Genre=22

[/more]

Register
(29) AHBAnep, andreikun, BERZERK, Buregon, Darkthronefoad, Diflock, DOKTORBLACK88, Evilded, Hell_Is_Here, igore2911, infozahist, irongrinder, killingod, Koscheyushka, marilin, neoatheist, Ostinato, Proteus_666, Rosen, Samaritianin, serach, Stringer, Torlof, Vakhanal, VALERY, varlam4, vyacheslav, wreak, Герб,
Jul 19 2014, 11:04:53 Agonised - Total Devastation [demo] (2014)


*Artist: Agonised
*Album: Total Devastation [demo]
*Year: 2014
*Genre: Death Metal
*Country: Spain
*Format: mp3@CBR320kbps
*Size: 42MB

Tracklist:
1. Intro 00:56
2. Putrid Thoughts 05:14
3. Total Devastation 08:10
4. Sold Baptism (Morgoth cover) 03:43
******************************
Total playing time: 18:03



[more=Technical info]
Input File: 01 - Intro.mp3
Channels : 2
Sample Rate : 44100
Precision : 16-bit
Duration : 00:00:56.17 = 2477009 samples = 4212.6 CDDA sectors
File Size : 2.33M
Bit Rate : 333k
Sample Encoding: MPEG audio (layer I, II or III)
Comments :
Title=Intro
Artist=Agonised
Album=Total Devastation (Demo)
Tracknumber=1
Year=2014

[/more]

Register
(14) abob, Alex5, Darkthronefoad, fishish, goregrindexx, Hell_Is_Here, killingod, marilin, MeathookSeed, randumbum, Rosen, sperminator, vyacheslav, wreak,
Jul 10 2014, 14:10:18 Tethra - Drown Into The Sea Of Life (2013)


*Artist: Tethra
*Album: Drown Into The Sea Of Life
*Year: 2013
*Genre: Death/Doom Metal
*Country: Italy
*Format: mp3@CBR320kbps
*Size: 111MB

Tracklist:
1. Intro 01:30
2. Sense of the Night 05:58
3. Drifting Islands 07:10
4. Vortex of Void 05:36
5. Drown Into the Sea of Life 08:06
6. The Underworld 01:37
7. Ocean of Dark Creations 07:10
8. Ode to a Hanged Man 05:01
9. End of the River 07:23
******************************
Total playing time: 49:31

Preview 1

[more=Technical info]
Input File: Tethra - 01 - The Great Fall (Intro).mp3
Channels : 2
Sample Rate : 44100
Precision : 16-bit
Duration : 00:01:29.86 = 3962870 samples = 6739.57 CDDA sectors
File Size : 2.46M
Bit Rate : 219k
Sample Encoding: MPEG audio (layer I, II or III)
Comments :
Title=The Great Fall (Intro)
Artist=Tethra
Album=Drown Into the Sea of Life
Tracknumber=1/9
Year=2013
Genre=Death/Doom Metal

[/more]

Register
(16) AndreFrancis, Buregon, Darkthronefoad, EpicDoomLord, Hell_Is_Here, marilin, MEMENTO MORI, metala, randumbum, Rosen, sayfut, stub888, VALERY, varlam4, wanderer73, wreak,

5 Pages V   1 2 3 > » 
- Lo-Fi Version Support form
Copyrights and abuse reports form
Time is now: 22nd July 2019 - 02:21:32