Welcome Guest ( Log In | Register )

История благодарностей участнику Maniakk ::: Спасибо сказали: 1077 раз(а)
Дата поста: В теме: За сообщение: Спасибо сказали:
Yesterday, 06:57:43 Проект Хаос - Время Затмений [ep] (2019)


*Artist: Проект Хаос
*Album: Время Затмений [ep]
*Year: 2019
*Genre: Thrash Metal
*Country: Russian Federation
*Format: mp3@CBR320kbps
*Size: 34MB

Tracklist:
1. Глаза Пустоты 03:52
2. Дар 03:00
3. Снова! 03:33
4. Всё, Чем Я Был... 03:36
******************************
Total playing time: 14:01

[more=Technical info]
Input File: 01 - Глаза Пустоты.mp3
Channels : 2
Sample Rate : 44100
Precision : 16-bit
Duration : 00:03:52.73 = 10263481 samples = 17454.9 CDDA sectors
File Size : 9.47M
Bit Rate : 325k
Sample Encoding: MPEG audio (layer I, II or III)
Comments :
Title=Глаза Пустоты
Artist=Проект Хаос
Album=Время Затмений
Tracknumber=1
Year=2019
Genre=Thrash/Groove Metal

[/more]

Register
(7) Aresson, boby9052, Diflock, Lukittaz, Olethros, stumpheavyrock, Сварог Барг,
May 24 2020, 04:58:22 Die Kreatur - Panoptikum (2020)


*Artist: Die Kreatur
*Album: Panoptikum
*Year: 2020
*Genre: Industrial Metal
*Country: Germany
*Format: mp3@CBR320kbps
*Size: 160MB

Tracklist:
01. Die Kreatur 04:12
02. Kälter Als Der Tod 04:20
03. Unzertrennlich 04:07
04. Durch Die Nacht 04:37
05. Zwei 100% 04:01
06. Schlafes Braut 05:14
07. Untergang 03:55
08. Mensch/Maschine 05:29
09. Was Mir Am Wichtigsten Ist 04:20
10. Benutz Mich 04:45
11. Glück Auf! 03:04
12. Gott Verdammt 04:54
13. Goldener Reiter 04:56
14. Die Kreatur Faderhead (Remix) 05:02
15. Kälter Als Der Tod (Solar Fake Remix) 04:58
******************************
Total playing time: 1:07:54

[more=Extended info]Project of Dero Goi (Oomph!) & Chris Harms (Lord Of The Lost)[/more]

[more=Technical info]
Input File: 01 - DIE KREATUR.mp3
Channels : 2
Sample Rate : 44100
Precision : 16-bit
Duration : 00:04:12.60 = 11139440 samples = 18944.6 CDDA sectors
File Size : 10.4M
Bit Rate : 330k
Sample Encoding: MPEG audio (layer I, II or III)
Comments :
Title=DIE KREATUR
Artist=Die kreatur
Album=Panoptikum
Tracknumber=1
Year=2020
Genre=Metal
Discnumber=1/1

[/more]

Register
(7) gwar, infiltrator, Kasper969, kostja, oldvarg, Olethros, soulflesh,
Dec 26 2019, 00:08:40 Pierrot - Die Zeit Ist Reif (1995)


*Artist: Pierrot
*Album: Die Zeit Ist Reif
*Year: 1995
*Genre: Heavy Metal
*Country: Germany
*Format: mp3@CBR320kbps
*Size: 138MB

Tracklist:
01. Die Zeit Ist Reif 04:20
02. Schon Das Du Lebst 04:41
03. Schlachthof Der Liebe 05:12
04. Zeit Zu Leben 03:57
05. Ausziehn' 04:17
06. Gott Hat Gesagt 05:20
07. Pantoffelheld 03:31
08. Stuck Fur Stuck 04:30
09. Du Bist Mein Leben 06:07
10. Jeanny (Falco Cover) 04:55
11. Friss Oder Stirb 03:57
12. Gib Nicht Auf 04:33
13. Wickie 04:13
******************************
Total playing time: 59:33

Preview 1

[more=Extended info]Pierrot is a German hard rock/heavy metal band from Munich, Germany, that was founded in 1986.
Later the band changed its name to Hammerschmitt.[/more]

[more=Technical info]
Input File: 01 - Die Zeit Ist Reif.mp3
Channels : 2
Sample Rate : 44100
Precision : 16-bit
Duration : 00:04:20.69 = 11496561 samples = 19552 CDDA sectors
File Size : 10.6M
Bit Rate : 324k
Sample Encoding: MPEG audio (layer I, II or III)
Comments :
Title=Die Zeit Ist Reif
Artist=Pierrot
Album=Die Zeit Ist Reif
Tracknumber=01/13
Year=1995
Genre=Heavy Metal
Discnumber=1/1

[/more]

Register
(9) fuoco, gwar, infiltrator, Olethros, Rosen, Rover, senecazm, tashkinoff, wgs73,
Dec 20 2019, 01:51:59 The Sign Of Ampersand - Hide Me, Night [ep] (2018)


*Artist: The Sign Of Ampersand
*Album: Hide Me, Night [ep]
*Year: 2018
*Genre: Symphonic Metal
*Country: Russian Federation
*Format: mp3@CBR320kbps
*Size: 28MB

Tracklist:
01. Hide Me, Night (04:09)
02. Outside My Own Illusion (04:03)
03. Unspoken (03:44)
******************************
Total playing time: 11:56



[more=Extended info]Vocals: D.Sizonova
Guitars/Bass: O.Shopin
Keys: A.Rostov
Drums: R.Rezgo[/more]

[more=Technical info]
Input File: 01 - Hide Me, Night.mp3
Channels : 2
Sample Rate : 44100
Precision : 16-bit
Duration : 00:04:09.15 = 10987339 samples = 18686 CDDA sectors
File Size : 10.1M
Bit Rate : 323k
Sample Encoding: MPEG audio (layer I, II or III)
Comments :
Title=Hide Me, Night
Artist=The Sign Of Ampersand
Album=Hide Me, Night
Tracknumber=1
Year=2018
Discnumber=1

[/more]

Register
(11) ASkyThatBurns, Cartman223, chipsgott, gwar, infiltrator, Mogozoz, Olethros, Rosen, senecazm, valera2010, Сварог Барг,
Nov 1 2019, 03:54:31 Thundermother - Rock 'n' Roll Disaster (2014)


*Artist: Thundermother
*Album: Rock 'n' Roll Disaster
*Year: 2014
*Genre: Hard Rock
*Country: Sweden
*Format: mp3@CBR320kbps
*Size: 79MB

Tracklist:
01. Man With Blues 04:31
02. Deranged 03:30
03. The Dangerous Kind 03:09
04. Rock 'N' Roll Disaster 03:24
05. Thunderous 04:18
06. Please Me 02:29
07. Shoot To Kill 04:19
08. One For The Road 03:07
09. Cheers 02:58
10. Saturday 02:26
******************************
Total playing time: 34:11

Preview 1

[more=Extended info]Clare Cunningham - Vocals
Filippa Nassil - Guitars
Giorgia Carteri - Guitars
Linda Strom - Bass
Tilda Stenqvist - Drums[/more]

[more=Technical info]
Input File: 01 - Man With Blues.mp3
Channels : 2
Sample Rate : 44100
Precision : 16-bit
Duration : 00:04:32.06 = 11997714 samples = 20404.3 CDDA sectors
File Size : 11.0M
Bit Rate : 323k
Sample Encoding: MPEG audio (layer I, II or III)
Comments :
Title=Man With Blues
Artist=Thundermother
Album=Rock 'N' Roll Disaster
Tracknumber=1
Year=2014
Genre=Hard Rock

[/more]

Register
(1) Olethros,
Oct 31 2019, 06:26:12 Jaded Heart - Inside Out (1994)


*Artist: Jaded Heart
*Album: Inside Out
*Year: 1994
*Genre: Hard Rock
*Country: Germany
*Format: mp3@CBR320kbps
*Size: 129MB

Tracklist:
01. Inside Out 04:58
02. Mama 04:40
03. How Many Tears 04:38
04. Excuse 04:10
05. Hold On 04:42
06. Hard To Stay Alive 04:07
07. So Damn Easy 04:39
08. Listen 03:17
09. Won't Be Losin' 02:43
10. Burning For Love 04:59
11. Surrender 04:28
12. Take Me Back 03:58
13. Missing You 05:15
******************************
Total playing time: 56:34

[more=Extended info]Bass Guitar – Michael Müller
Drums – Axel Kruse
Guitar – Dirk Bormann
Vocals – Michael Bormann[/more]

[more=Technical info]
Input File: 01.Inside Out.mp3
Channels : 2
Sample Rate : 44100
Precision : 16-bit
Duration : 00:04:56.56 = 13078340 samples = 22242.1 CDDA sectors
File Size : 11.9M
Bit Rate : 321k
Sample Encoding: MPEG audio (layer I, II or III)
Comments :
Title=Inside Out
Artist=Jaded Heart
Album=Inside Out
Tracknumber=1
Year=1994

[/more]

Register
(3) Brann, Diflock, Olethros,
Oct 27 2019, 00:03:24 Airbourne - Boneshaker (2019)


*Artist: Airbourne
*Album: Boneshaker
*Year: 2019
*Genre: Hard Rock
*Country: Australia
*Format: mp3@CBR320kbps
*Size: 105MB

Tracklist:
01. Boneshaker 03:30
02. Burnout The Nitro 03:32
03. This Is Our City 03:05
04. Sex To Go 02:34
05. Backseat Boogie 03:23
06. Blood In The Water 02:23
07. She Gives Me Hell 02:47
08. Switchblade Angel 002:06
09. Weapon Of War 04:37
10. Rock ‘N’ Roll For Life 02:40
11. Boneshaker (Live At Wacken, Germany/2019) 03:50
12. Heartbreaker (Live In Andalsnes RaumaRock, Norway/2019) 03:57
13. Raise The Flag (Live At Wacken, Germany/2019) 04:44

******************************
Total playing time: 43:12

Preview 1

[more=Technical info]
Input File: 01 - Boneshaker.mp3
Channels : 2
Sample Rate : 44100
Precision : 16-bit
Duration : 00:03:30.20 = 9269644 samples = 15764.7 CDDA sectors
File Size : 8.68M
Bit Rate : 330k
Sample Encoding: MPEG audio (layer I, II or III)
Comments :
Title=Boneshaker
Artist=Airbourne
Album=Boneshaker
Tracknumber=1
Year=2019
Genre=Hard Rock
Discnumber=1

[/more]

Register
(14) Brann, cesar, Diflock, djsema4, EVENGAR, JD666Hellion, Lyrch, lyukon, MеtalHead, oldvarg, Olethros, Shadechaser, zaqxsw, партизан,
Oct 25 2019, 03:22:03 Bleach Garden - An Immodest Motive (2017)


*Artist: Bleach Garden
*Album: An Immodest Motive
*Year: 2017
*Genre: Grunge
*Country: United States
*Format: mp3@CBR320kbps
*Size: 70MB

Tracklist:
01. In-Politically Correct 03:25
02. Smack 03:53
03. Lethargy 02:47
04. Fade Away 05:13
05. On A Mountain 03:40
06. Earful Of Gas 11:22
******************************
Total playing time: 30:20



[more=Extended info]Bleach Garden is a three piece Grunge/Alternative band from Atlanta GA comprised of Vocalist and Guitarist Joey Bertini, Bassist Jamie Smith, and Drummer Brandon Solan. The band is heavily influenced by bands like; Nirvana, Sound Garden, Alice in Chains, Melvins, Flipper, Zeppelin, Black Sabbath, and many many more.[/more]

[more=Technical info]
Input File: 01 - In-Politically Correct.mp3
Channels : 2
Sample Rate : 44100
Precision : 16-bit
Duration : 00:03:25.44 = 9059816 samples = 15407.9 CDDA sectors
File Size : 8.33M
Bit Rate : 324k
Sample Encoding: MPEG audio (layer I, II or III)
Comments :
Title=In-Politically Correct
Artist=Bleach Garden
Album=An Immodest Motive
Tracknumber=1
Year=2017

[/more]

Register
(4) AndreFrancis, Angry_Chair, Olethros, sludge666,
Oct 25 2019, 02:20:12 Bleach Garden - Parasite (2019)


*Artist: Bleach Garden
*Album: Parasite
*Year: 2019
*Genre: Grunge
*Country: United States
*Format: mp3@CBR320kbps
*Size: 91MB

Tracklist:
01. Invader 02:01
02. Clueless 05:39
03. Scum 01:57
04. Parasite 04:42
05. Bliss 03:52
06. Shiver 07:27
07. Instinct 01:57
08. I Wanna Die 05:22
09. Fried 06:46
******************************
Total playing time: 39:43



[more=Extended info]Bleach Garden is a three piece Grunge/Alternative band from Atlanta GA comprised of Vocalist and Guitarist Joey Bertini, Bassist Jamie Smith, and Drummer Brandon Solan. The band is heavily influenced by bands like; Nirvana, Sound Garden, Alice in Chains, Melvins, Flipper, Zeppelin, Black Sabbath, and many many more.[/more]

[more=Technical info]
Input File: 01 - Invader.mp3
Channels : 2
Sample Rate : 44100
Precision : 16-bit
Duration : 00:02:01.09 = 5339937 samples = 9081.53 CDDA sectors
File Size : 4.85M
Bit Rate : 320k
Sample Encoding: MPEG audio (layer I, II or III)
Comments :
Title=Invader
Artist=Bleach Garden
Album=Parasite
Tracknumber=1
Year=2019
Genre=Grunge

[/more]

Register
(5) AndreFrancis, Angry_Chair, comradEnemy, Olethros, sludge666,
Oct 18 2019, 00:24:40 Jaded Heart - Helluva Time (2005)


*Artist: Jaded Heart
*Album: Helluva Time
*Year: 2005
*Genre: Hard Rock
*Country: Germany
*Format: mp3@CBR320kbps
*Size: 142MB

Tracklist:
01. Tomorrow Comes (05:30)
02. Hole In My Heart (06:03)
03. Somewhere (04:40)
04. Dreams You´ll Never See (04:37)
05. Who´s Foolin´ (04:37)
06. Paid My Dues (04:49)
07. Without You (05:05)
08. Love & Desire (05:15)
09. No One (04:54)
10. Shores Of Paradise (05:04)
11. Frozen Heart (05:26)
12. Love To Live (05:17)
******************************
Total playing time: 1:01:17

[more=Technical info]
Input File: 01 - Tomorrow Comes.mp3
Channels : 2
Sample Rate : 44100
Precision : 16-bit
Duration : 00:05:30.91 = 14593307 samples = 24818.5 CDDA sectors
File Size : 13.3M
Bit Rate : 322k
Sample Encoding: MPEG audio (layer I, II or III)
Comments :
Title=Tomorrow Comes
Artist=Jaded Heart
Album=Helluva Time
Tracknumber=1
Year=2005

[/more]

Register
(4) Bloodn Lord, Brann, infiltrator, Olethros,
Oct 15 2019, 23:54:41 Ten - Isla De Muerta (2015)


*Artist: Ten
*Album: Isla De Muerta
*Year: 2015
*Genre: Melodic Hard Rock
*Country: United Kingdom
*Format: mp3@CBR320kbps
*Size: 145MB

Tracklist:
01. (I) Buccaneers (Instrumental) / (II) Dead Men Tell No Tales (6:20)
02. Revolution (5:56)
03. Acquiesce (4:45)
04. The Dragon And Saint George (5:16)
05. Intensify (6:40)
06. This Love (4:43)
07. (I) Karnak (Instrumental) (II) The Valley Of The Kings (8:11)
08. Tell Me What To Do (4:15)
09. Angel Of Darkness (3:57)
10. The Last Pretender (6:40)
11. Assault And Battery (Japan Bonus Track) (4:53)
******************************
Total playing time: 1:01:36

[more=Extended info]Japan Edition+covers[/more]

[more=Technical info]
Input File: 01.(i) Buccaneers (Instrumental) _ (ii) Dead Men Tell No Tales.mp3
Channels : 2
Sample Rate : 44100
Precision : 16-bit
Duration : 00:06:20.55 = 16782211 samples = 28541.2 CDDA sectors
File Size : 15.2M
Bit Rate : 320k
Sample Encoding: MPEG audio (layer I, II or III)
Comments :
Title=(i) Buccaneers (Instrumental) / (ii) Dead Men Tell No Tales
Artist=Ten
Album=Isla De Muerta
Tracknumber=1
Year=2015
Genre=Hard Rock

[/more]

Register
(2) oldvarg, Olethros,
Oct 15 2019, 00:53:52 Ten - Albion (2014)


*Artist: Ten
*Album: Albion
*Year: 2014
*Genre: Melodic Hard Rock
*Country: United Kingdom
*Format: mp3@CBR320kbps
*Size: 136MB

Tracklist:
01. Alone In The Dark Tonight
02. Battlefield
03. It's Alive
04. Albion Born
05. Sometimes Love Takes The Long Way Home
06. A Smuggler's Tale
07. Die For Me
08. It Ends This Day
09. Gioco D'Amore
10. Wild Horses
11. Good God In Heaven What Hell Is This (Bonus Track)
******************************
Total playing time: 58:03

[more=Extended info]Japan edition+covers[/more]

[more=Technical info]
Input File: 01.Alone In The Dark Tonight.mp3
Channels : 2
Sample Rate : 44100
Precision : 16-bit
Duration : 00:04:21.09 = 11513849 samples = 19581.4 CDDA sectors
File Size : 10.4M
Bit Rate : 320k
Sample Encoding: MPEG audio (layer I, II or III)
Comments :
Title=Alone In The Dark Tonight
Artist=Ten
Album=Albion
Tracknumber=1
Year=2014
Genre=Hard Rock

[/more]

Register
(2) oldvarg, Olethros,
Sep 3 2019, 02:04:32 Oblivion Machine - See You Rise [single] (2014)


*Artist: Oblivion Machine
*Album: See You Rise [single]
*Year: 2014
*Genre: Industrial Metal
*Country: Russian Federation
*Format: mp3@CBR320kbps
*Size: 34MB

Tracklist:
01. See You Rise (Feat. Keri) 04:49
02. See You Rise (Feat. Serdj) 04:47
03. See You Rise (Post Remix) 05:22
******************************
Total playing time: 14:58

[more=Technical info]
Input File: 01 - See You Rise (feat. Keri).mp3
Channels : 2
Sample Rate : 44100
Precision : 16-bit
Duration : 00:04:49.72 = 12776696 samples = 21729.1 CDDA sectors
File Size : 11.7M
Bit Rate : 322k
Sample Encoding: MPEG audio (layer I, II or III)
Comments :
Title=See You Rise (feat. Keri) darkscene.org
Artist=Oblivion Machine
Album=See You Rise
Tracknumber=01
Year=2014
Genre=Industrial Metal

[/more]

Register
(3) gwar, infiltrator, Olethros,
Jun 28 2019, 06:09:09 Cubanate - Kolossus [ep] (2019)


*Artist: Cubanate
*Album: Kolossus [ep]
*Year: 2019
*Genre: Industrial
*Country: United Kingdom
*Format: mp3@CBR320kbps
*Size: 78MB

Tracklist:
01. Kolossus (05:19)
02. Split Second (03:59)
03. Missing Persons (04:14)
04. Vortex (04:56)
05. Pattern Recognition (04:16)
06. Kolossus (Rhys Fulber Remix) (06:09)
07. Kolossus (DROWND Remix) (04:12)
******************************
Total playing time: 33:05

Preview 1

[more=Technical info]
Input File: 01 - Kolossus.mp3
Channels : 2
Sample Rate : 44100
Precision : 16-bit
Duration : 00:00:00.32 = 14068 samples = 23.9252 CDDA sectors
File Size : 13.1M
Bit Rate : 328M
Sample Encoding: MPEG audio (layer I, II or III)
Comments :
Title=Kolossus
Artist=Cubanate
Album=Kolossus
Tracknumber=1/7
Year=2019-19-20
Discnumber=1/1

[/more]

Register
(9) advyacheslav, artscald, Emhyr var Emreis, gwar, Hell_Is_Here, mirotvorets, morve, Olethros, Sanctus,
Jun 26 2019, 12:31:16 Ophthalamia - A Long Journey (1998)
320/114mb
Register
(2) nsk2008, varlam4,
Jun 19 2018, 23:27:46 W.E.T. - Earthrage (2018)


*Artist: W.E.T.
*Album: Earthrage
*Year: 2018
*Genre: Hard Rock
*Country: Sweden
*Format: mp3@CBR320kbps
*Size: 111MB

Tracklist:
01. Watch The Fire (05:04)
02. Burn (04:17)
03. Kings On Thunder Road (04:25)
04. Elegantly Wasted (02:57)
05. Urgent (03:45)
06. Dangerous (03:14)
07. Calling Out Your Name (04:01)
08. Heart Is On The Line (04:27)
09. I Don't Wanna Play That Game (03:37)
10. The Burning Pain Of Love (04:04)
11. The Never-Ending Retraceable Dream (03:52)
12. Elegantly Wasted (Acoustic Version) (Japan Bonus) (02:56)
******************************
Total playing time: 46:39

Preview 1

[more=Extended info]Japanese Edition
Vocals – Jeff Scott Soto
Drums – Robban Bäck
Guitar, Bass, Keyboards, Vocals – Erik Mårtensson
Keyboards – Robert Säll[/more]

[more=Technical info]
Input File: 01 - Watch The Fire.mp3
Channels : 2
Sample Rate : 44100
Precision : 16-bit
Duration : 00:05:04.56 = 13430876 samples = 22841.6 CDDA sectors
File Size : 12.4M
Bit Rate : 327k
Sample Encoding: MPEG audio (layer I, II or III)
Comments :
Title=Watch The Fire
Artist=W.E.T.
Album=Earthrage (Japanese Edition)
Tracknumber=1/12
Year=2018
Discnumber=1/1

[/more]

Register
(5) avkruchinin, Diflock, Evjenne, Victim of fate, vir2al,
Jun 14 2018, 00:12:15 W.E.T. - Earthrage (2018)


*Artist: W.E.T.
*Album: Earthrage
*Year: 2018
*Genre: Hard Rock
*Country: Sweden
*Format: mp3@CBR320kbps
*Size: 111MB

Tracklist:
01. Watch The Fire (05:04)
02. Burn (04:17)
03. Kings On Thunder Road (04:25)
04. Elegantly Wasted (02:57)
05. Urgent (03:45)
06. Dangerous (03:14)
07. Calling Out Your Name (04:01)
08. Heart Is On The Line (04:27)
09. I Don't Wanna Play That Game (03:37)
10. The Burning Pain Of Love (04:04)
11. The Never-Ending Retraceable Dream (03:52)
12. Elegantly Wasted (Acoustic Version) (Japan Bonus) (02:56)
******************************
Total playing time: 46:39

Preview 1

[more=Extended info]Japanese Edition
Vocals – Jeff Scott Soto
Drums – Robban Bäck
Guitar, Bass, Keyboards, Vocals – Erik Mårtensson
Keyboards – Robert Säll[/more]

[more=Technical info]
Input File: 01 - Watch The Fire.mp3
Channels : 2
Sample Rate : 44100
Precision : 16-bit
Duration : 00:05:04.57 = 13431405 samples = 22842.5 CDDA sectors
File Size : 12.4M
Bit Rate : 327k
Sample Encoding: MPEG audio (layer I, II or III)
Comments :
Title=Watch The Fire
Artist=W.E.T.
Album=Earthrage (Japanese Edition)
Tracknumber=1/12
Year=2018
Discnumber=1/1

[/more]

Register
(1) avkruchinin,
Jun 4 2018, 12:26:48 Jaded Heart - Devil's Gift (2018)


*Artist: Jaded Heart
*Album: Devil's Gift
*Year: 2018
*Genre: Hard Rock
*Country: Germany
*Format: mp3@CBR320kbps
*Size: 139MB

Tracklist:
01 - Wasteland (04:24)
02 - The Enemy (04:01)
03 - Set Free (05:32)
04 - Scream Of Anger (05:26)
05 - Tears Of Our World (04:15)
06 - Phoenix (04:14)
07 - One World (04:13)
08 - Story Of My Life (04:16)
09 - Coming Home (04:25)
10 - Conspiracy Of Science (04:44)
11 - Final Moment (05:28)
12 - Black Days (Digipak Bonus Track) (04:27)
13 - Flying High (Digipak Bonus Track) (05:02)
******************************
Total playing time: 1:00:27

[more=Extended info]Johan Fahlberg – vocals
Peter Östros – guitar
Michael “Muelli” Müller – bass
Bodo Stricker – drums
Masa Eto – guitar[/more]

[more=Technical info]
Input File: 01 - Wasteland.mp3
Channels : 2
Sample Rate : 44100
Precision : 16-bit
Duration : 00:04:24.31 = 11655983 samples = 19823.1 CDDA sectors
File Size : 10.6M
Bit Rate : 320k
Sample Encoding: MPEG audio (layer I, II or III)
Comments :
Title=Wasteland
Artist=Jaded Heart
Album=Devil's Gift
Tracknumber=1/13
Year=2018
Genre=137

[/more]

Register
(7) avkruchinin, DenisKov, Diflock, gwar, MetalW, terron, vir2al,
Jan 18 2018, 12:18:12 Heaven & Earth - Hard To Kill (2017)


*Artist: Heaven & Earth
*Album: Hard To Kill
*Year: 2017
*Genre: Hard Rock
*Country: United States
*Format: mp3@CBR320kbps
*Size: 107MB

Tracklist:
01 - Hard To Kill (05:28)
02 - Walk Away (03:54)
03 - Till It's Over (03:35)
04 - Bleed Me Dry (04:08)
05 - The Game Has Changed (03:29)
06 - Anthem (03:58)
07 - Monster (04:52)
08 - LA Blues (04:13)
09 - Hellfire (03:48)
10 - Beautiful Monsters (03:55)
11 - Bad Man (05:23)
******************************
Total playing time: 46:43



[more=Extended info]Joe Retta (lead vocals, guitar, harmonica)
Stuart Smith (guitars)
Lynn Sorensen (bass)
Mike Mangan (Hammond organ and keyboard)
Steve Wilson (drums, percussion)[/more]

[more=Technical info]
Input File: 01 - Hard To Kill.mp3
Channels : 2
Sample Rate : 44100
Precision : 16-bit
Duration : 00:05:28.42 = 14483278 samples = 24631.4 CDDA sectors
File Size : 13.1M
Bit Rate : 320k
Sample Encoding: MPEG audio (layer I, II or III)
Comments :
Title=Hard To Kill
Artist=Heaven & Earth
Album=Hard To Kill
Tracknumber=01
Year=2017
Genre=Hard Rock

[/more]

Register
(5) avkruchinin, Diflock, goreater, metaljosue, Mplast,
Aug 29 2017, 10:47:12 Black Oath - The Third Aeon (2011)
Отличная работа!!! Получил истинное удовольствие от прослушивания!!!
320+scans 104mb
Register
(6) cinik999, muskatnuss, Narasimha, thenecromancer, Un4given, Zaephar,
Nov 1 2016, 09:50:47 Kiss Of Death - Inferno Inc. (2004)
ЦИТАТА(avkruchinin @ Oct 24 2016, 19:50:09) *
Обновил бы кто ссылку, заранее благодарен 9.gif

А то чего-то в сети не найти.

обновил/re-up
(1) avkruchinin,
Sep 29 2016, 11:05:22 Airbourne - Breakin' Outta Hell (2016)
12 - Bombshell (Bonus Track)
Register
(2) DMIYUR, infiltrator,
Sep 21 2016, 03:12:40 Airbourne - Breakin' Outta Hell (2016)


*Artist: Airbourne
*Album: Breakin' Outta Hell
*Year: 2016
*Genre: Hard Rock
*Country: Australia
*Format: mp3@CBR320kbps
*Size: 94MB

Tracklist:
01. Breakin' Outta Hell 03:53
02. Rivalry 04:03
03. Get Back Up 03:37
04. It's Never Too Loud For Me 03:24
05. Thin The Blood 03:28
06. I'm Going To Hell For This 03:45
07. Down On You 04:18
08. Never Been Rocked Like This 03:07
09. When I Drink I Go Crazy 02:41
10. Do Me Like You Do Yourself 03:57
11. It's All For Rock N' Roll 03:34
******************************
Total playing time: 39:47

Preview 1

[more=Technical info]
Input File: 01 - Breakin' Outta Hell.mp3
Channels : 2
Sample Rate : 44100
Precision : 16-bit
Duration : 00:03:57.11 = 10456463 samples = 17783.1 CDDA sectors
File Size : 9.60M
Bit Rate : 324k
Sample Encoding: MPEG audio (layer I, II or III)
Comments :
Title=Breakin' Outta Hell
Artist=Airbourne
Album=Breakin' Outta Hell
Tracknumber=1/11
Year=2016
Genre=Hard Rock
Discnumber=1/1

[/more]

Register
(8) Darkness, Diflock, djsema4, DMIYUR, infiltrator, MEmethuselah, MеtalHead, sperminator,
Jan 27 2016, 11:58:44 Europe - War Of Kings (2015)
ЦИТАТА(Alexis The Best @ Jul 6 2015, 10:23:03) *
пытался внятно прослушать представленное официальное видео
Результат - не потянет
даже под пиво 21.gif
слишком блекло и слащаво

не соглашусь! они давно уже избавились от слащавости и делают крепкие, некоммерческие, можно сказать взрослые, альбомы. да и блеклым тут и не пахнет. под пиво говоришь не потянет? так ведь и разливное пиво тоже тарой блеклое, а вот содержимое, это уже другой вопрос! smile3.gif
(1) hammer,
Feb 24 2015, 08:11:42 Scorpions - Return To Forever (2015)
желания переслушать как-то не возникло...
(2) BleedingSun, Maestrovs,

12 Pages V   1 2 3 > » 
- Lo-Fi Version Support form
Copyrights and abuse reports form
Time is now: 7th July 2020 - 12:44:25