Welcome Guest ( Log In | Register )

История благодарностей участнику Dragonballz ::: Спасибо сказали: 102 раз(а)
Дата поста: В теме: За сообщение: Спасибо сказали:
May 26 2020, 18:24:52 Dool - Summerland (2020)
Дебютник не переплюнули, тут меньше драйва и угара. Но музло хорошее, авось "синдром утёнка" во мне развился. Ибо дебютник заслушан до дыр, а тут только два прогона пока
(1) Brann,
May 3 2020, 08:14:54 Nikola Cvetkovic - Nikola Cvetkovic Plays Katatonia (Vol. 2) | Piano Works (2020)
крутотень!
Только недавно наткнулся у себя а первую часть и с удовольствие послушал. а тут и вторую выпустил!
20.gif
(1) Ghostb,
Apr 8 2020, 17:46:35 Legend - Midnight Champion (2017)


*Artist: Legend
*Album: Midnight Champion
*Year: 2017
*Genre: Rock/Electronic
*Country: Iceland
*Format: mp3@CBR320kbps
*Size: 136MB

Tracklist:
1.Cryptid 07:07
2.Frostbite 05:28
3.Time to Suffer 05:28
4.Adrift 06:17
5.Captive 05:20
6.Midnight Champion 07:34
7.Scars 04:47
8.Liquid Rust 06:19
9.Gravestone 04:52
10Children of the Elements 06:18
******************************
Total playing time: 59:30



[more=Extended info][youtube]Xetx7Jvn7Cc[/youtube][/more]

[more=Technical info]
Input File: 02. Frostbite.mp3
Channels : 2
Sample Rate : 44100
Precision : 16-bit
Duration : 00:05:28.30 = 14478118 samples = 24622.6 CDDA sectors
File Size : 13.2M
Bit Rate : 321k
Sample Encoding: MPEG audio (layer I, II or III)
Comments :
Title=Frostbite
Artist=Legend
Album=Midnight Champion
Tracknumber=02
Year=2017
Genre=Alternative;Rock
Discnumber=1

[/more]

Register
(7) BladeOvDarkness, gwar, icingsugar, infiltrator, oldvarg, Olethros, xska,
Apr 7 2020, 18:34:22 Legend - Fearless (2012)


*Artist: Legend
*Album: Fearless
*Year: 2012
*Genre: Industrial/Rock/Synthpop
*Country: Iceland
*Format: mp3@CBR320kbps
*Size: 137MB

Tracklist:
1.Amazon War 05:55
2.Benjamite Bloodline 05:09
3.City 05:23
4.Sister 04:31
5.Violence 05:20
6.Runaway Train 07:08
7.Fearless 05:11
8.Sudden Stop 03:55
9.Devil In Me 05:53
10.Lust 06:11
11.Virgin 04:50
******************************
Total playing time: 59:26



[more=Extended info][youtube]bsZWePZLTMY[/youtube][/more]

[more=Technical info]
Input File: 03 - City.mp3
Channels : 2
Sample Rate : 44100
Precision : 16-bit
Duration : 00:05:22.71 = 14231555 samples = 24203.3 CDDA sectors
File Size : 13.2M
Bit Rate : 326k
Sample Encoding: MPEG audio (layer I, II or III)
Comments :
Title=City
Artist=Legend
Album=Fearless
Tracknumber=3
Year=2012
Genre=Electronic

[/more]

Register
(4) BladeOvDarkness, gwar, infiltrator, Olethros,
Mar 17 2020, 08:57:48 Myrkur - Folkesange (2020)
Послушал.
В одно ухо влетело, в другое вылетело. Ничего не осталось в итоге. Не такого я ожидал все же. не скажу что плохо, но как-то не цепляет... Такое в общем себе...
(2) Ghostb, infiltrator,
Feb 20 2020, 07:06:08 Carpenter Brut - Leather Teeth (2018)
Странно, я думал что он уже тут давно есть. казалось от сюда и тянул.
А вообще он и "пертурбатор" прям дико мне зашли. сколько потом слушал подобного ничего так не цепляло.
(2) infiltrator, plfan93,
Nov 20 2019, 19:33:40 Hteththemeth - Best Worst Case Scenario (2016)
Вот прям ОХРЕНЕННО!
Альбом лежал в папке "не прослушанное" очень долгое время, около года. Пробовал запускать пару раз, но что-то все время отвлекало от вдумчивого прослушивания, и в итоге два/три трека прослушивал в пол-уха и забивал. А тут стоял в пробке и рандом в магнитоле, через блютуз, с телефона они заиграли. Навигатор показывал "глухую" пробку на 35 минут. Ну и я решил воспользоваться и послушать полностью отключив рандом и включив с первого трека...
И тут... прям поперло!!! и музяка и вокал... в общем прям супер.Ничего лишнего, музыка интересная разнообразная, ну а вокальная часть на высоте! тут претензии я вообще не понимаю.
(1) Deze,
Feb 12 2019, 10:18:01 Rotting Christ - The Heretics (2019)
(4) BleedingSun, infiltrator, mardak666, terrano2006,
Jan 24 2018, 13:26:19 V:28 - Live In Arendal 2008 [live] (2018)
Ого они еще подают признаки жизни!?
Рад!
Но лучше бы новый материал выпустили!
(1) Chasm,
Dec 21 2016, 11:40:49 АСГАРДА РЕЙД V - Киев, 18 декабря 2016
Да просто Вам не нравится что на аватарке Курт Кобейн... вот и пристаете к человеку...
Что хочет, пусть и говорит, пока правила не нарушает, может выговориться и легче станет!))
Шучу... вообще не люблю лезть в политики и тд...
...если хочешь поссориться с человеком, поговори с ним о религии или политике... (с)
(1) Faust_Vulkan_16,
Nov 11 2016, 14:29:33 In Flames - Battles (2016)
(3) Fess, Kwaad, Thiarnan,
Oct 15 2016, 08:00:43 Burzum & Varg Vikernes 2010 - ...
Бурзум уже не торт... но слушается все равно нормально, хоть и не цепляет уже как раньше... А раньше трава зеленее была, пиво вкуснее и женщины охотнее...кхм..шли на "контакт".
А на философские размышления пох... у меня своя голова на плечах есть и в нем достаточно своих мыслей.
(2) infiltrator, SSWolf88,
Sep 13 2016, 17:19:15 Kypck - 3epo (2016)
Везде политика... normal_Homerdisgust3.png

Странно почему никто не критикует... SUMMONING... :"-как же так... вселенная Толкина... да еще и орки,Мордор...сколько великих людей и эльфов там погибло... - не самое лучшее сочетание.Лучше уж про forgotten realms петь!"
(4) fabeldyr, infiltrator, Un4given, vosmidesijatye,
Apr 11 2016, 11:26:02 SADIST во Львове
Это гиена
(1) vosmidesijatye,
May 29 2014, 19:03:05 Spiritual Front - Black Hearts In Black Suits (2013)


*Artist: Spiritual Front
*Album: Black Hearts In Black Suits
*Year: 2013
*Genre: Dark Folk/Neofolk
*Country: Italy
*Format: mp3@CBR320kbps
*Size: 228MB

Tracklist:
CD1:
01. Requiem Æternam
02. Life's Too Long
03. Martha
04. Eternally Yours
05. Veronika
06. The Only Sin
07. Dies Iræ
08. No Forgiveness
09. Erwig
10. I Just Can't Have Nothing
11. Lacrimosa
12. I Believe I Was Yours
13. Franz
14. Choose Death
15. Each Man Kills The Thing He Loves
CD2:
01. Nora
02. The Only Fault (Instrumental Version)
03. Remember If You Can (Voice & Piano Version)
04. Dona Eis Domine
05. Every Wild Desire (Instrumental Version)
06. Few Coins To Shut My Mouth (Voice & Strings Version)
CD3:
01. Vengeur
02. Blood On The Cat’s Neck (An Industrial Vision)
******************************
Total playing time: 1:40:06

[more=Extended info][youtube]4Fj8mPMphCI[/youtube][/more]

[more=Technical info]
Input File: 06. The Only Sin.mp3
Channels : 2
Sample Rate : 44100
Precision : 16-bit
Duration : 00:05:24.05 = 14290737 samples = 24304 CDDA sectors
File Size : 13.0M
Bit Rate : 321k
Sample Encoding: MPEG audio (layer I, II or III)
Comments :
Title=The Only Sin
Artist=Spiritual Front
Album=Black Hearts In Black Suits
Tracknumber=06
Year=2013
Genre=Dark Folk
Discnumber=1/3

[/more]

Register
(10) Buregon, Cartman223, dead can dance, Indamage, johnbutoff, RedSparrow, shial, Sky7Daemon, the_cleanser, Winterkalte,
Dec 14 2013, 10:00:16 Alghazanth - The Three-Faced Pilgrim (2013)
Просто кто-то еще не похмелялся сегодня,вот и видит во всем "говно"!))
(1) Oath19,
Sep 21 2013, 09:58:01 Anathema - Untouchable [live] (2013)
Я бы видос глянул....
(1) Voqx,
Feb 7 2013, 15:40:25 Caladan Brood - Echoes Of Battle (2013)
Summoning напоминает...надо скачать... true_black.gif dwarf-1.gif
(1) добрыйКот,
Mar 16 2012, 14:00:26 Blaze Bayley - The King Of Metal (2012)
Что-то...как-то..."ни о чем" 21.gif
Разочаровал...предыдущие куда мощнее и энергичнее!
(1) Deze,
Dec 17 2011, 10:31:15 Orfeu Rebelde - Cada Som Como Um Grito [ep] (2009) (7) -=Lion=-, dermarsoran, Evjenne, foma, kostja, Maestrovs, ssv,
May 31 2011, 09:25:56 Adramalech - Adramalech III [ep] (2011)
[
Register

21.gif
Да вы даже до (Г)Аншлага не дотягиваете с таким репертуаром...
А Музыка ни о чем smile2.gif
(1) 1984,
Apr 28 2011, 16:07:18 Fanarai - Uzsprinkit Pelnu! (2004)
[myspace]http://www.myspace.com/fanarai/music[/myspace]
(1) Akdkk,
Apr 5 2011, 08:55:25 Belong - Common Era (2011)
[myspace]http://www.myspace.com/belongmusic[/myspace]
(1) Akdkk,
Apr 5 2011, 08:53:58 My Own Private Alaska - My Own Private Alaska [ep] (2007)
[myspace]http://www.myspace.com/myownprivatealaska2[/myspace]
(1) Akdkk,
Apr 2 2011, 13:19:41 Stendeck - Scintilla (2011)
Круто!Понравилось!Надо всего его вытягивать)) 9.gif
(1) justdoom,

2 Pages V   1 2 >
- Lo-Fi Version Support form
Copyrights and abuse reports form
Time is now: 18th September 2020 - 13:49:38