Welcome Guest ( Log In | Register )

История благодарностей участнику Chasm ::: Спасибо сказали: 2949 раз(а)
Дата поста: В теме: За сообщение: Спасибо сказали:
Feb 15 2021, 13:56:11 Japanische Kampfhörspiele - Neues Aus Dem Halluzinogenozinozän (2021)
придурковато так
(1) atavist,
Feb 11 2021, 08:00:59 Azarath - Saint Desecration (2020)
Со временем альбом раскрылся и зашел наотлично.
(1) Nerevar,
Feb 8 2021, 22:46:44 Black Flux - Black Stream (2020)
Да, хороший альбом. Чем больше слушаю и расслушиваю его, тем больше он мне нравится.
(1) damage666,
Feb 2 2021, 10:54:24 Vile Impregnation - Vile Inseminations Pt. 1 [compilation] (2021)
[more=Extended info]Line - up:

Jose Grinder - Guitars, Vocals, Bass (ex-Venomous Supremacy, ex-Beaten and Butchered, ex-Christ Malformation, ex-Devour the Unborn, ex-Orchiectomy, ex-Sculpting Atrocity, ex-Anal Disembowelment, ex-Diminished)
Triston Cheshire - Bass (Angel Splitter, Infantectomy, ex-Buried in Pieces, Disorder, False Idol, Harvested Existence, ex-Avarice, ex-Homophobic Fecalpheliac, ex-Chesk)
Joseph Pelleter - Guitars (Agonizing Rectal Impalement, Loathing Existence, Molested, Most Low, ex-Strangled)

[/more]

брутальность хлопцев по краям зашкаливает (да да, слева - Male)
(1) insufferable,
Feb 1 2021, 15:22:22 Новости Death Metal направления
ЦИТАТА(Necrodictator @ 1st February 2021 - 15:08:51) *
Так вот же он по идее.

милаха с облоги )))
[youtube]-aom3QXONqU[/youtube]
(1) Occultas,
Jan 18 2021, 12:39:10 Grifteskymfning - Malignant Morningstar (2020)
под настроение - хорошо идёт, но зачем 4 одинаковых релиза за 2020й? я в принцмпе смог бы собрать хорошее ЕП из 1 песенки с каждого релиза и этого бы хватило с одной боевой еденицы. Ну наxрена, я не понимаю, столько?
(1) ent404,
Jan 11 2021, 19:31:19 Hate Forest - Hour Of The Centaur (2020)
ЦИТАТА(Metalass @ Jan 11 2021, 20:47:32) *
В целом прикольный альбом. По звуку у меня четкая ассоциация с Battles In The North, кроме конечно вокала, который имхо здесь совершенно дурацкий (как грится для любителей пердежа в трубу); ну и мелодика тут все же другая. Но указанный альбом имморталов у меня совсем не самый любимый, поэтому огромного восторга не вызывает.

Ранний Иммортал здесь и раньше инфоюенсил.
(1) Metalass,
Jan 11 2021, 16:53:01 Ordo ad Chao - Fear the Invisible (2020)

Release date:
August 24th, 2020

Лайн Ап

Ad∴miral∵Arma Bass (2019-present), Guitars (2019-present)
See also: ex-Sickrites, ex-Последний Совет, ex-Naag Asthi (live)
General Czarnota Drums (2019-present)
See also: Cage of Creation, Neon Scaffold, Затемно, ex-Rotting Heaven, ex-VTTA, ex-Beyond Ye Grave
The Black Colonel Vocals (2019-present)
See also: Blackdeath, Cthulhu, Nuclear Cthulhu, Cultus (live), ex-Black Draugwath, Cthulhu Biomechanical, ex-Authority, ex-Maggots, ex-VB-6420

ПС: всё равно уже есть везде
(1) wanderer73,
Dec 29 2020, 16:00:20 Soulburn - Noa's D'ark (2020)
И я не впечатлён
(2) infiltrator, WOLAND,
Dec 27 2020, 13:51:24 Новости Black-направления
ЦИТАТА(Daale @ Dec 26 2020, 13:59:41) *
New Grifteskymfning stuff




он блть издевается?
(3) ent404, infiltrator, Occultas,
Dec 27 2020, 12:09:28 Insidious Disease - After Death (2020)
В целом я ждал чего то другого. Такой тип дэта почти не слушаю последнее время (а может и зря).
Вообще альбом композиционно качественный, крепко сбит и , абстрагируясь от современных реалий, можно горячо под него похэдбенгить.


Норм. Может даже Good.
(2) as71, Samaritianin,
Dec 24 2020, 09:49:45 Cryfemal - With The Help Of The Devil (2004)
мужик с саблей невыносимо крут
(1) FlammenTod666,
Dec 23 2020, 18:18:41 Splattered Entrails - Ossuary [ep] (2020)


*Artist: Splattered Entrails
*Album: Ossuary [ep]
*Year: 2020
*Genre: Brutal Death Metal
*Country: United States
*Format: mp3@CBR320kbps
*Size: 61MB

Tracklist:
1. Usurper 03:29
2. Asbestolith 03:02
3. Bioliquidated 03:40
4. Organ Plumes 01:02
5. Cell of Contempt 03:23
6. Maleficide 03:17
7. Consuming Vengeance 02:49
8. To Facilitate the Descending 03:55
******************************
Total playing time: 24:37



[more=Technical info]
Input File: Splattered Entrails - Ossuary - 01 Usurper.mp3
Channels : 2
Sample Rate : 44100
Precision : 16-bit
Duration : 00:03:29.86 = 9254650 samples = 15739.2 CDDA sectors
File Size : 8.53M
Bit Rate : 325k
Sample Encoding: MPEG audio (layer I, II or III)
Comments :
Title=Usurper
Artist=Splattered Entrails
Album=Ossuary
Tracknumber=1
Year=2020
Genre=Slamming Brutal Death Metal

[/more]

Register
(11) Buregon, Hell_Is_Here, infiltrator, Occultas, Olethros, Rosen, SadistikSlayer, satanist666, vyacheslav, wreak, yuratroll,
Dec 23 2020, 17:10:50 Putrescent Seepage - Dead And Demented (2020)
ЦИТАТА(Metalass @ 24th August 2020 - 13:13:39) *
Что-то в этом есть. Хотя на первом трэке заскучал, когда входишь во вкус, начинают прослеживаться довольно неплохие ходы.

Вот и я сначала мимо пошел, не зашло. Но благодаря упоминанию в теме про Екхимозис. вернулся - и проняло 10.gif
(1) Occultas,
Dec 22 2020, 08:04:09 Ничто Не Вечно - Тонагвальбом (2020)
пост-совокметал/вк-метал
(1) Ghostb,
Dec 21 2020, 15:27:06 Imha Tarikat - Sternenberster (2020)
Обрадовавшись что есть такой нахваленый немецкий блэк, который я не слушал, я
, значит, обрадовался ещё раз.
Потом, значит, некоторое время не понимал что слушаю и как к этому относится.

Теперь не знаю как выключить.
(1) Daale,
Dec 9 2020, 18:51:25 Abigor - Totschläger (A Saintslayer's Songbook) (2020)
Вроде Hollenzwang вот только недавно был... И кстати там они уже по сути к классическим блэковым лекалам вернулись от прииндустриаленого периода.
Я вообще было подумал что они в прошлом году уже были, но то, оказалось, были N.E.D.

Abigor - это всегда интересно даже если какой то конкретно выпуск не задерживается в плеере.
Кажется они намекают что могут и в будущее и в прошлое.. Как было сказано "люди дня позавчерашнего и послезавтрашнего, нет у них ещё сегодня" и это прекрасно.
(2) Arcanum_Arcanorum, FullofHate,
Dec 7 2020, 14:54:21 Gorged Bile - Subconscious [ep] (2020)


*Artist: Gorged Bile
*Album: Subconscious [ep]
*Year: 2020
*Genre: Brutal Death Metal
*Country: Russian Federation
*Format: mp3@CBR320kbps
*Size: 40MB

Tracklist:
1. Gored to Death (guest solo by Ruslan Bikkinin) 03:31
2. Emaciated to Exhaustion 03:38
3. Your Ancestors Are Convicted of Excessive Adoration 02:48
4. Subconscious 03:43
5. Incinerated (Broken Hope cover) 02:34
******************************
Total playing time: 16:14



[more=Extended info]https://vk.com/gorgedbile

[/more]

[more=Technical info]
Input File: Gorged Bile - Subconscious (320) - 01. Gored to Death.mp3
Channels : 2
Sample Rate : 44100
Precision : 16-bit
Duration : 00:03:31.74 = 9337602 samples = 15880.3 CDDA sectors
File Size : 8.87M
Bit Rate : 335k
Sample Encoding: MPEG audio (layer I, II or III)
Comments :
Title=Gored to Death
Artist=Gorged Bile
Album=Subconscious (320)
Tracknumber=01
Year=2020
Genre=Metal

[/more]

Register
(14) Boozer, cesar, chipsgott, Corpuscul, Hell_Is_Here, infiltrator, Metalass, Olethros, randumbum, Rosen, RotAnus, satanist666, varlam4, wreak,
Dec 7 2020, 12:55:01 Carcass - Despicable [ep] (2020)
Пойдёт.
В раздел аристократичного easy-listening
(1) xax,
Dec 1 2020, 13:41:38 Ecchymosis - Ritualistic Intercourse Within Abject Surrealism (2020)
Вроде пожиже и прямолинейней 2016го, но один х.. монструозно и люто!
(2) Metalass, Occultas,
Dec 1 2020, 10:49:27 Deliquesce - Engineered Frailty [ep] (2020)


*Artist: Deliquesce
*Album: Engineered Frailty [ep]
*Year: 2020
*Genre: Brutal Death Metal
*Country: Australia
*Format: mp3@CBR320kbps
*Size: 41MB

Tracklist:
1. Eviscerated Through Flames 02:18
2. Forsaken Creation 01:40
3. The Thralls of Plutocracy 01:26
4. Devoured by Wires 01:16
******************************
Total playing time: 6:40



[more=Extended info]Ricki Drums (2019-present)
See also: Odiusembowel, Offal Stench, ex-EyeAmAnal, Carbon (Nzl), Shit! I'm Alive?
Adrian Cappelletti Guitars (2019-present)
See also: Anal Plug, Disentomb, Incinerated, Involuntary Convulsion, Lurid Panacea, The Seaford Monster, Odiusembowel (live), ex-EyeAmAnal, Shit! I'm Alive?, ex-Rawhead, ex-Ecchymosis (live)
James Cooper Vocals (2019-present)
See also: Excarnate

Сухо, сурово, прихардкорено.[/more]

[more=Technical info]
Input File: Deliquesce - Engineered Frailty (320) - 01. Eviscerated Through Flames.mp3
Channels : 2
Sample Rate : 48000
Precision : 16-bit
Duration : 00:02:18.00 = 6624000 samples ~ 10350 CDDA sectors
File Size : 11.2M
Bit Rate : 649k
Sample Encoding: MPEG audio (layer I, II or III)
Comments :
Title=Eviscerated Through Flames
Artist=Deliquesce
Album=Engineered Frailty (320)
Tracknumber=01
Year=2020
Genre=Metal

[/more]

Register
(11) grimoir, Hell_Is_Here, infiltrator, Marek, Olethros, Rosen, satanist666, sludge666, Storky, vyacheslav, wreak,
Nov 30 2020, 11:14:56 Khors - Where The Word Acquires Eternity (2020)
Классный альбом!
(1) smes,
Nov 30 2020, 10:57:48 Drowning The Light - On Astral Wings Of Wamphyric Shadows (2020)
Посмотрим, чего он тут наделал.. В Black Funeral в этот раз он налажал по моему...


ЦИТАТА(Cramloth @ 27th November 2020 - 21:41:48) *
6. On Astral Wings of Wamphyric Shadows 05:17
7. Melancholic Tides of Time (Black Magick of Wamphyri) 06:15

Уамфырик Уарабей gop_spb.gif

Edit: лучше я его в этом году проигнорю в целом..
(2) ent404, The_Hound,
Nov 28 2020, 13:11:56 Ondskapt - Grimoire Ordo Devus (2020)
Ondskapt остался собой. Ибо он есть Acerbus.
Альбом кажется полиричнее и поразнообразнее предшественника, что ему очень идёт по моему. Хотя ноги растут прямо из его нечестивых чресел. Впечатления мощные и положительные.

Варварство Евангелия Смерти и бурлящее безумие Проводника Дракона облачились в строгие тона и невнимательному слушателю может показаться, что проредили градус. Но
Видение и сочетание никуда не делись и сути не потеряли.
Данная (анти)творческая еденица изначально показала что пришла не веники вязать, делая банальный шведоблэкодэт, а с пониманием дела взяла крен к музыке великих и Ужасных Норвегов, особливо в неторопливо зловеще размашистых гитарных поступках и колоритном вокале Acerbusа. Вобщем вектор неторопливо но строго вниз в пучины Ада духовного и экзистенциального.
И сейчас все изобразительные средства на несколько тонов чернее чем у коллег по шведоцеху (мастермайнд никуда не делся). Мелодические линии и соло выражают трагизм и мрак, вокал Ацербуса , размеренные одиозные пассажи
Вообще слова излишни.
Кто не слышит, чтож, увы.

Сравнение со Свартсюн это вообще конечно))))

(6) Dirt_ORFEY, FullofHate, Infidel, infiltrator, rimfrost, vosmidesijatye,
Nov 27 2020, 08:17:01 Ecchymosis - Ritualistic Intercourse Within Abject Surrealism (2020)
О, это маститые трупожоры.
(2) infiltrator, Occultas,

58 Pages V   1 2 3 > » 
- Lo-Fi Version Support form
Copyrights and abuse reports form
Time is now: 25th February 2021 - 14:21:36