Welcome Guest ( Log In | Register )

История благодарностей участнику kostja ::: Спасибо сказали: 4932 раз(а)
Дата поста: В теме: За сообщение: Спасибо сказали:
Jul 5 2019, 12:00:04 Новости Thrash Metal направления
После Possessed, Xentrix и Sacred Reich решили воссоедениться и Acid Regn.
Новый альбом "The Age Of Entitlement" выходит 27 сентября.
http://www.blabbermouth.net/news/u-k-thras...of-entitlement/
(4) avather, neoatheist, slack, troll_swamp,
Jul 3 2019, 08:44:15 Sacred Reich - Alive 2019 [ep] (2019)
Ещё одна новая песня, в стиле Suicidal Tendencies!
[youtube]3zr1AU-GSy0[/youtube]
(1) Old Vyaine,
Jul 2 2019, 22:59:04 Sacred Reich - Alive 2019 [ep] (2019)
[youtube]awCqzmUVbQc[/youtube]
(4) avkruchinin, boby9052, HellDone, Old Vyaine,
Jul 2 2019, 22:34:15 Abbath - Outstrider (2019)
QUOTE(Extreme Brutal @ Jul 2 2019, 22:24:34) *
Excellent quality and 48000hz


1488.gif
48000Hz is just the sample rate.
The audio spectrum has an obvious cut-off at 15 kHz,
which corresponds to the real bit-rate of about 128 kbps.
(2) Faust_Vulkan_16, infiltrator,
Jul 2 2019, 19:35:22 Sacred Reich - Alive 2019 [ep] (2019)


*Artist: Sacred Reich
*Album: Alive 2019 [ep]
*Year: 2019
*Genre: Thrash Metal
*Country: United States
*Format: mp3@CBR320kbps
*Size: 45MB

Tracklist:
1. Awakening 04:08
2. Independent (Live) 03:58
3. One Nation (Live) 03:03
4. Who's to blame (Live) 03:42
5. Love... Hate (Live) 04:25
******************************
Total playing time: 19:16

[more=Extended info]"Awakening" is taken from the upcoming album "Awakening",
all live tracks are recorded at St. Vitus, Brooklyn New York, May 8th 2019.[/more]

[more=Technical info]
Input File: 01 - Awakening.mp3
Channels : 2
Sample Rate : 44100
Precision : 16-bit
Duration : 00:04:08.48 = 10957968 samples = 18636 CDDA sectors
File Size : 10.0M
Bit Rate : 323k
Sample Encoding: MPEG audio (layer I, II or III)
Comments :
Title=Awakening
Artist=Sacred Reich
Album=Alive 2019
Tracknumber=1/5
Year=2019
Genre=Thrash Metal

[/more]

Register
(19) asphyx5, avkruchinin, boby9052, Diflock, fabriziomagno, francodimerda, Golfzilla, gwar, infozahist, Kaamos, LightWizard, LUCASDEATH, Olethros, recber, Rosen, stumpheavyrock, thenecromancer, VALERY, wreak,
Jul 1 2019, 14:22:31 Alkonost - Ribbon In The Wind [single] (2019)
"Хладный огонь ночи / Cold Fire of the Night (2019)" раньше появлялся под названием
"Хладный Огнь Ночи / Chilly Fire Of The Night"
на альбоме На Крыльях Зова (2010)
(1) Shadechaser,
Jun 6 2019, 13:06:40 Xentrix - Bury The Pain (2019)
На японской версии будет ещё 1 бонус-трек:
11. Under the Blade (Twisted Sister cover)
https://www.metal-archives.com/albums/Xentr...the_Pain/780831
(1) Tino,
May 25 2019, 17:58:16 Nightrage - Wolf To Man (2019)
Японский бонус-трек. Japanese bonus track. 320 kbps.
13. Song from a Secret Garden (Secret Garden cover) 02:43
Register
(1) Old Vyaine,
May 24 2019, 17:15:24 Atrocity - Spell Of Blood/Blue Blood [single] (2019)


*Artist: Atrocity
*Album: Spell Of Blood/Blue Blood [single]
*Year: 2019
*Genre: Death Metal
*Country: Germany
*Format: mp3@CBR320kbps
*Size: 17MB

Tracklist:
1. Spell of Blood 03:43
2. Blue Blood (2019 Version) 03:33
******************************
Total playing time: 7:16

[more=Extended info]Includes one track taken from the last album "Okkult II" and a re-recorded version "Blue Blood" which was originally released in 1989.[/more]

[more=Technical info]
Input File: 02 Blue Blood (2019 Version).mp3
Channels : 2
Sample Rate : 44100
Precision : 16-bit
Duration : 00:03:33.91 = 9433211 samples = 16042.9 CDDA sectors
File Size : 8.74M
Bit Rate : 327k
Sample Encoding: MPEG audio (layer I, II or III)
Comments :
Title=Blue Blood (2019 Version)
Artist=Atrocity
Album=Spell of Blood / Blue Blood
Tracknumber=2/2
Year=2019
Genre=Death Metal
Discnumber=1/1

[/more]

Register
(16) Aresson, Deada, gwar, Hell_Is_Here, kluval, kryptor, Lanceatum, metalfaze, Olethros, Ostin Devil, Ostinato, Reverend, Rosen, stumpheavyrock, wanderer73, wreak,
May 23 2019, 16:21:26 Gaahls Wyrd - Gastir - Ghosts Invited (2019)
Кажется, в названии между AA пропущена буква Y 1488.gif
(4) Ash_1980, Ghostb, infiltrator, Reverend,
May 4 2019, 21:12:52 Possessed - Shadowcult [ep] (2019)
QUOTE(Weltenfeind666 @ May 4 2019, 20:08:52) *
reup pls


Here you go:
Register
(1) Weltenfeind666,
May 3 2019, 10:20:59 Possessed - Shadowcult [ep] (2019)
Забавно, когда о политике "жадных лейблов, делающих бабло" ноют те, кто сами всегда всё на халяву качают 1488.gif
(2) zolotoiskatel, Луч,
May 2 2019, 16:57:23 Possessed - Shadowcult [ep] (2019)


*Artist: Possessed
*Album: Shadowcult [ep]
*Year: 2019
*Genre: Death/Thrash Metal
*Country: United States
*Format: mp3@CBR320kbps
*Size: 51MB

Tracklist:
1. No More Room in Hell 04:50
2. Shadowcult 04:44
3. Seven Churches (live in Spain 2013) 03:25
4. Swing of the Axe (live in Spain 2013) 03:55
5. Abandoned (demo 2016) 05:27
******************************
Total playing time: 22:21

[more=Technical info]
Input File: 01 - No More Room In Hell.mp3
Channels : 2
Sample Rate : 44100
Precision : 16-bit
Duration : 00:04:49.87 = 12783091 samples = 21740 CDDA sectors
File Size : 11.6M
Bit Rate : 320k
Sample Encoding: MPEG audio (layer I, II or III)
Comments :
Title=No More Room In Hell
Artist=Possessed
Album=Shadowcult
Tracknumber=1/5
Year=2019
Genre=Death/Thrash Metal

[/more]

Register
(62) 6666666, Anhra Mainyu, Appie_Thrasher, Aresson, avkruchinin, babanguida, Ballisargon, biroutios, BlaspherionFLUL, canadaspaceman, cancer1974, caro, dermarsoran, desekrator, dulak, Emhyr var Emreis, Femto, fishish, Fryz, Fulijine, Galactus, Golfzilla, gwar, infiltrator, infozahist, Kaamos, Lanceatum, LazarShadow, Lord Noctua, lucifix, Lyrch, marilin, Max696, metala, METALHUNTER, metaljosue, muskatnuss, Orgasmik, Ostinato, pensiata, pichileon, Pinhead666, potap03020100, Proteus_666, rabiasocial, RAMBLA, ripper33, Rosen, s810ic1, sethurius, Shadowman, stumpheavyrock, Tino, vader69, VALERY, victorinox, WarmasterChorus, wgs73, wtk.412, WX419, ZA670, Луч,
Apr 30 2019, 14:14:54 Новости Thrash Metal направления
[youtube]vFgiw7XOiGo[/youtube]
(4) infiltrator, METALHUNTER, Old Vyaine, troll_swamp,
Apr 26 2019, 10:25:05 Океан Мессиобожателей на Невском, или Голосовалка за лучший альбом 2018 года, Плэй-офф
Правильно, Обшкуре место только в прогресятской куче второй категории.
(2) Ghostb, infiltrator,
Apr 23 2019, 15:39:46 Новости Black-направления
[youtube]i6h4b-Jm8iU[/youtube]
(4) infiltrator, nadin85, Occultas, ripper33,
Apr 18 2019, 13:53:20 Новости Folk/Pagan/Viking
20 апреля выходит новый альбом "Four-Faced" украинской группы Чур (Chur).
[youtube]Y5FlCAKZRDw[/youtube]
[youtube]FmPUMril_AI[/youtube]
(1) Old Vyaine,
Apr 13 2019, 14:00:14 Moonspell - Scorpion Flower [single] (2019)
QUOTE(Arseniy @ Apr 12 2019, 22:40:22) *
А по сабжу — переиздали бы они нормально акустический концерт 1998-го года, так я бы лично им свои кровные евро занёс. Очень уж редкая запись, но красоты неописуемой.


У меня есть акустическая запись 2010, если это подойдёт.
Register


P.S. A, та я смотрю, и тут кто-то уже выкладывал:
Moonspell & Opus Diabolicum - Soombra [bootleg] (2010)
(1) templeofdoometal,
Apr 10 2019, 13:45:03 KGB - Rised By Death (1992)
Насколько надо быть лохом, чтобы сделать такую ошибку как "rised".
Ещё же в школе учат неправильные глаголы: rise - rose - risen.
(1) Deze,
Mar 31 2019, 16:00:45 Black Earth - Path Of The Immortal [compilation] (2019)
Старые треки только ремастированные, но я особой разницы не услышал.
(2) Aresson, infiltrator,
Mar 29 2019, 22:12:46 Black Earth - Path Of The Immortal [compilation] (2019)


*Artist: Black Earth
*Album: Path Of The Immortal [compilation]
*Year: 2019
*Genre: Melodic Death Metal
*Country: Sweden
*Format: mp3@CBR320kbps
*Size: 184MB

Tracklist:
1. Burn On The Flame 04:27
2. The Immortal 03:41
3. Dead Inside 04:11
4. Bury Me An Angel 03:40
5. Stigmata 02:12
6. Sinister Mephisto 05:47
7. Demoniality 01:20
8. Transmigration Macabre 04:10
9. Angelclaw 04:03
10. Bridge Of Destiny 07:44
11. Life Infernal 05:36
12. Beast Of Man 03:36
13. Dark Insanity 03:17
14. Diva Satanica 03:44
15. Pilgrim 04:31
16. Black Earth 06:39
17. Silverwing 04:06
18. Time Capsule 01:09
19. Fields Of Desolation'99 06:03
******************************
Total playing time: 1:19:56

[more=Extended info]Arch Enemy line-up of 1996.
Two brand new songs, "Burn On The Flame" and "Life Infernal" (2018)[/more]

[more=Technical info]
Input File: 01. Burn On The Flame.mp3
Channels : 2
Sample Rate : 44100
Precision : 16-bit
Duration : 00:04:27.28 = 11787004 samples = 20045.9 CDDA sectors
File Size : 10.7M
Bit Rate : 321k
Sample Encoding: MPEG audio (layer I, II or III)
Comments :
Title=Burn On The Flame
Artist=Black Earth
Album=Path Of The Immortal
Tracknumber=1/19
Year=2019
Genre=Metal
Discnumber=1/1

[/more]

Register
(30) 6666666, acundof, AHBAnep, Aresson, BugEyes, DenisKov, Emhyr var Emreis, fallen, Hell_Is_Here, infiltrator, legion01, metalwoman, Mogozoz, nnnmmm, Old Vyaine, Ostinato, ripper33, Rosen, savaman, spiritualdecay666, stumpheavyrock, SymbyoticEntity, talismanFS, TeamatSE, Tino, VALERY, wn129aa, wreak, zhol, zhw8tz1,
Mar 27 2019, 19:26:16 Новости Thrash Metal направления
Зентрикс выпустят новый альбом "Bury the Pain" этим летом, впервые с 1996 года!
XENTRIX To Release 'Bury The Pain' Album This Summer
(4) clublen, hammer, infiltrator, Old Vyaine,
Mar 27 2019, 16:56:22 Кто какие альбомы ждёт? Albums you are waiting for
QUOTE(avather @ Mar 27 2019, 13:36:22) *
Judas Priest "Definitely"


"Definetly" - это не название альбома 1488.gif , а "обязательно" из интервью.
Rob Halford: There’s definitely a new Judas Priest album on the way

Judas Priest frontman Rob Halford says the band have begun discussions about a new studio album and he says it will “definitely” happen.

Перевод: Роб сказал, что альбом "обязательно" выйдет.
(3) Ghostb, infiltrator, vosmidesijatye,
Mar 21 2019, 20:23:43 Cellar Darling - The Spell (2019)
Материал скорее в духе The Gathering времён Mandylion / Nighttime Birds.
(1) Ghostb,
Mar 18 2019, 11:52:52 Сатурналии (Антипопсовая голосовалка) Часть 10 - 2015-2017, тур 2
Sadist скатился после Above the Light в унылую прогресятину, поэтому всё правильно. bye.gif
(1) Alexis The Best,

32 Pages V   1 2 3 > » 
- Lo-Fi Version Support form
Copyrights and abuse reports form
Time is now: 16th July 2019 - 03:36:01