Welcome Guest ( Log In | Register )

История благодарностей участнику kostja ::: Спасибо сказали: 5064 раз(а)
Дата поста: В теме: За сообщение: Спасибо сказали:
Oct 10 2019, 17:50:54 Pyogenesis
Новый альбом "A Silent Soul Screams Loud" 24.01.2020
http://hamburgrecords.com/pyogenesis/recor...-loud-digi.html


Tracklist:

Death Is No Harm
Mother Bohemia
I Can’t Breathe (Prologue)
I Can’t Breathe (Monologue)
High Old Times
Modern Prometheus
Survival Of The Fittest
Will I Ever Feel The Same
The Capital (A Silent Soul Screams Loud)
(1) Old Vyaine,
Oct 1 2019, 14:51:05 Disastrous Murmur - Santo Subito (2019)
Когда я слышу название Disastrous Murmur, у меня возникает такая ассоциация
(13) andreikun, ChrisK, Indamage, infiltrator, judaz, Leshiy666, Metalass, Paradayz, plfan93, Samaritianin, sjawanord, Tular, vosmidesijatye,
Oct 1 2019, 12:04:03 Новости Folk/Pagan/Viking

[youtube]88M3ys7XMqU[/youtube]
(1) Old Vyaine,
Sep 26 2019, 20:00:40 Wednesday 13 - Necrophaze (2019)


*Artist: Wednesday 13
*Album: Necrophaze
*Year: 2019
*Genre: Heavy Metal/Horror Punk
*Country: United States
*Format: mp3@CBR320kbps
*Size: 98MB

Tracklist:
1 - Necrophaze (feat. Alice Cooper) 04:01
2 - Bring Your Own Blood 03:40
3 - Zodiac 04:06
4 - Monster (feat. Cristina Scabbia) 03:29
5 - Decompose 04:25
6 - Be Warned (feat. Jeff Clayton) 01:27
7 - The Hearse 04:09
8 - Tie Me a Noose 04:16
9 - Life Will Kill Us All 04:24
10 - Bury the Hatchet 02:32
11 - Necrophaze Main Theme (End-Credits) 01:39
12 - Animal (Fuck Like a Beast) (W.A.S.P. cover) (feat. Alexi Laiho) 03:05
******************************
Total playing time: 41:13

[more=Technical info]
Input File: 12 - Animal (Fuck Like a Beast).mp3
Channels : 2
Sample Rate : 44100
Precision : 16-bit
Duration : 00:03:05.33 = 8172877 samples = 13899.5 CDDA sectors
File Size : 7.71M
Bit Rate : 333k
Sample Encoding: MPEG audio (layer I, II or III)
Comments :
Title=Animal (Fuck Like a Beast) (WASP cover) (feat. Alexi Laiho)
Artist=Wednesday 13
Album=Necrophaze
Tracknumber=12/12
Year=2019
Genre=Horror Punk

[/more]

Register
(10) artscald, chipsgott, gwar, Kasper969, metala, oldvarg, Olethros, Rosen, wreak, Сварог Барг,
Sep 20 2019, 16:41:24 Новости Black-направления
Новый проэкт Грега Макинтоша (Paradise Lost)
[youtube]4ZGsNENJyW4[/youtube]
(8) DarkHorde, infiltrator, Lux, nikolay81, Occultas, Old Vyaine, snorr, vovenom,
Sep 15 2019, 14:13:30 Entombed A.D. - Bowels Of Earth (2019)
11. Back at the Funny Farm (Motörhead cover)
Register

(3) Aresson, Old Vyaine, plfan93,
Sep 15 2019, 13:09:37 The 69 Eyes - West End (2019)
Новое видео совместно с Dani Filth'ом.
[youtube]n7etEF3sNyA[/youtube]
(1) DMIYUR,
Sep 6 2019, 21:46:14 Новости Heavy/Power металла
QUOTE(Old Vyaine @ Sep 6 2019, 21:18:20) *
А должен быть?! 17.gif


В январе 2020
https://www.blabbermouth.net/news/demons-wi...n-january-2020/
(2) Old Vyaine, скептик,
Sep 4 2019, 13:56:50 Новости Thrash Metal направления
Новый EP Sodom "Out Of The Frontline Trench" 22 ноября 2019, новый альбом в 2020.

Track listing:

01. Genesis 19 (brand new track taken from the upcoming 2020 album)
02. Down On Your Knees (exclusive to this release)
03. Out Of The Frontline Trench (exclusive to this release)
04. Agent Orange (re-recorded with the current lineup)
05. Bombenhagel (live in Gelsenkirchen 2018)

(2) Emm Human, infiltrator,
Sep 2 2019, 09:21:58 Wolvenbloed (NLD)
Официальная аббревиатура Нидерландов - NL или NLD
https://www.artlebedev.ru/country-list/
a NDL - это Norwegian Defence League 1488.gif
https://en.wikipedia.org/wiki/NDL
(1) Krosis,
Aug 30 2019, 14:47:45 Entombed A.D. - Bowels Of Earth (2019)
На https://www.nuclearblast.de/en/products/ton...s-of-earth.html
можно послушать семпл 11. Back at the Funny Farm (Motörhead cover) 20.gif
(1) Old Vyaine,
Aug 30 2019, 09:44:56 Entombed A.D. - Bowels Of Earth (2019)
QUOTE(Фо @ Aug 29 2019, 21:18:18) *
Кстати, а слово "ентемд" очень нравится?


Вроде Entombed всегда "Энтумд" читалось, а не "ентемд".

QUOTE(Lux @ Aug 30 2019, 03:44:40) *
И ни в одном архиве нет одиннадцатой песни 13.gif


да, очень хотелось бы послушать 11. Back at the Funny Farm (Motörhead cover)
(3) Amadeus, Anger, infiltrator,
Aug 24 2019, 10:49:13 Whiskey Ritual & Forgotten Tomb - A Tribute To GG Allin [split] (2011)
Register
(2) thenecromancer, Wail,
Aug 12 2019, 18:22:12 My Dying Bride - A Harvest Of Dread [compilation] (2019)
Трек 7. The Bitterness and the Bereavement 07:38 с сингла Unreleased Bitterness (1993)
тут пристутсвует с гораздо лучшим звуком,
нежели чем на As the Flower Withers (1992) и компиляшке Anti-Diluvian Chronicles (2005).
(1) Occultas,
Aug 10 2019, 11:11:25 My Dying Bride - A Harvest Of Dread [compilation] (2019)
QUOTE(Olek @ Aug 10 2019, 09:37:32) *
Comes with a 12" 92 page hardback book.

Containing 5 discs of rarities, early works, previously unheard pre-production demos, band favorites, and live audio.

Disc 1 & 2: Band favorites
Disc 3: Early releases and pre-production tracks
Disc 4: Pre-productions and rarities
Disc 5: Live in Voorst, The Netherlands 1997


Look into the extended info in the header. bye.gif
(2) NecroButcher, Occultas,
Aug 9 2019, 18:50:59 Lacrimas Profundere - Bleeding The Stars (2019)
Disc 2
1. Breathing Souls 03:26
2. Stay 03:49
3. After All Those Infinities (Piano Version) 03:28
4. Celestite Woman (Piano Version) 03:33
5. The Reaper (Piano Version) 03:38
6. Mother Of Doom (Piano Version) 04:03


Register
(1) AndreFrancis,
Aug 9 2019, 17:09:50 My Dying Bride - A Harvest Of Dread [compilation] (2019)


*Artist: My Dying Bride
*Album: A Harvest Of Dread [compilation]
*Year: 2019
*Genre: Doom Metal
*Country: United Kingdom
*Format: mp3@CBR320kbps
*Size: 720MB

Tracklist:
Disc 1
1. Vast Choirs 08:15
2. The Thrash of Naked Limbs 06:13
3. The Snow in My Hands 07:09
4. Black Voyage 09:46
5. Apocalypse Woman 07:37
6. The Light at the End of the World 10:36
7. Feel the Misery 06:19

Disc 2
1. Like a Perpetual Funeral 08:32
2. Two Winters Only 09:01
3. My Hope, the Destroyer 06:45
4. I Cannot Be Loved 07:04
5. A Doomed Lover 07:54
6. You Are Not the One Who Loved Me 06:48
7. And Then You Go 09:22

Disc 3
1. Symphonaire Infernus et Spera Empyrium (Demo) 08:56
2. Vast Choirs (Demo) 07:38
3. The Grief of Age (Demo) 04:11
4. Catching Feathers (Demo) 03:44
5. God Is Alone 04:59
6. De Sade Soliloquy 04:42
7. The Bitterness and the Bereavement 07:38
8. The Sexuality of Bereavement 08:06
9. A Sea to Suffer In 06:16
10. From Darkest Skies 08:17
11. Your Shameful Heaven 07:02
12. The Cry of Mankind (Studio instrumental) 07:13

Disc 4
1. All Swept Away 04:19
2. Like Gods of the Sun 05:59
3. The Whore, the Cook, the Mother 09:43
4. An Unforgettable Journey 05:29
5. I Believe 07:06
6. On Monolith 05:08
7. Glorious Midnight 06:01
8. The Fool 05:24
9. The Child of Eternity 04:16
10. Scarborough Fair 06:21
11. Failure (Swans cover) 06:46
12. Hollow Cathedra 06:43

Disc 5
1. From Darkest Skies 07:57
2. The Cry of Mankind 06:42
3. The Dark Caress 05:45
4. For You 07:14
5. A Kiss for Remember 07:28
6. Like Gods of the Sun 06:29
7. All Swept Away 04:16
8. Your Shameful Heaven 06:12
******************************
Total playing time: 5:15:21

[more=Extended info]DISC 1 - Andrew Craighan choices

DISC 2 - Aaron Stainthorpe choices

DISC 3 - Early releases and pre-production tracks
Tracks 1-4 Towards the Sinister - demo 1991
Tracks 5-6 God is Alone - 7" 1991
Track 7 - Unreleased Bitterness - 7" 1993
Track 8 - Collector's Club - 7" 1994
Tracks 9-11 The Angel & The Dark River early production demos November 1994
Track 12 - The Angel & The Dark River instrumental album recording

DISC 4 - Pre-productions and rarities
Tracks 1-2 - Like Gods of the Sun early production demos June 1996
Tracks 3-8 - 34,788%...Complete early production demos February 1998
4. An Unforgettable Journey is a demo version of "Under Your Wings and Into Your Arms"
5. I Believe is a demo version of "Der Überlebende"
6. On Monolith is a demo version of "Follower"
7. Glorious Midnight is a demo version of "Apocalypse Woman"
8. The Fool is a demo version of "The Stance of Evander Sinque"
Tracks 9-12 - Additional rarities

DISC 5- Live at Rocknoise, Voorst 1997[/more]

[more=Technical info]
Input File: 12 - Hollow Cathedra.mp3
Channels : 2
Sample Rate : 44100
Precision : 16-bit
Duration : 00:06:43.43 = 17791439 samples = 30257.5 CDDA sectors
File Size : 16.2M
Bit Rate : 321k
Sample Encoding: MPEG audio (layer I, II or III)
Comments :
Title=Hollow Cathedra
Artist=My Dying Bride
Album=A Harvest Of Dread
Tracknumber=12
Year=2019
Genre=Doom Metal
Discnumber=4

[/more]

Register
(46) AHBAnep, airatishe, Aresson, artscald, Branis, Brutal, cancer1974, cavanaghbg, craP_cillA, deatholocaust, Disillusion, dulak, Evgen79, eyes0re, Femto, foma, Hell_Is_Here, infiltrator, infozahist, khestanow3001, kluval, kolar666, KVRT, Lanceatum, marilin, Occultas, Olek, Olethros, Ostinato, popen13, Reverend, ripper33, robertho777, Rosen, RUDACHUR, Samaritianin, sarcophagus, Shadechaser, supremo, tamerz, tOmV, VALERY, wreak, Zenial, Герб, Язва,
Aug 8 2019, 20:57:54 My Dying Bride
На рутрекере появился FLAC "A Harvest Of Dread" (2019)
Register


Кто-нибудь может сделать mp3-рип?
(2) Alexis The Best, Samaritianin,
Jul 5 2019, 12:00:04 Новости Thrash Metal направления
После Possessed, Xentrix и Sacred Reich решили воссоедениться и Acid Regn.
Новый альбом "The Age Of Entitlement" выходит 27 сентября.
http://www.blabbermouth.net/news/u-k-thras...of-entitlement/
(5) avather, infiltrator, neoatheist, slack, troll_swamp,
Jul 3 2019, 08:44:15 Sacred Reich - Alive 2019 [ep] (2019)
Ещё одна новая песня, в стиле Suicidal Tendencies!
[youtube]3zr1AU-GSy0[/youtube]
(1) Old Vyaine,
Jul 2 2019, 22:59:04 Sacred Reich - Alive 2019 [ep] (2019)
[youtube]awCqzmUVbQc[/youtube]
(4) avkruchinin, boby9052, HellDone, Old Vyaine,
Jul 2 2019, 22:34:15 Abbath - Outstrider (2019)
QUOTE(Extreme Brutal @ Jul 2 2019, 22:24:34) *
Excellent quality and 48000hz


1488.gif
48000Hz is just the sample rate.
The audio spectrum has an obvious cut-off at 15 kHz,
which corresponds to the real bit-rate of about 128 kbps.
(2) Faust_Vulkan_16, infiltrator,
Jul 2 2019, 19:35:22 Sacred Reich - Alive 2019 [ep] (2019)


*Artist: Sacred Reich
*Album: Alive 2019 [ep]
*Year: 2019
*Genre: Thrash Metal
*Country: United States
*Format: mp3@CBR320kbps
*Size: 45MB

Tracklist:
1. Awakening 04:08
2. Independent (Live) 03:58
3. One Nation (Live) 03:03
4. Who's to blame (Live) 03:42
5. Love... Hate (Live) 04:25
******************************
Total playing time: 19:16

[more=Extended info]"Awakening" is taken from the upcoming album "Awakening",
all live tracks are recorded at St. Vitus, Brooklyn New York, May 8th 2019.[/more]

[more=Technical info]
Input File: 01 - Awakening.mp3
Channels : 2
Sample Rate : 44100
Precision : 16-bit
Duration : 00:04:08.48 = 10957968 samples = 18636 CDDA sectors
File Size : 10.0M
Bit Rate : 323k
Sample Encoding: MPEG audio (layer I, II or III)
Comments :
Title=Awakening
Artist=Sacred Reich
Album=Alive 2019
Tracknumber=1/5
Year=2019
Genre=Thrash Metal

[/more]

Register
(23) Aresson, artscald, asphyx5, avkruchinin, boby9052, Diflock, fabriziomagno, francodimerda, Golfzilla, Grev, gwar, infozahist, Kaamos, LightWizard, LUCASDEATH, Mogozoz, Olethros, recber, Rosen, stumpheavyrock, thenecromancer, VALERY, wreak,
Jul 1 2019, 14:22:31 Alkonost - Ribbon In The Wind [single] (2019)
"Хладный огонь ночи / Cold Fire of the Night (2019)" раньше появлялся под названием
"Хладный Огнь Ночи / Chilly Fire Of The Night"
на альбоме На Крыльях Зова (2010)
(1) Shadechaser,
Jun 6 2019, 13:06:40 Xentrix - Bury The Pain (2019)
На японской версии будет ещё 1 бонус-трек:
11. Under the Blade (Twisted Sister cover)
https://www.metal-archives.com/albums/Xentr...the_Pain/780831
(1) Tino,

33 Pages V   1 2 3 > » 
- Lo-Fi Version Support form
Copyrights and abuse reports form
Time is now: 17th October 2019 - 01:49:59