Welcome Guest ( Log In | Register )

История благодарностей участнику kostja ::: Спасибо сказали: 5341 раз(а)
Дата поста: В теме: За сообщение: Спасибо сказали:
Mar 29 2020, 17:59:48 Мастер - Мастер Времени (2020)
(13) 6666666, Buregon, Bzth, Diflock, FullofHate, infiltrator, plfan93, SAPOGi, SatanicPanzer, Tular, Un4given, Yarri, Сварог Барг,
Mar 20 2020, 11:40:52 Ville Valo - Gothica Fennica Vol. 1 [ep] (2020)


*Artist: Ville Valo
*Album: Gothica Fennica Vol. 1 [ep]
*Year: 2020
*Genre: Gothic Rock
*Country: Finland
*Format: mp3@CBR320kbps
*Size: 38MB

Tracklist:
1. Salute the Sanguine 05:08
2. Run Away from the Sun 04:13
3. Saturnine Saturnalia 06:41
******************************
Total playing time: 16:02

[more=Extended info][youtube]XzF9yHDxCXI[/youtube]
[youtube]7MsWvXrZGhw[/youtube]
[youtube]bKyCBPJO_bw[/youtube][/more]

[more=Technical info]
Input File: 01. Salute the Sanguine.mp3
Channels : 2
Sample Rate : 44100
Precision : 16-bit
Duration : 00:05:07.90 = 13578346 samples = 23092.4 CDDA sectors
File Size : 12.5M
Bit Rate : 325k
Sample Encoding: MPEG audio (layer I, II or III)
Comments :
Title=Salute the Sanguine
Artist=VV
Album=Gothica Fennica Vol. 1 - EP
Tracknumber=1/3
Year=2020
Genre=17

[/more]

Register
(16) BlackPanda, Cartman223, DenisKov, Evjenne, gwar, infiltrator, MAYH, murayne, nadin85, oldvarg, Olethros, pulotto, ripper33, sweetredka, vosmidesijatye, Woosad,
Mar 9 2020, 15:00:36 Crematory - Unbroken (2020)
А вот и бонус диск подоспел.

CD2: Bonus CD
01. Cry About 4:24
02. Revelations 4:25
03. When the Children Cry (White Lion Cover) 4:19
04. Unbroken (Onesidezero remix) 5:29
05. Unbroken (feat. Equilibrium) 4:31
06. Like the Tides (feat. Distain) 4:07


320 kbps, 64 Mb.
Register
(8) Aresson, Demonologist, DMIYUR, Hell_Is_Here, infiltrator, leks, Shadechaser, varlam4,
Mar 7 2020, 16:05:25 Новости направления MBM| Symphonic Black Metal| Post-BM
[youtube]6HwLeofAMss[/youtube]
(3) Battaleon, infiltrator, Thiarnan,
Mar 5 2020, 13:20:07 Crematory - Unbroken (2020)
Ещё есть такая версия с бонус-диском:
https://www.metal-archives.com/albums/Crema...Unbroken/819576

Disc 2
1. Cry About
2. Revelations
3. When the Children Cry (White Lion cover)
4. Unbroken (remix)
(3) Battaleon, infiltrator, Kasper969,
Feb 21 2020, 22:56:57 Новости направления MBM| Symphonic Black Metal| Post-BM
8 мая на Century Media выходит новый альбом Naglfar "Cerecloth".
Записан под руководством Дана Сванё.
https://www.metal-archives.com/albums/Naglf...erecloth/827555



Tracklist:

1. Cerecloth
2. Horns
3. Like Poison for the Soul
4. Vortex of Negativity
5. Cry of the Serafim
6. The Dagger in Creation
7. A Sanguine Tide Unleashed
8. Necronaut
9. Last Breath of Yggdrasil
(2) avather, infiltrator,
Jan 30 2020, 15:58:08 Новости Thrash Metal направления
Новый альбом Testament "Titans Of Creation" выходит 3 апреля

track listing:

1 Children of the Next Level 6:13
2 WWII 4:48
3 Dream Deceiver 4:58
4 Night of the Witch 6:32 (превью на apple music)
5 City of Angels 6:43
6 Ishtars Gate 5:09
7 Symptoms 4:37
8 False Prophet 4:54
9 The Healers 4:23
10 Code of Hammurabi 4:52
11 Curse of Osiris 3:24
12 Catacombs 2:01



(5) DarkHorde, Emm Human, infiltrator, Samaritianin, troll_swamp,
Jan 10 2020, 13:00:34 Новости Gothic/Symphonic-направления
Новый альбом Crematory "Unbroken" 6 марта 2020.

01. Unbroken
02. Awaits Me
03. Rise And Fall
04. Behind The Wall
05. The Kingdom
06. Inside My Heart
07. The Downfall
08. My Dreams Have Died
09. I Am
10. Broken Heroes
11. A Piece Of Time
12. Voices
13. Abduction
14. As Darkness Calls
15. Like The Tides

[youtube]mzcZ54w7_9A[/youtube]

(2) avather, quicksand,
Jan 8 2020, 18:20:54 Suidakra - The Eternal Chronicles [ep] (2013)
QUOTE(varlam4 @ Jan 8 2020, 18:10:54) *
Перезалейте плз


Перезалито:
Register
(2) SaintVitus, varlam4,
Jan 5 2020, 18:19:13 Kreator - For The Hordes [ep] (2019)
Небольшая статистика по студийным альбомам и зальникам у Kreator, начиная с 2001 года.

Violent Revolution Full-length 2001
Live Kreation Live album 2003
Enemy of God Full-length 2005
At the Pulse of Kapitulation - Live in East Berlin 1990 Video 2008
Hordes of Chaos Full-length 2009
Terror Prevails - Live at Rock Hard Festival Live album 2010
Terror Prevails - Live at Rock Hard Festival, Pt. 2 Live album 2012
Phantom Antichrist Full-length 2012
Dying Alive Live album 2013
Live Antichrist Live album 2017
Gods of Violence Full-length 2017
Live at Dynamo Open Air 1998 Live album 2019
London Apocalypticon - Live at The Roundhouse Live album 2020

Даёшь и дальше по 2 зальника между студийными альбомами! 1488.gif
И самое главное, что песни на зальниках то всё одни и теже!
(4) DMIYUR, Ghostb, infiltrator, Samaritianin,
Jan 4 2020, 17:43:47 Kreator - For The Hordes [ep] (2019)


*Artist: Kreator
*Album: For The Hordes [ep]
*Year: 2019
*Genre: Thrash Metal
*Country: Germany
*Format: mp3@CBR320kbps
*Size: 43MB

Tracklist:
1. Hordes of Chaos (live from Masters of Rock) 05:29
2. Fallen Brother (live from Chile) 06:00
3. Flag of Hate (live from London) 03:34
4. Earth Under the Sword 03:33
******************************
Total playing time: 18:36

[more=Extended info]Free promo CD from Legacy Mag. 124 (January/February 2020)
"Hordes Of Chaos" is a live track, recorded at the Masters Of Rock. Taken from the upcoming release "London Apocalypticon - Live At The Roundhouse"
"Fallen Brother" is a live track, recorded live in Chile. Taken from the upcoming release "London Apocalypticon - Live At The Roundhouse"
"Flag Of Hate" is a live track, recorded live in London. Taken from the upcoming release "London Apocalypticon - Live At The Roundhouse"
"Earth Under The Sword" is a Japan edition bonus track, taken from the "Gods Of Violence" album.[/more]

[more=Technical info]
Input File: 03 - Flag Of Hate (live from London).mp3
Channels : 2
Sample Rate : 44100
Precision : 16-bit
Duration : 00:03:33.87 = 9431491 samples = 16040 CDDA sectors
File Size : 8.61M
Bit Rate : 322k
Sample Encoding: MPEG audio (layer I, II or III)
Comments :
Title=Flag Of Hate (live from London)
Artist=Kreator
Album=For The Hordes EP
Tracknumber=3/4
Year=2019
Genre=Thrash Metal

[/more]

Register
(28) acundof, AHBAnep, Aresson, BERZERK, boby9052, cancer1974, caro, Diflock, djsema4, Firefrost, Froze, Golfzilla, gwar, Hell_Is_Here, infiltrator, kimkayoung, metaljosue, Mogozoz, morbidangelo, Old Vyaine, recber, Rosen, sepultura39, sergsazan, stumpheavyrock, supremo, WX419, ZA670,
Jan 2 2020, 09:20:38 Tod Huetet Uebel - Nomen Nescio (2020)
Да, это ещё tot huetet' ueben' crazy.gif
(2) Shadowman, Варонъ,
Dec 31 2019, 16:29:19 Varathron - Walpurgisnacht (1995)
2019 remastered version

1. Tleilaxu (The Unborn Child) 05:59
2. Cassiopeia's Ode 08:00
3. The Dark Hills 03:57
4. Mestigoth 04:48
5. Birthrise of the Graven Image 05:18
6. Redeunt Saturnia Regna 01:36
7. Under the Sight of Horus 06:38
8. Somewhere Beyond Seas 04:55
9. Sic Transit Gloria Mundi 01:12
bonus tracks:
10. Deep Beneath an Ancient Dominion 04:50
11. Birthrise of the Graven Image (live) 05:19


Register
(8) Kristaliar, milosdjor, Mist13Signifier, Occultas, thenecromancer, varg-38ru, vasiljev_sergej, Wail,
Dec 23 2019, 10:03:52 Xytras - Sedunum (2014)


*Artist: Xytras
*Album: Sedunum
*Year: 2014
*Genre: Neoclassical
*Country: Switzerland
*Format: mp3@CBR320kbps
*Size: 102MB

Tracklist:
1. Sedunum 03:14
2. Ad Gloriam 04:18
3. Elsewhere 02:15
4. Dreams of Yore 03:13
5. Celestial City 04:59
6. Eternal Peace 03:32
7. For Victory 02:33
8. Through Ages 04:23
9. In Aeternum 04:27
10. In Memoriam 03:03
11. Timeless 02:24
12. Once 01:58
13. Babylon 04:30
******************************
Total playing time: 44:49

[more=Technical info]
Input File: 03 - Elsewhere.mp3
Channels : 2
Sample Rate : 44100
Precision : 16-bit
Duration : 00:02:14.04 = 5911340 samples = 10053.3 CDDA sectors
File Size : 5.36M
Bit Rate : 320k
Sample Encoding: MPEG audio (layer I, II or III)
Comments :
Title=Elsewhere
Artist=Xytras
Album=Sedunum
Tracknumber=3
Year=2014
Genre=Ambient

[/more]

Register
(10) cancer1974, gwar, Hell_Is_Here, Lord_Hip, Olethros, recber, TDM, the_cleanser, wtk.412, zyklon,
Dec 23 2019, 09:59:14 Entombed A.D. - Metal Inquisition [single] (2019)


*Artist: Entombed A.D.
*Album: Metal Inquisition [single]
*Year: 2019
*Genre: Death Metal
*Country: Sweden
*Format: mp3@CBR128kbps
*Size: 5MB

Tracklist:
1. Metal Inquisition (Piledriver cover) 04:59
******************************
Total playing time: 4:59



[more=Technical info]
Input File: Entombed - Metal Inquisition (Pile Driver cover).mp3
Channels : 2
Sample Rate : 44100
Precision : 16-bit
Duration : 00:04:59.03 = 13187003 samples = 22426.9 CDDA sectors
File Size : 4.79M
Bit Rate : 128k
Sample Encoding: MPEG audio (layer I, II or III)
Comments :
Title=Metal Inquision (Pile Driver cover)
Artist=Entombed A.D.
Album=Metal Inquision
Tracknumber=1
Year=2019
Genre=Metal

[/more]

Register
(12) Aresson, boby9052, canadaspaceman, dulak, gwar, infiltrator, infozahist, morbidangelo, Olethros, Rosen, uk82, wanderer73,
Dec 23 2019, 09:54:17 Lawnmower Deth - Unleashed In The East... Midlands [live] (2018)


*Artist: Lawnmower Deth
*Album: Unleashed In The East... Midlands [live]
*Year: 2018
*Genre: Thrash Metal
*Country: United Kingdom
*Format: mp3@CBR320kbps
*Size: 63MB

Tracklist:
1. Intro 01:31
2. Spook Perv Happenings in the Snooker Hall 03:10
3. Jaggered Wedge 01:51
4. Flying Killer Cobs from the Planet Bob 03:23
5. Icky Ficky 01:22
6. Sumo Rabbit and His Inescapable Trap of Doom 03:13
7. Egg Sandwich 00:47
8. Watch Out Grandma Here Comes a Lawnmower 02:01
9. Urban Surfer 125 04:18
10. Sheepdip 03:17
11. Maim Mower Maim 02:11
******************************
Total playing time: 27:04

[more=Extended info]Recorded live at Download Festival 2018.[/more]

[more=Technical info]
Input File: 07 - Egg Sandwich.mp3
Channels : 2
Sample Rate : 44100
Precision : 16-bit
Duration : 00:00:46.81 = 2064453 samples = 3510.97 CDDA sectors
File Size : 1.96M
Bit Rate : 335k
Sample Encoding: MPEG audio (layer I, II or III)
Comments :
Title=Egg Sandwich
Artist=Lawnmower Deth
Album=Unleashed in the East... Midlands!
Tracknumber=7/11
Year=2018
Genre=Thrash Metal

[/more]

Register
(15) Aresson, canadaspaceman, chipsgott, Diflock, gwar, infiltrator, infozahist, kimkayoung, METALHUNTER, Mogozoz, morbidangelo, Olethros, Rosen, vam1972, Xutun,
Dec 17 2019, 18:06:52 Dublin Death Patrol - DDP 4 Life (2007)
QUOTE(smes @ Dec 17 2019, 15:17:52) *
Обновите ссылки


Обновил
Register
(2) jesterfiend, smes,
Dec 13 2019, 14:59:43 Carcass
Новый сингл Under The Scalpel Blade (2019)
(1) Occultas,
Dec 10 2019, 20:46:25 Rawside - Your Life Gets Crushed (2019)


*Artist: Rawside
*Album: Your Life Gets Crushed
*Year: 2019
*Genre: Hardcore
*Country: Germany
*Format: mp3@CBR320kbps
*Size: 88MB

Tracklist:
1. Intro 01:12
2. Mr. President 03:07
3. Ich will mehr 02:30
4. Your Life Gets Crushed 03:43
5. Das Feuer 03:24
6. World Falls Down 03:13
7. Totgesagte leben länger 02:24
8. Dance Machine 03:22
9. Xodus 02:24
10. (Nie) Wieder Frei 03:05
11. Xenophobia 02:48
12. Die letzte Schlacht 04:05
13. Wahlboykott 01:45
******************************
Total playing time: 37:02



[more=Extended info]https://www.discogs.com/artist/371922-Rawside[/more]

[more=Technical info]
Input File: 02 - Rawside - Mr. President.mp3
Channels : 2
Sample Rate : 44100
Precision : 16-bit
Duration : 00:03:06.48 = 8223548 samples = 13985.6 CDDA sectors
File Size : 7.69M
Bit Rate : 330k
Sample Encoding: MPEG audio (layer I, II or III)
Comments :
Title=Mr. President
Artist=Rawside
Album=Your Life Gets Crushed
Tracknumber=2/13
Year=2019
Genre=Hardcore

[/more]

Register
(3) Olethros, popen13, sludge666,
Dec 10 2019, 19:29:37 Agalloch - The White [ep] (2008)
Remastered version, 2019

1. The Isle of Summer 03:58
2. Birch Black 02:40
3. Hollow Stone 04:15
4. Pantheist 07:17
5. Birch White 03:44
6. Sowilo Rune 05:40
7. Summerisle - Reprise 04:55
8. Where Shade Once Was (bonus track) 05:13

Register


(2) eternald, Fryz,
Dec 10 2019, 19:26:28 Agalloch - The Grey [ep] (2004)
Remastered version, 2019

1. The Lodge (Dismantled) 13:07
2. Odal (Nothing remix) 07:50
3. ShadowDub (How Beautiful is a Funeral) (bonus track) 06:49

Register


(1) Fryz,
Nov 23 2019, 15:04:20 Sodom - Out Of The Frontline Trench [ep] (2019)
Забабахал такой super EP для тех, кому не нравится слушать по отдельности все три последние EP

new material 2018-2019
01 - Partisan 05:23
02 - Conflagration 04:44
03 - Lifeline (Sacrilege cover) 04:03
04 - Genesis XIX 06:43
05 - Down on Your Knees 05:05
06 - Out of the Frontline Trench 04:37


Rare tracks:
07 - Predatory Instinct 04:47
08 - Inside My Crosshairs 04:55


Re-recorded 2019
09 - Agent Orange (Re-Recorded) 06:04

Live at the Rock Hard Festival 2018
10 - One Step Over The Line 04:49
11 - Tired & Red 06:29
12 - Bombenhagel 06:18


Register
(7) avkruchinin, craP_cillA, Golodomor, Occultas, ringworm revenant, vosmidesijatye, Язва,
Nov 19 2019, 19:41:01 Xentrix - Bury The Pain (2019)
Японская версия (IUCP-16309)

1. Bury the Pain 06:36
2. There Will Be Consequences 04:09
3. Bleeding Out 04:34
4. The Truth Lies Buried 06:38
5. Let the World Burn 05:14
6. The Red Mist Descends 05:12
7. World of Mouth 04:55
8. Deathless and Divine 04:06
9. The One You Fear 05:39
10. Evil by Design 04:08
11. Under the Blade (Twisted Sister cover) 04:15

Register
(4) Aresson, avkruchinin, Meizu, Old Vyaine,
Nov 8 2019, 15:58:10 Sodom - Chosen By The Grace Of God [ep] (2019)
Новый сингл
[youtube]LnLzL6NBB2c[/youtube]
(3) avkruchinin, Golodomor, Occultas,
Nov 6 2019, 21:13:33 Sodom
этот добавьте, будьте добры:
Sodom - Chosen By The Grace Of God [ep] (2019)

И отдельно загрузил ещё одну редкую песню Sodom - Elke (die Ärzte cover) с GötterDÄmmerung (1997) (compilation):
Register
(3) avkruchinin, infiltrator, thenecromancer,

34 Pages V   1 2 3 > » 
- Lo-Fi Version Support form
Copyrights and abuse reports form
Time is now: 6th April 2020 - 00:04:26