Welcome Guest ( Log In | Register )

История благодарностей участнику kostja ::: Спасибо сказали: 5595 раз(а)
Дата поста: В теме: За сообщение: Спасибо сказали:
Jul 30 2020, 15:35:14 Новости Death Metal направления
В ноябре выходит новый альбом Loudblast "Manifesto".

(1) sabr,
Jul 25 2020, 10:32:30 In Flames - Clayman 2020 (Re-Recorded) [ep] (2020)
Хорошо ещё, что перезапись не в стиле Synth Pop/Art Pop 1488.gif
(1) Emm Human,
Jul 24 2020, 22:45:38 Ulver - Nostalgia [single] (2020)
Щас я внесу свою ложку дёгтя в это болото мёда.
Нашёл чисто ради любопытства данную песенку на youtube.
Бл*ядь, что я сейчас только что услышал?
Каким образом этот 3.1415здец имеет отношение к metalarea?
Как могла группа, когда то игравшая black metal, снизойти до подобной х*иты?
(3) Chasm, infiltrator, tormoz,
Jul 9 2020, 17:11:42 Samael - Transcendence [single] (2020)
У меня самые любимые Ceremony of Opposites и Passage.
А на Eternal уже перебор с электроникой, на мой вкус.
(2) Alexis The Best, sperminator,
Jul 8 2020, 17:26:36 Samael - Transcendence [single] (2020)


*Artist: Samael
*Album: Transcendence [single]
*Year: 2020
*Genre: Dark Metal
*Country: Switzerland
*Format: mp3@CBR320kbps
*Size: 9MB

Tracklist:
1. Transcendence 03:45
******************************
Total playing time: 3:45

[more=Extended info][youtube]0GcZitYDpPs[/youtube][/more]

[more=Technical info]
Input File: 01 - Transcendence.mp3
Channels : 2
Sample Rate : 44100
Precision : 16-bit
Duration : 00:03:44.32 = 9892512 samples = 16824 CDDA sectors
File Size : 8.97M
Bit Rate : 320k
Sample Encoding: MPEG audio (layer I, II or III)
Comments :
Title=Transcendence
Artist=Samael
Album=Transcendence (single)
Tracknumber=1
Year=2020
Genre=Dark Metal

[/more]

Register
(36) Aresson, BERZERK, Bloodn Lord, boby9052, cancer1974, caro, chipsgott, Dark Sage, Demonologist, Evjenne, gwar, Hell_Is_Here, infiltrator, jollo, judaz, kluval, kryptor, KuPYCR, Lanceatum, Legacy100, legion01, lucifix, Lucju, martintrue, metala, Olethros, paganheart, Rosen, SAPOGi, soulflesh, supremo, the_cleanser, toly1917, valafar, vasiljev_sergej, Woosad,
Jul 2 2020, 14:32:01 Новости Black-направления
7 августа выходит ремастированное переиздание демки Emperor "Wrath of the Tyrant"
https://www.metal-archives.com/albums/Emper...e_Tyrant/860445

Треклист:

Disc 1 - Wrath of the Tyrant / As the Shadows Rise EP
1. Introduction 02:20
2. Ancient Queen 03:17
3. My Empire's Doom 04:34
4. Forgotten Centuries 02:51
5. Night of the Graveless Souls 02:56
6. Moon over Kara-Shehr 04:25
7. Witches Sabbath 05:41
8. Lord of the Storms 02:10
9. Wrath of the Tyrant 03:58
10. Ancient Queen (As the Shadows Rise EP)
11. Lord of the Storms (As the Shadows Rise EP)
12. Witches Sabbath (As the Shadows Rise EP)

Disc 2 - Rehearsal 1992 / Rehearsal 1994
1. Ancient Queen (Rehearsal 1992)
2. My Empire's Doom (Rehearsal 1992)
3. Forgotten Centuries (Rehearsal 1992)
4. Night of the Graveless Souls (Rehearsal 1992)
5. Moon over Kara-Shehr (Rehearsal 1992)
6. Witches Sabbath (Rehearsal 1992)
7. Lord of the Storms (Rehearsal 1992)
8. Wrath of the Tyrant (Rehearsal 1992)
9. Moon over Kara-Shehr (Rehearsal 1994)
(3) infiltrator, nekroport, Occultas,
Jun 30 2020, 21:05:38 Cynic - Focus (1993)
QUOTE(Фо @ Jun 30 2020, 13:38:28) *
Что то вот я и смотрю - как Хьюман вышел, он мне сразу отвратным показался.


Такая же фигня.
До этого слушал Scream Bloody Gore и Leprosy и они мне очень нравились.
Spiritual Healing как то насторожил, что что-то уже не то.
Ну и потом вышел этот Хьюман и я вообще разочаровался в группе.

Сабжевый альбом Цыника целиком слушал лишь один раз в 1993 году,
мне сразу показалось, что в нём есть нечто такое гадкое, пидpское.
Это только потом всплыло, что всё это музло было сочинено во время траханья в *опу Масвидаля Райнертом.

Ну и сейчас любой звук с этого альбома вызывает у меня рвотные позывы.

(1) Фо,
Jun 22 2020, 08:53:49 Кто какие альбомы ждёт? Albums you are waiting for
Обновление ожидаемых альбомов:

SepticFlesh "Infernus Sinfonica MMXIX" 31.07 (live)
Ensiferum "Thalassic" 10.07
Carcass "Torn Arteries" 07.08
Finntroll "Vredesvävd" 14.08
Nonexist "Like the Fearless Hunter" 28.08
Katavasia "Magnus Venator" 04.09
Draconian "Under a Godless Veil" 30.10


Из тех, что уже записаны, но пока без даты выхода - The Offspring и Kreator.
(1) Emm Human,
Jun 13 2020, 15:12:49 Лучшая песня в истории HELLOWEEN!
QUOTE(Old Vyaine @ Jun 12 2020, 19:31:25) *
Я вот, кстати, негодую, что непримиримый моторный чёс оригинала они теперь разделили на риффы и вживую играют как будто так и было.


Так в оригинале How many tears вообще балладой была
[youtube]HedfNt0pqvU[/youtube]
(3) sabr, Yarri, Фо,
Jun 11 2020, 14:59:09 Bpmd - American Made (2020)
Фактически, это мог бы был быть очередной альбом Overkill или Metal Allegiance.
Состав:
Bobby Blitz (Overkill) - vocals
Mike Portnoy (Dream Theater) - drums
Phil Demmel (Vio-lence) - guitars
Mark Menghi (Metal Allegiance) - bass
(1) boby9052,
Jun 11 2020, 12:43:18 Bpmd - American Made (2020)


*Artist: BPMD
*Album: American Made
*Year: 2020
*Genre: Heavy/Thrash Metal
*Country: United States
*Format: mp3@CBR320kbps
*Size: 91MB

Tracklist:
01 - Wang Dang Sweet Poontang (Ted Nugent cover) 03:35
02 - Toys in the Attic (Aerosmith cover) 03:20
03 - Evil (Cactus cover) 03:13
04 - Beer Drinkers & Hell Raisers (ZZ Top) 03:44
05 - Saturday Night Special (Lynyrd Skynyrd cover) 04:51
06 - Tattoo Vampire (Blue Öyster Cult) 02:35
07 - D.O.A. (Van Halen cover) 04:35
08 - Walk Away (The James Gang cover) 04:13
09 - Never in My Life (Mountain cover) 05:20
10 - We're an American Band (Grand Funk Railroad cover) 03:26
******************************
Total playing time: 38:52

[more=Extended info][youtube]KvoqtNeQ5uQ[/youtube]
[youtube]wirtQmNL4k4[/youtube]
[youtube]IZl0wbUcSeg[/youtube][/more]

[more=Technical info]
Input File: 06 - Tattoo Vampire (Blue Öyster Cult).mp3
Channels : 2
Sample Rate : 44100
Precision : 16-bit
Duration : 00:02:34.84 = 6828400 samples = 11612.9 CDDA sectors
File Size : 6.36M
Bit Rate : 328k
Sample Encoding: MPEG audio (layer I, II or III)
Comments :
Title=Tattoo Vampire (Blue Öyster Cult)
Artist=BPMD
Album=American Made
Tracknumber=06/10
Year=2020
Genre=Metal

[/more]

Register
(18) boby9052, cast_iron, gwar, infiltrator, infozahist, Jorn777, Lukittaz, Mares, Mogozoz, multizwilling, Oldskulthrasher, Olethros, Rosen, Rover, sadmannn, tschunioronbeer, varlam4, Wail,
Jun 1 2020, 19:57:49 Новости направления MDM
In Flames перезаписали альбом Clayman к 20-летнему юбилею.

[youtube]3PYyEyrGpQk[/youtube]
(1) hate_eternal,
May 28 2020, 22:39:05 Alestorm - Curse Of The Crystal Coconut (2020)
Клипы весёленькие

[youtube]c4LNJfFjEvw[/youtube]
[youtube]749wEN2cuFA[/youtube]
(3) boby9052, DarkHorde, infiltrator,
May 26 2020, 18:22:44 S-Tool - Exitus (2020)
у Poisonblack очень хороший альбом Lust Stained Despair, который максимально похож на Sentenced.
Потом начали всякую муть уже играть.
[youtube]FadLLu2xoV8[/youtube]
(1) Ghostb,
May 25 2020, 19:22:08 Новости Folk/Pagan/Viking
[youtube]jMvcg7IPPP0[/youtube]
(2) infiltrator, Old Vyaine,
May 22 2020, 22:37:29 Various Artists - Rock Hard 300 - 9 Rare Songs Von 9 Legenden [compilation] (2012)
QUOTE(Wail @ May 22 2020, 21:17:27) *
Nevermore - The Purist's Drug
Is missing


I'm sorry, have no idea why it happened.
The archive along with the missing song has been just re-uploaded by me,
check it out.
(2) MetalAreola, Wail,
May 21 2020, 11:22:37 Various Artists - Rock Hard 300 - 9 Rare Songs Von 9 Legenden [compilation] (2012)


*Artist: Various Artists
*Album: Rock Hard 300 - 9 Rare Songs Von 9 Legenden [compilation]
*Year: 2012
*Genre: Various Metal
*Country: Many
*Format: mp3@CBR320kbps
*Size: 125MB

Tracklist:
1. Bobby & Gerre - Die Zwei von der Tanke 3:35
2. Kreator - Phantom Antichrist (Edit) 4:31
3. Blind Guardian - I'm Alive (Demo 1991) 5:18
4. Arch Enemy - The Zoo (The Scorpions cover) 4:41
5. Amon Amarth - Children Of The Grave (Black Sabbath cover) 5:22
6. Nevermore - The Purist's Drug 4:45
7. In Extremo - I Disappear (Metallica cover) 4:15
8. Heaven Shall Burn - True Belief (Paradise Lost cover) 4:34
9. Iced Earth - Dante's Inferno (Version 2011) 17:15
******************************
Total playing time: 54:16

[more=Technical info]
Input File: 01 - Bobby & Gerre - Die Zwei von der Tanke.mp3
Channels : 2
Sample Rate : 44100
Precision : 16-bit
Duration : 00:03:35.64 = 9509724 samples = 16173 CDDA sectors
File Size : 8.77M
Bit Rate : 325k
Sample Encoding: MPEG audio (layer I, II or III)
Comments :
Title=Die Zwei von der Tanke
Artist=Bobby & Gerre
Album=Rock Hard - 9 rare Songs von 9 Legenden
Tracknumber=1/9
Year=2012
Genre=Metal

[/more]

Register
(8) craP_cillA, gwar, Olethros, robertho777, Rosen, senecazm, varlam4, Wail,
May 18 2020, 21:35:38 Natural Spirit - Під Серпом Часу (2020)
Натуральный спирт!
(6) BleedingSun, infiltrator, judaz, paganheart, Shadowman, Thiarnan,
May 8 2020, 08:55:14 In Extremo - Kompass Zur Sonne (2020)
Ещё один клип, с вокалистом Amon Amarth.
[youtube]tj-grz0Dg6A[/youtube]
(3) BleedingSun, boby9052, infiltrator,
May 8 2020, 08:14:56 In Extremo - Kompass Zur Sonne (2020)


*Artist: In Extremo
*Album: Kompass zur Sonne
*Year: 2020
*Genre: Folk Metal
*Country: Germany
*Format: mp3@CBR320kbps
*Size: 129MB

Tracklist:
01. Troja (3:32)
02. Kompass zur Sonne (3:29)
03. Lügenpack (3:43)
04. Gogiya (feat. Russkaja) (4:08)
05. Salva Nos (4:05)
06. Schenk nochmal ein (4:55)
07. Saigon und Bagdad (3:55)
08. Narrenschiff (4:43)
09. Wer kann segeln ohne Wind (feat. Johan Hegg) (3:49)
10. Reiht euch ein ihr Lumpen (3:36)
11. Biersegen (4:10)
12. Wintermärchen (3:43)
13. 7 Brüder (Bonus Track) (3:57)
14. Saigon und Bagdad (Club Mix / Bonus Track) (3:53)
******************************
Total playing time: 55:38

[more=Extended info][youtube]kcHIwJi0CwM[/youtube]
[youtube]C_emLxk9O44[/youtube][/more]

[more=Technical info]
Input File: 01 - Troja.mp3
Channels : 2
Sample Rate : 44100
Precision : 16-bit
Duration : 00:03:31.66 = 9334118 samples = 15874.4 CDDA sectors
File Size : 8.52M
Bit Rate : 322k
Sample Encoding: MPEG audio (layer I, II or III)
Comments :
Title=Troja
Artist=In Extremo
Album=Kompass zur Sonne
Tracknumber=1/14
Year=2020
Genre=Folk Metal

[/more]

Register
(44) 0x13, apostol_13, Aresson, atavist, Ballisargon, Black Cat, Bloodn Lord, boby9052, Cartman223, chon, Dark Sage, DenisKov, dermarsoran, Druidir, dunkelvarg, Faust2016, gwar, infiltrator, JPV, leks, Lord Noctua, MarcAnton4, mardak666, multizwilling, Nata, Paradayz, Penetralia, Phlebotomized, refleks22, Requiescat, Rosen, RotAnus, Rover, SaintVitus, SAPOGi, SatanicPanzer, senecazm, sergsazan, Shadechaser, talismanFS, v.v.m, VALERY, varlam4, Сварог Барг,
May 7 2020, 15:01:53 Various Artists - Legacy 126 [compilation] (2020)


*Artist: Various Artists
*Album: Legacy 126 [compilation]
*Year: 2020
*Genre: Various Metal
*Country: Many
*Format: mp3@CBR192kbps
*Size: 104MB

Tracklist:
1. Eisregen - Leblos 03:56
2. Clear Sky Nailstorm - The Deep Dark Black 05:15
3. Bitterness - Forward Into The Past 03:59
4. Angelcrypt - Martyred Soul 03:34
5. Teeth Of Lamb - One Way Trip To Hell 05:01
6. Serpent Omega - Through The Gates 03:56
7. Memoryfx - Kingdom 05:01
8. Bloodred - Hör Den Tod 04:55
9. Inherently Lost - Senseless Sacrifice 04:15
10. Impalement - The Impalement 05:18
11. Sarkoptic - Beastmode: Engage 04:35
12. Totenlegion - Menschenkind 04:32
13. Apodikt - Entsorgung 04:14
14. Zero Degree - Purified 04:20
15. Roots Of Unrest - King Dracul 03:16
16. River Stole Gods - Naether 04:05
17. Kaiser And The Machines Of Creation - Institute 04:20
******************************
Total playing time: 1:14:32

[more=Extended info]Free CD from the latest issue of Legacy Mag (May-June 2020).[/more]

[more=Technical info]
Input File: 01 - Eisregen - Leblos.mp3
Channels : 2
Sample Rate : 44100
Precision : 16-bit
Duration : 00:03:56.01 = 10408173 samples = 17701 CDDA sectors
File Size : 5.74M
Bit Rate : 195k
Sample Encoding: MPEG audio (layer I, II or III)
Comments :
Title=Leblos
Artist=Eisregen
Album=Legacy 126
Tracknumber=1/17
Year=2020
Genre=Metal

[/more]

Register
(10) chipsgott, infiltrator, infozahist, N1K1T1N, Occultas, Rosen, senecazm, Sjelekval, stumpheavyrock, varlam4,
May 6 2020, 17:38:17 Alestorm - The Treasure Chest [ep] (2020)


*Artist: Alestorm
*Album: The Treasure Chest [ep]
*Year: 2020
*Genre: Folk/Power Metal
*Country: United Kingdom
*Format: mp3@CBR320kbps
*Size: 49MB

Tracklist:
1. Treasure Chest Party Quest 04:18
2. Tortuga 03:25
3. Drink (Live 2019) 03:41
4. Nancy the Tavern Wench (Live 2019) 05:06
5. Fucked with an Anchor (Live 2019) 04:43
******************************
Total playing time: 21:13

[more=Technical info]
Input File: 02 - Tortuga.mp3
Channels : 2
Sample Rate : 44100
Precision : 16-bit
Duration : 00:03:24.56 = 9021096 samples = 15342 CDDA sectors
File Size : 8.25M
Bit Rate : 322k
Sample Encoding: MPEG audio (layer I, II or III)
Comments :
Title=Tortuga
Artist=Alestorm
Album=The Treasure Chest EP
Tracknumber=2/5
Year=2020
Genre=Metal

[/more]

Register
(25) ace73pq, AHBAnep, boby9052, Cartman223, chipsgott, djsema4, Druidir, dulak, gwar, infiltrator, kluval, Lukittaz, Mogozoz, multizwilling, Olethros, randumbum, Rosen, senecazm, sergsazan, Shagarth21, talismanFS, tt2008, varlam4, wn129aa, Сварог Барг,
May 3 2020, 10:37:17 Gardenian
Вот я ещё собрал редкие композиции:

1 - A Dangerous Meeting (Mercyful Fate cover) 03:59 (taken from the Mercyful Fate Tribute 1997)
2 - Cut Throat (Sepultura cover) 03:51 (taken from the Sepultural Feast: A Tribute to Sepultura 1998)
3 - Gotta Give It Up (Thin Lizzy cover) 04:50 (taken from the Emerald: A Tribute to the Wild One 2003)
4 - Remembered 04:06 (unreleased 2003)

Register
(1) Olethros,
May 2 2020, 15:42:09 Therion - Cover Songs 1993-2007 [compilation] (2020)
QUOTE(Un4given @ May 2 2020, 08:33:33) *


Угу, тоже заметил, что взято 8 песен оттуда, плюс
02. Summernight City (2001) 04:54
03. Crying Days (2000) 04:31

Могли бы на худой конец ещё добавить этот кавер:
[youtube]04a_HTRVchQ[/youtube]
(1) boby9052,
Apr 24 2020, 11:49:46 Trivium - What The Dead Men Say (2020)
Вот вам бонус.
Register

[youtube]9QvYT47O8UQ[/youtube]
(4) Druidir, infiltrator, lyukon, satanist666,

35 Pages V   1 2 3 > » 
- Lo-Fi Version Support form
Copyrights and abuse reports form
Time is now: 3rd August 2020 - 16:12:43