Welcome Guest ( Log In | Register )

История благодарностей участнику raw ::: Спасибо сказали: 2174 раз(а)
Дата поста: В теме: За сообщение: Спасибо сказали:
Apr 15 2019, 19:41:58 Lugnasad - Smell Of A Grey Sore (2012)
Register
(4) dermarsoran, kim666, MortSathynr, thenecromancer,
Feb 23 2017, 16:04:43 Anomalie - Between The Light (2014)
320:
Register

Лось:
Register
(3) artscald, kolar666, varg-38ru,
Jan 26 2017, 16:45:44 Mustan Kuun Lapset - Viimeinen Laulu Kuolemasta (2007)
320:
Register
(6) kim666, kimkayoung, kluval, Ostinato, varg-38ru, varlam4,
Jan 26 2017, 16:45:20 Mustan Kuun Lapset - Talvenranta (2005)
Register
(6) dermarsoran, kim666, kluval, Ostinato, varlam4, Woosad,
Sep 28 2016, 16:59:18 Graveborn - Seeds Of Life (2016)
Register
(1) Ostinato,
Sep 26 2016, 17:46:08 Varg - Das Ende Aller Lügen (2016)
Register
(1) Zenial,
Sep 26 2016, 17:40:28 Mors Silens - Call Of The Nether Realm (2016)
Register
(1) Pentium.Disel,
Sep 26 2016, 17:38:43 An Argency - Through Existence (2016)
Register
(1) Pentium.Disel,
Sep 26 2016, 17:23:42 Nordlumo - Embraced By Eternal Night (2016)
Register
(1) ddarkthrone,
Sep 25 2016, 17:35:44 Eldamar - The Force Of The Ancient Land (2016)
Лось:
Register
(6) BRUTAL06, ddarkthrone, eyes0re, Ludwig Hagen, varg-38ru, Zahrim,
Sep 25 2016, 15:50:22 Deathrace - Human Rise (2015)
Register
(1) Genuine Thrashiac,
Sep 21 2016, 17:03:13 Windfaerer - Tenebrosum (2015)
Register
(1) DMIYUR,
Sep 21 2016, 16:50:57 Oremuz - Melody Of Sanctimony (2011)
Register
(1) Sanctus,
Sep 9 2016, 17:21:14 Shadow Of Sadness - SOS (2015)
Slice Of Shit...
(1) MeatWolf,
Aug 16 2016, 16:19:57 V-Khaoz - Grey (2015)
Register
(2) Lanceatum, Zenial,
Aug 14 2016, 16:55:21 Solifvgae - Avenoir (2016)
Register
(2) artscald, kim666,
Aug 14 2016, 16:41:44 Deos - .​.​.​To Depart (2015)
320:
Register


Register
(1) SAPOGi,
Jul 19 2016, 20:16:15 Havukruunu - Metsänpeitto [demo] (2013)
Register
(9) AndreFrancis, dagger666, ddarkthrone, fabriziomagno, kim666, Necroeire, thenecromancer, Velkaarn, wrath082,
Jun 1 2016, 15:17:01 Katastrof - Screams Of Silence (2013)
Register
(1) satanist666,
Feb 18 2016, 16:57:44 Armageddon - Crossing The Rubicon (1997)
Register
(1) Vincent,
Oct 31 2015, 16:04:09 Baldrs Draumar - Forfedres Fortellinger (2011)
320:
Register
(1) DMIYUR,
Oct 12 2015, 16:15:59 Parkway Drive - Ire (2015)


*Artist: Parkway Drive
*Album: Ire
*Year: 2015
*Genre: Metalcore
*Country: Australia
*Format: mp3@CBR320kbps
*Size: 110MB

Tracklist:
01. Destroyer 04:47
02. Dying To Believe 03:12
03. Vice Grip 04:23
04. Crushed 04:36
05. Fractures 05:32
06. Writings On The Wall 04:23
07. Bottom Feeder 04:20
08. The Sound Of Violence 03:24
09. Vicious 04:21
10. Dedicated 03:23
11. A Deathless Song 05:54
******************************
Total playing time: 48:15



[more=Technical info]
Input File: 04 - Crushed.mp3
Channels : 2
Sample Rate : 44100
Precision : 16-bit
Duration : 00:04:36.32 = 12185844 samples = 20724.2 CDDA sectors
File Size : 11.1M
Bit Rate : 320k
Sample Encoding: MPEG audio (layer I, II or III)
Comments :
Title=Crushed
Artist=Parkway Drive
Album=IRE
Tracknumber=4/11
Year=2015
Genre=Metalcore
Discnumber=1/1

[/more]

Register
(10) BoomBox, DenisKov, Diflock, Elfin, oldvarg, Rosen, spiritualdecay666, Typhoid, User123, varlam4,
Oct 12 2015, 15:11:40 Endless Battle - Шляхами Безодні (2015)
[youtube]uBDUKFuCiTw[/youtube]
(2) infiltrator, sacrut,
Oct 11 2015, 07:32:53 Рельос - Голоса Северных Морей (2015)
[youtube]YDSl3wvWksw[/youtube]
(2) Old Vyaine, SAPOGi,
Oct 3 2015, 18:09:54 Eïs - Bannstein (2015)
[youtube]EtBXtI2Tz48[/youtube]
(3) Fess, MMMMM, Old Vyaine,

28 Pages V   1 2 3 > » 
- Lo-Fi Version Support form
Copyrights and abuse reports form
Time is now: 8th April 2020 - 07:30:23